osu file format v5

[General]
AudioFilename: Sana Mollete Ne Ente.mp3
AudioLeadIn: 0
PreviewTime: -1
Countdown: 1
SampleSet: Normal
StackLeniency: 0.7
Mode: 0
LetterboxInBreaks: 1
EditorBookmarks: 5030,10530,15863,21363,26196,31863,34696,39863,44530,50030,55863,70196,77196,82530

[Metadata]
Title:Sana Mollete Ne Ente
Artist:Togo Project feat. Sana
Creator:kingcobra52
Version:Hard
Source:DDR
Tags:

[Difficulty]
HPDrainRate:5
CircleSize:5
OverallDifficulty:6
SliderMultiplier:2
SliderTickRate:4

[Events]
//Background and Video events
//Break Periods
2,66896,69663
//Storyboard Layer 0 (Background)
//Storyboard Layer 1 (Failing)
//Storyboard Layer 2 (Passing)
//Storyboard Layer 3 (Foreground)
//Storyboard Sound Samples
//Background Colour Transformations
3,100,255,28,255

[TimingPoints]
30,666.666666666667,4,1,0,80,1

[HitObjects]
96,112,5363,1,0
104,160,5530,1,0
144,192,5696,1,0
192,200,5863,1,0
296,200,6196,1,0
296,304,6530,1,0
296,200,6863,1,0
320,104,7196,1,0
352,64,7363,1,0
256,32,7696,1,0
224,72,7863,1,0
72,72,8363,5,4
8,152,8696,2,4,B|24:193|79:210|144:184,1,150
224,248,9530,1,0
288,328,9863,1,2
336,328,10030,1,2
400,248,10363,1,2
424,152,10696,6,0,B|421:98|360:56,2,100
320,152,11696,1,0
288,192,11863,1,0
184,192,12196,1,0
184,88,12530,1,0
80,88,12863,5,0
40,120,13030,1,0
80,144,13196,1,0
120,120,13363,1,0
80,208,13696,1,0
120,296,14030,1,0
160,208,14363,1,0
160,208,14530,1,0
208,296,14863,2,2,B|251:332|320:288,1,100
344,280,15363,1,2
416,216,15696,1,2
440,120,16030,6,0,B|483:113|488:48|440:32,2,100
360,56,17030,1,0
264,96,17363,1,0
176,152,17696,1,0
128,176,17863,1,0
176,264,18196,5,0
216,296,18363,1,0
256,264,18530,1,0
296,296,18696,2,0,B|327:312|373:292|384:256,1,100
424,168,19363,1,0
392,128,19530,1,0
360,168,19696,1,0
392,128,19863,1,0
240,128,20363,1,0
136,128,20696,6,0,B|48:152,1,50
88,192,21030,2,0,B|152:224,1,50
132,214,21363,1,8
160,312,21696,1,0
208,304,21863,1,0
248,272,22030,1,0
272,232,22196,1,0
272,128,22530,1,0
368,128,22863,1,0
368,232,23196,1,0
368,328,23530,6,0,B|432:328,2,50
320,328,24030,1,8
216,328,24363,1,0
168,328,24530,1,0
168,280,24696,1,0
216,280,24863,1,0
112,280,25196,1,0
64,192,25530,1,0
112,104,25863,1,0
208,96,26196,6,0,B|208:40,2,50
256,96,26696,1,8
352,96,27030,1,0
392,72,27196,1,0
432,96,27363,1,0
392,120,27530,1,0
392,216,27863,2,0,B|398:252|436:276|488:256,1,100
392,216,28530,1,0
312,280,28863,6,0,B|256:280,2,50
312,232,29363,1,8
312,128,29696,1,0
280,88,29863,1,0
248,128,30030,1,0
216,88,30196,1,0
152,160,30530,1,0
216,232,30863,1,0
144,304,31196,2,0,B|176:345|248:348|304:296,1,150
424,176,32363,5,4
376,88,32696,2,4,C|356:60|324:86|296:61|264:104,1,150
176,88,33530,1,0
96,144,33863,1,0
96,192,34030,1,0
176,256,34363,2,0,B|176:293|205:329|256:328,1,100
312,288,35030,6,0,B|313:224|232:208,2,100
352,208,36030,1,0
440,208,36363,1,0
440,160,36530,1,0
440,72,36863,5,0
392,72,37030,1,0
360,104,37196,1,0
312,104,37363,2,0,L|168:104,1,100
120,104,38030,1,0
120,192,38363,1,0
120,192,38530,1,0
120,280,38863,2,2,B|163:316|232:272,1,100
256,256,39363,1,2
328,200,39696,1,2
392,256,40030,6,0,B|435:249|440:184|392:168,2,100
328,320,41030,1,0
240,320,41363,1,0
280,240,41696,1,0
280,240,41863,1,0
192,240,42196,5,0
152,256,42363,1,0
112,240,42530,1,0
88,200,42696,2,0,B|40:144|88:88,1,100
152,72,43363,1,0
184,104,43530,1,0
216,72,43696,1,0
248,104,43863,1,0
248,240,44363,1,0
248,328,44696,6,0,B|176:328,1,50
152,312,45030,2,0,B|96:256,1,50
80,240,45363,1,8
56,152,45696,1,0
72,112,45863,1,0
104,80,46030,1,0
144,72,46196,1,0
232,72,46530,2,0,B|268:69|303:88|312:136,2,100
232,160,47530,6,0,B|232:224,2,50
232,160,48030,1,8
232,248,48363,1,0
232,296,48530,1,0
232,336,48696,1,0
280,336,48863,1,0
360,296,49196,1,0
416,224,49530,1,0
360,152,49863,1,0
360,64,50196,6,0,B|408:24,2,50
320,88,50696,1,8
232,88,51030,1,0
200,120,51196,1,0
232,152,51363,1,0
200,184,51530,1,0
200,272,51863,2,0,B|206:308|235:328|288:328,1,100
360,328,52530,1,0
360,240,52863,6,0,B|304:240,2,50
408,240,53363,1,8
360,168,53696,1,0
392,136,53863,1,0
360,104,54030,1,0
392,72,54196,1,0
304,72,54530,1,0
216,72,54863,1,0
128,72,55196,2,0,B|87:104|84:176|136:232,1,150
256,192,56030,12,0,57696
256,192,58030,6,0,B|264:120|344:136,1,100
400,136,58696,1,0
400,216,59030,1,0
400,256,59196,1,0
400,352,59530,6,8,B|456:352,2,50
352,352,60030,1,8
280,288,60363,1,2
248,248,60530,2,2,B|144:104,1,150
256,192,61363,12,4,63030
256,192,63363,6,0,B|208:223|144:176,1,100
72,168,64030,2,4,B|32:232|96:280,4,100
72,168,65530,1,0
72,80,65863,1,0
104,48,66030,1,0
136,80,66196,1,0
272,80,66696,1,4
256,192,70863,12,2,71696
96,192,72030,5,0
112,232,72196,1,0
144,264,72363,1,0
184,272,72530,1,0
248,320,72863,1,0
328,280,73196,1,0
408,320,73530,1,0
488,280,73863,1,0
488,232,74030,1,0
488,144,74363,1,0
448,128,74530,1,0
440,80,74696,5,0
416,40,74863,1,0
368,32,75030,1,0
328,48,75196,1,0
256,104,75530,1,0
168,104,75863,1,0
160,240,76363,2,2,B|101:239|80:304,2,100
248,240,77363,5,0
280,208,77529,1,0
312,240,77696,1,0
280,272,77863,1,0
352,320,78196,1,0
424,272,78529,1,0
400,184,78863,1,0
368,96,79196,1,0
320,96,79363,1,0
256,160,79696,1,0
208,160,79863,1,0
160,160,80029,5,0
112,160,80196,1,0
112,200,80363,1,0
112,240,80529,1,0
176,304,80863,1,0
264,304,81196,1,0
264,216,81530,1,8
352,216,81863,1,8
352,264,82030,1,8
440,264,82363,1,8
448,176,82696,6,0,B|463:117|384:80,2,100
407,92,83696,1,0
368,64,83863,1,0
280,64,84196,1,0
192,64,84530,1,0
120,120,84863,5,0
88,152,85030,1,0
88,192,85196,1,0
120,224,85363,1,0
144,312,85696,1,0
160,224,86030,1,0
184,312,86363,1,0
232,312,86530,1,0
320,312,86863,2,2,B|363:348|432:304,1,100
416,272,87363,1,2
416,184,87696,1,2
328,184,88030,6,0,B|285:177|280:112|328:96,2,100
328,272,89030,1,0
280,272,89196,1,0
192,272,89530,1,0
192,184,89863,1,0
104,184,90196,5,0
72,152,90363,1,0
56,104,90530,1,0
72,64,90696,2,0,B|80:37|126:17|157:33,1,100
232,72,91363,1,4
296,136,91530,1,4
232,136,91696,1,4
296,72,91863,1,4
