osu file format v5

[General]
AudioFilename: Sana Mollete Ne Ente.mp3
AudioLeadIn: 0
PreviewTime: -1
Countdown: 1
SampleSet: Normal
StackLeniency: 0.7
Mode: 0
LetterboxInBreaks: 1
EditorBookmarks: 5030,10530,15863,21363,26196,31863,34696,39863,44530,50030,55863,70196,77196,82530

[Metadata]
Title:Sana Mollete Ne Ente
Artist:Togo Project feat. Sana
Creator:kingcobra52
Version:Easy
Source:DDR
Tags:

[Difficulty]
HPDrainRate:3
CircleSize:4
OverallDifficulty:4
SliderMultiplier:1.4
SliderTickRate:4

[Events]
//Background and Video events
//Break Periods
2,66896,70710
//Storyboard Layer 0 (Background)
//Storyboard Layer 1 (Failing)
//Storyboard Layer 2 (Passing)
//Storyboard Layer 3 (Foreground)
//Storyboard Sound Samples
//Background Colour Transformations
3,100,255,28,255

[TimingPoints]
30,666.666666666667,4,1,0,80,1

[HitObjects]
64,192,5363,1,0
192,192,6030,1,0
320,192,6696,1,0
448,192,7363,1,0
256,192,8363,5,4
256,128,8696,2,4,C|219:128|204:96|160:96,1,105
352,312,10696,6,0,B|436:328|464:216,1,140
456,112,12030,2,0,B|436:26|352:42,1,140
352,168,13363,2,0,L|319:212|295:168|256:168,1,140
136,168,14696,1,2
136,296,15363,1,2
264,296,16030,6,0,B|316:272|317:217|272:176,1,140
272,56,17363,1,0
400,56,18030,1,0
400,184,18696,5,0
272,184,19363,1,0
272,312,20030,1,0
144,312,20696,6,0,B|144:136,1,140,0|8
144,48,22030,1,0
272,48,22696,1,0
272,176,23363,6,0,B|440:176,1,140,0|8
408,304,24696,1,0
280,304,25363,1,0
152,304,26030,6,0,B|91:276|98:206|152:184,1,140,0|8
144,64,27363,1,0
248,136,28030,1,0
352,64,28696,6,0,L|388:78|367:104|402:116|376:144,1,140,0|8
376,264,30030,1,0
248,264,30696,1,0
248,136,31363,1,0
72,208,32363,5,4
72,272,32696,2,4,C|92:300|124:274|152:299,1,105
304,288,34030,1,2
304,160,34696,2,0,B|304:197|359:244|416:232,1,140
488,136,36030,2,0,B|488:99|433:52|376:64,1,140
256,64,37363,6,0,L|112:64,1,140
48,64,38363,1,0
48,64,38530,1,0
48,224,39363,1,2
136,312,40030,6,0,B|158:356|224:358|256:312,1,140
376,312,41363,1,0
376,184,42030,1,0
248,184,42696,6,0,B|216:141|215:89|256:56,1,140
312,56,43696,1,0
312,56,43863,1,0
216,184,44696,6,0,B|64:184,1,140,0|8
80,312,46030,1,0
208,312,46696,2,0,B|259:309|292:266|288:208,2,140,0|0|8
208,184,48696,1,0
208,56,49363,6,0,B|259:59|292:102|288:160,2,140,0|0|8
128,152,51363,1,0
56,256,52030,2,0,B|62:292|116:329|176:312,1,140
296,312,53363,5,8
424,312,54030,1,0
424,184,54696,1,0
296,184,55363,1,0
256,192,56030,12,0,58030
256,192,58696,5,0
368,248,59363,2,2,B|347:294|311:322|266:332|212:329|169:302|144:240,1,280
256,192,61363,12,4,63363
320,136,64030,6,4,B|257:93|176:136,3,140
256,232,66696,1,4
48,64,72030,6,0,C|82:92|103:72|132:90|160:72,1,140
280,80,73363,1,0
408,80,74030,1,0
408,208,74696,6,0,C|384:224|355:206|325:224|288:200,1,140
168,200,76030,1,0
64,264,76696,2,2,B|64:305|99:343|192:344,1,140
320,344,78030,1,0
400,248,78696,1,0
320,144,79363,1,0
240,48,80029,5,0
160,144,80696,1,0
240,240,81363,1,0
368,240,82030,1,8
456,152,82696,6,0,B|469:112|400:88,2,70
344,96,84030,1,0
216,96,84696,1,0
96,144,85363,6,0,B|82:108|129:93,2,70
216,192,86696,1,0
344,192,87363,1,2
344,320,88030,6,0,B|280:368|200:312,1,140
104,256,89363,1,0
104,128,90030,1,0
232,128,90696,1,0
360,128,91363,2,4,C|416:128,3,35
