osu file format v12

[General]
AudioFilename: homosuck.mp3
AudioLeadIn: 0
PreviewTime: 25207
Countdown: 0
SampleSet: Normal
StackLeniency: 0.7
Mode: 1
LetterboxInBreaks: 0

[Editor]
DistanceSpacing: 1
BeatDivisor: 4
GridSize: 4

[Metadata]
Title:Hate You
TitleUnicode:Hate You
Artist:Toby "Radiation" Fox
ArtistUnicode:Toby "Radiation" Fox
Creator:Elly-chan
Version:Oni
Source:Homestuck
Tags:Azami Feferi Meenah Piexes Volume 9
BeatmapID:269518
BeatmapSetID:101804

[Difficulty]
HPDrainRate:6
CircleSize:5
OverallDifficulty:6
ApproachRate:5
SliderMultiplier:1.4
SliderTickRate:1

[Events]
//Background and Video events
0,0,"ho mono suck.png",0,0
//Break Periods
//Storyboard Layer 0 (Background)
//Storyboard Layer 1 (Fail)
//Storyboard Layer 2 (Pass)
//Storyboard Layer 3 (Foreground)
//Storyboard Sound Samples
//Background Colour Transformations
3,100,0,0,0

[TimingPoints]
23256,487.80487804878,4,1,0,40,1,0
107158,-80,4,1,0,40,0,1
122767,-80,4,1,0,35,0,0
123743,-80,4,1,0,30,0,0
124475,-80,4,1,0,25,0,0

[Colours]
Combo1 : 128,255,255
Combo2 : 255,128,128

[HitObjects]
256,192,23255,1,0,0:0:0:0:
256,192,24719,1,8,0:0:0:0:
256,192,25209,1,4,0:0:0:0:
256,192,25696,1,0,0:0:0:0:
256,192,25940,1,8,0:0:0:0:
256,192,26184,1,8,0:0:0:0:
256,192,26428,1,0,0:0:0:0:
256,192,26672,1,8,0:0:0:0:
256,192,26794,1,8,0:0:0:0:
256,192,26916,1,0,0:0:0:0:
256,192,27038,1,0,0:0:0:0:
256,192,27160,1,8,0:0:0:0:
256,192,27404,1,0,0:0:0:0:
256,192,27526,1,0,0:0:0:0:
256,192,27769,1,8,0:0:0:0:
256,192,27891,1,8,0:0:0:0:
256,192,28013,1,8,0:0:0:0:
256,192,28135,1,0,0:0:0:0:
256,192,28867,1,0,0:0:0:0:
256,192,29111,1,0,0:0:0:0:
256,192,29599,1,8,0:0:0:0:
256,192,29843,1,0,0:0:0:0:
256,192,30087,1,8,0:0:0:0:
256,192,30330,1,8,0:0:0:0:
256,192,30574,1,0,0:0:0:0:
256,192,30696,1,0,0:0:0:0:
256,192,30818,1,8,0:0:0:0:
256,192,30940,1,8,0:0:0:0:
256,192,31062,1,0,0:0:0:0:
256,192,31306,1,0,0:0:0:0:
256,192,31428,1,8,0:0:0:0:
256,192,31672,1,0,0:0:0:0:
256,192,31794,1,8,0:0:0:0:
256,192,32038,1,4,0:0:0:0:
256,192,32769,1,8,0:0:0:0:
256,192,33013,1,0,0:0:0:0:
256,192,33501,1,0,0:0:0:0:
256,192,33745,1,8,0:0:0:0:
256,192,33989,1,8,0:0:0:0:
256,192,34233,1,0,0:0:0:0:
256,192,34477,1,8,0:0:0:0:
256,192,34599,1,8,0:0:0:0:
256,192,34721,1,0,0:0:0:0:
256,192,34843,1,0,0:0:0:0:
256,192,34965,1,8,0:0:0:0:
256,192,35208,1,8,0:0:0:0:
256,192,35330,1,8,0:0:0:0:
256,192,35574,1,0,0:0:0:0:
256,192,35696,1,0,0:0:0:0:
256,192,35818,1,0,0:0:0:0:
256,192,35940,1,8,0:0:0:0:
256,192,36428,1,0,0:0:0:0:
256,192,36916,1,8,0:0:0:0:
256,192,37282,1,8,0:0:0:0:
256,192,37404,1,0,0:0:0:0:
256,192,37648,1,0,0:0:0:0:
256,192,37891,1,8,0:0:0:0:
256,192,38257,1,0,0:0:0:0:
256,192,38623,1,0,0:0:0:0:
256,192,38867,1,8,0:0:0:0:
256,192,39233,1,0,0:0:0:0:
256,192,39355,1,0,0:0:0:0:
256,192,39599,1,0,0:0:0:0:
256,192,39843,1,4,0:0:0:0:
256,192,40818,1,8,0:0:0:0:
256,192,41306,1,0,0:0:0:0:
256,192,41794,1,8,0:0:0:0:
256,192,42038,1,0,0:0:0:0:
256,192,42282,1,8,0:0:0:0:
256,192,42404,1,8,0:0:0:0:
256,192,42526,1,8,0:0:0:0:
256,192,42648,1,8,0:0:0:0:
256,192,42769,1,0,0:0:0:0:
256,192,43013,1,0,0:0:0:0:
256,192,43135,1,8,0:0:0:0:
256,192,43379,1,0,0:0:0:0:
256,192,43501,1,8,0:0:0:0:
256,192,43623,1,8,0:0:0:0:
256,192,43745,1,8,0:0:0:0:
256,192,44721,1,0,0:0:0:0:
256,192,45208,1,8,0:0:0:0:
256,192,45696,1,8,0:0:0:0:
256,192,45940,1,8,0:0:0:0:
256,192,46184,1,0,0:0:0:0:
256,192,46306,1,0,0:0:0:0:
256,192,46428,1,8,0:0:0:0:
256,192,46550,1,8,0:0:0:0:
256,192,46672,1,0,0:0:0:0:
256,192,46916,1,8,0:0:0:0:
256,192,47038,1,0,0:0:0:0:
256,192,47282,1,0,0:0:0:0:
256,192,47404,1,0,0:0:0:0:
256,192,47526,1,0,0:0:0:0:
256,192,47648,1,8,0:0:0:0:
256,192,48623,1,0,0:0:0:0:
256,192,49111,1,0,0:0:0:0:
256,192,49599,1,8,0:0:0:0:
256,192,49843,1,0,0:0:0:0:
256,192,50087,1,8,0:0:0:0:
256,192,50208,1,0,0:0:0:0:
256,192,50330,1,8,0:0:0:0:
256,192,50452,1,0,0:0:0:0:
256,192,50574,1,0,0:0:0:0:
256,192,50818,1,0,0:0:0:0:
256,192,50940,1,8,0:0:0:0:
256,192,51184,1,0,0:0:0:0:
256,192,51306,1,8,0:0:0:0:
256,192,51428,1,8,0:0:0:0:
256,192,51550,1,8,0:0:0:0:
256,192,52038,1,0,0:0:0:0:
256,192,52526,1,8,0:0:0:0:
256,192,53013,1,0,0:0:0:0:
256,192,53257,1,0,0:0:0:0:
256,192,53501,1,8,0:0:0:0:
256,192,53826,1,0,0:0:0:0:
256,192,53908,1,0,0:0:0:0:
256,192,53989,1,0,0:0:0:0:
256,192,54233,1,0,0:0:0:0:
256,192,54477,1,8,0:0:0:0:
256,192,54721,1,0,0:0:0:0:
256,192,54843,1,0,0:0:0:0:
256,192,54965,1,8,0:0:0:0:
256,192,55087,1,8,0:0:0:0:
256,192,55208,1,0,0:0:0:0:
256,192,55330,1,0,0:0:0:0:
256,192,55940,1,8,0:0:0:0:
256,192,56428,1,12,0:0:0:0:
256,192,56794,1,0,0:0:0:0:
256,192,57160,1,0,0:0:0:0:
256,192,57282,1,0,0:0:0:0:
256,192,57404,1,8,0:0:0:0:
256,192,57891,1,0,0:0:0:0:
256,192,58135,1,8,0:0:0:0:
256,192,58379,1,8,0:0:0:0:
256,192,58501,1,0,0:0:0:0:
256,192,58745,1,0,0:0:0:0:
256,192,58867,1,8,0:0:0:0:
256,192,59111,1,0,0:0:0:0:
256,192,59233,1,0,0:0:0:0:
256,192,59355,1,8,0:0:0:0:
256,192,59843,1,0,0:0:0:0:
256,192,60087,1,8,0:0:0:0:
256,192,60330,1,8,0:0:0:0:
256,192,60696,1,0,0:0:0:0:
256,192,61062,1,0,0:0:0:0:
256,192,61306,1,8,0:0:0:0:
256,192,61672,1,0,0:0:0:0:
256,192,61794,1,8,0:0:0:0:
256,192,61916,1,8,0:0:0:0:
256,192,62038,1,8,0:0:0:0:
256,192,62160,1,8,0:0:0:0:
256,192,62282,1,0,0:0:0:0:
256,192,62526,1,0,0:0:0:0:
256,192,62648,1,8,0:0:0:0:
256,192,62891,1,0,0:0:0:0:
256,192,63013,1,8,0:0:0:0:
256,192,63135,1,0,0:0:0:0:
256,192,63257,1,8,0:0:0:0:
256,192,63743,1,8,0:0:0:0:
256,192,63989,1,8,0:0:0:0:
256,192,64233,1,0,0:0:0:0:
256,192,64599,1,0,0:0:0:0:
256,192,64965,1,0,0:0:0:0:
256,192,65087,1,0,0:0:0:0:
256,192,65208,1,8,0:0:0:0:
256,192,65696,1,8,0:0:0:0:
256,192,65940,1,8,0:0:0:0:
256,192,66184,1,0,0:0:0:0:
256,192,66548,1,0,0:0:0:0:
256,192,66916,1,8,0:0:0:0:
256,192,67038,1,0,0:0:0:0:
256,192,67160,1,8,0:0:0:0:
256,192,67648,1,8,0:0:0:0:
256,192,68135,1,0,0:0:0:0:
256,192,68501,1,0,0:0:0:0:
256,192,68867,1,0,0:0:0:0:
256,192,68989,1,0,0:0:0:0:
256,192,69111,1,8,0:0:0:0:
256,192,69599,1,8,0:0:0:0:
256,192,69841,1,8,0:0:0:0:
256,192,70087,1,0,0:0:0:0:
256,192,70330,1,0,0:0:0:0:
256,192,70452,1,8,0:0:0:0:
256,192,70696,1,0,0:0:0:0:
256,192,70818,1,8,0:0:0:0:
256,192,70940,1,8,0:0:0:0:
256,192,71062,1,0,0:0:0:0:
256,192,71428,1,0,0:0:0:0:
256,192,71794,1,0,0:0:0:0:
256,192,72038,2,0,L|256:104,3,70
256,192,73013,2,0,L|256:104,3,70
256,192,73989,1,4,0:0:0:0:
256,192,74965,1,12,0:0:0:0:
256,192,75940,2,0,L|256:276,3,70
256,192,76916,1,8,0:0:0:0:
256,192,77160,1,0,0:0:0:0:
256,192,77404,1,8,0:0:0:0:
256,192,77526,1,8,0:0:0:0:
256,192,77648,1,0,0:0:0:0:
256,192,77891,1,4,0:0:0:0:
256,192,78867,1,12,0:0:0:0:
256,192,79843,1,0,0:0:0:0:
256,192,80087,1,0,0:0:0:0:
256,192,80330,1,8,0:0:0:0:
256,192,80574,1,8,0:0:0:0:
256,192,80818,2,0,L|256:108,3,70
256,192,81794,1,0,0:0:0:0:
256,192,82038,1,0,0:0:0:0:
256,192,82282,1,8,0:0:0:0:
256,192,82526,1,8,0:0:0:0:
256,192,82769,2,0,L|256:280,3,70
256,192,83745,1,0,0:0:0:0:
256,192,83908,1,0,0:0:0:0:
256,192,84070,1,0,0:0:0:0:
256,192,84233,1,8,0:0:0:0:
256,192,84395,1,8,0:0:0:0:
256,192,84558,1,8,0:0:0:0:
256,192,84721,1,0,0:0:0:0:
256,192,84883,1,0,0:0:0:0:
256,192,85046,1,0,0:0:0:0:
256,192,85208,1,8,0:0:0:0:
256,192,85371,1,8,0:0:0:0:
256,192,85534,1,8,0:0:0:0:
256,192,85696,1,0,0:0:0:0:
256,192,85859,1,0,0:0:0:0:
256,192,86022,1,8,0:0:0:0:
256,192,86184,1,0,0:0:0:0:
256,192,86347,1,0,0:0:0:0:
256,192,86509,1,8,0:0:0:0:
256,192,86672,1,8,0:0:0:0:
256,192,86835,1,0,0:0:0:0:
256,192,86997,1,0,0:0:0:0:
256,192,87160,1,8,0:0:0:0:
256,192,87322,1,0,0:0:0:0:
256,192,87485,1,0,0:0:0:0:
256,192,87648,1,8,0:0:0:0:
256,192,87769,1,8,0:0:0:0:
256,192,87891,1,0,0:0:0:0:
256,192,88013,1,0,0:0:0:0:
256,192,88135,1,8,0:0:0:0:
256,192,88257,1,8,0:0:0:0:
256,192,88379,1,0,0:0:0:0:
256,192,88501,1,0,0:0:0:0:
256,192,88623,1,8,0:0:0:0:
256,192,88745,1,8,0:0:0:0:
256,192,88867,1,8,0:0:0:0:
256,192,88989,1,0,0:0:0:0:
256,192,89111,1,8,0:0:0:0:
256,192,89233,1,8,0:0:0:0:
256,192,89355,1,8,0:0:0:0:
256,192,89477,1,0,0:0:0:0:
256,192,89599,1,8,0:0:0:0:
256,192,90208,1,0,0:0:0:0:
256,192,90330,1,8,0:0:0:0:
256,192,90452,1,8,0:0:0:0:
256,192,90574,1,0,0:0:0:0:
256,192,91062,1,8,0:0:0:0:
256,192,91550,1,4,0:0:0:0:
256,192,92038,1,0,0:0:0:0:
256,192,92282,1,8,0:0:0:0:
256,192,92526,1,8,0:0:0:0:
256,192,92769,1,0,0:0:0:0:
256,192,93013,1,8,0:0:0:0:
256,192,93135,1,8,0:0:0:0:
256,192,93257,1,0,0:0:0:0:
256,192,93379,1,0,0:0:0:0:
256,192,93501,1,8,0:0:0:0:
256,192,93745,1,0,0:0:0:0:
256,192,93867,1,0,0:0:0:0:
256,192,93989,1,8,0:0:0:0:
256,192,94233,1,8,0:0:0:0:
256,192,94477,1,4,0:0:0:0:
256,192,95208,1,8,0:0:0:0:
256,192,95452,1,0,0:0:0:0:
256,192,95940,1,0,0:0:0:0:
256,192,96184,1,8,0:0:0:0:
256,192,96428,1,8,0:0:0:0:
256,192,96672,1,0,0:0:0:0:
256,192,96916,1,0,0:0:0:0:
256,192,97038,1,0,0:0:0:0:
256,192,97160,1,8,0:0:0:0:
256,192,97282,1,8,0:0:0:0:
256,192,97404,1,0,0:0:0:0:
256,192,97648,1,0,0:0:0:0:
256,192,97769,1,8,0:0:0:0:
256,192,98013,1,0,0:0:0:0:
256,192,98135,1,8,0:0:0:0:
256,192,98379,1,4,0:0:0:0:
256,192,99111,1,8,0:0:0:0:
256,192,99355,1,0,0:0:0:0:
256,192,99843,1,0,0:0:0:0:
256,192,100087,1,8,0:0:0:0:
256,192,100330,1,8,0:0:0:0:
256,192,100574,1,0,0:0:0:0:
256,192,100818,1,8,0:0:0:0:
256,192,100940,1,8,0:0:0:0:
256,192,101062,1,0,0:0:0:0:
256,192,101184,1,0,0:0:0:0:
256,192,101306,1,8,0:0:0:0:
256,192,101550,1,8,0:0:0:0:
256,192,101672,1,8,0:0:0:0:
256,192,101794,1,0,0:0:0:0:
256,192,101916,1,0,0:0:0:0:
256,192,102038,1,0,0:0:0:0:
256,192,102160,1,0,0:0:0:0:
256,192,102282,1,8,0:0:0:0:
256,192,102607,1,8,0:0:0:0:
256,192,102769,1,8,0:0:0:0:
256,192,102932,1,0,0:0:0:0:
256,192,103095,1,8,0:0:0:0:
256,192,103257,1,4,0:0:0:0:
256,192,104233,1,8,0:0:0:0:
256,192,104558,1,0,0:0:0:0:
256,192,104639,1,0,0:0:0:0:
256,192,104721,1,0,0:0:0:0:
256,192,104965,1,0,0:0:0:0:
256,192,105208,1,8,0:0:0:0:
256,192,105696,1,8,0:0:0:0:
256,192,105818,1,0,0:0:0:0:
256,192,106062,1,0,0:0:0:0:
256,192,106184,1,8,0:0:0:0:
256,192,106306,1,8,0:0:0:0:
256,192,106428,1,8,0:0:0:0:
256,192,106550,1,8,0:0:0:0:
256,192,106672,1,0,0:0:0:0:
256,192,106916,1,0,0:0:0:0:
256,192,107160,1,4,0:0:0:0:
256,192,107404,1,0,0:0:0:0:
256,192,107526,1,0,0:0:0:0:
256,192,107648,1,8,0:0:0:0:
256,192,107891,1,8,0:0:0:0:
256,192,108013,1,8,0:0:0:0:
256,192,108135,1,0,0:0:0:0:
256,192,108379,1,0,0:0:0:0:
256,192,108623,1,8,0:0:0:0:
256,192,108745,1,8,0:0:0:0:
256,192,108867,1,0,0:0:0:0:
256,192,108989,1,0,0:0:0:0:
256,192,109111,1,0,0:0:0:0:
256,192,109355,1,0,0:0:0:0:
256,192,109477,1,0,0:0:0:0:
256,192,109599,1,8,0:0:0:0:
256,192,109843,1,8,0:0:0:0:
256,192,109965,1,8,0:0:0:0:
256,192,110087,1,0,0:0:0:0:
256,192,110208,1,0,0:0:0:0:
256,192,110452,1,0,0:0:0:0:
256,192,110574,1,8,0:0:0:0:
256,192,110818,1,8,0:0:0:0:
256,192,111062,1,0,0:0:0:0:
256,192,111184,1,0,0:0:0:0:
256,192,111306,1,8,0:0:0:0:
256,192,111428,1,8,0:0:0:0:
256,192,111550,1,8,0:0:0:0:
256,192,111672,1,0,0:0:0:0:
256,192,111794,1,8,0:0:0:0:
256,192,111916,1,0,0:0:0:0:
256,192,112038,1,8,0:0:0:0:
256,192,112160,1,8,0:0:0:0:
256,192,112282,1,0,0:0:0:0:
256,192,112404,1,0,0:0:0:0:
256,192,112526,1,8,0:0:0:0:
256,192,112648,1,8,0:0:0:0:
256,192,112769,1,0,0:0:0:0:
256,192,113013,1,0,0:0:0:0:
256,192,113135,1,0,0:0:0:0:
256,192,113257,1,8,0:0:0:0:
256,192,113377,1,8,0:0:0:0:
256,192,113501,1,8,0:0:0:0:
256,192,113621,1,0,0:0:0:0:
256,192,113745,1,0,0:0:0:0:
256,192,113865,1,0,0:0:0:0:
256,192,113989,1,8,0:0:0:0:
256,192,114111,1,8,0:0:0:0:
256,192,114233,1,0,0:0:0:0:
256,192,114353,1,0,0:0:0:0:
256,192,114477,1,8,0:0:0:0:
256,192,114597,1,8,0:0:0:0:
256,192,114721,1,8,0:0:0:0:
256,192,114841,1,8,0:0:0:0:
256,192,114965,1,0,0:0:0:0:
256,192,115452,1,8,0:0:0:0:
256,192,115940,1,0,0:0:0:0:
256,192,116022,1,0,0:0:0:0:
256,192,116103,1,0,0:0:0:0:
256,192,116184,1,8,0:0:0:0:
256,192,116428,1,8,0:0:0:0:
256,192,116550,1,8,0:0:0:0:
256,192,116672,1,8,0:0:0:0:
256,192,116794,1,8,0:0:0:0:
256,192,116916,1,0,0:0:0:0:
256,192,117404,1,8,0:0:0:0:
256,192,117648,1,0,0:0:0:0:
256,192,117891,1,8,0:0:0:0:
256,192,118379,1,0,0:0:0:0:
256,192,118867,1,4,0:0:0:0:
256,192,119843,1,12,0:0:0:0:
256,192,120330,1,0,0:0:0:0:
256,192,120818,1,4,0:0:0:0:
256,192,121306,1,0,0:0:0:0:
256,192,121469,1,0,0:0:0:0:
256,192,121631,1,0,0:0:0:0:
256,192,121794,1,12,0:0:0:0:
256,192,122119,1,8,0:0:0:0:
256,192,122444,1,8,0:0:0:0:
256,192,122769,1,0,0:0:0:0:
256,192,123745,1,0,0:0:0:0:
256,192,124477,1,0,0:0:0:0:
256,192,124599,1,0,0:0:0:0:
256,192,124719,1,8,0:0:0:0:
256,192,124841,12,0,128621,0:0:0:0:
