osu file format v13

[General]
AudioFilename: Homestuck Vol.8 - 10 Davesprite.mp3
AudioLeadIn: 0
PreviewTime: 42129
Countdown: 0
SampleSet: Normal
StackLeniency: 0.7
Mode: 0
LetterboxInBreaks: 0
WidescreenStoryboard: 0

[Editor]
DistanceSpacing: 1.2
BeatDivisor: 4
GridSize: 4
TimelineZoom: 1

[Metadata]
Title:Davesprite
TitleUnicode:Davesprite
Artist:Toby "Radiation" Fox
ArtistUnicode:Toby "Radiation" Fox
Creator:-Dave Strider-
Version:Normal
Source:Homestuck
Tags:Homestuck davesprite
BeatmapID:462933
BeatmapSetID:195026

[Difficulty]
HPDrainRate:5
CircleSize:3
OverallDifficulty:5
ApproachRate:5
SliderMultiplier:1.4
SliderTickRate:1

[Events]
//Background and Video events
0,0,"DavespriteAscend03.jpg",0,0
//Break Periods
2,39723,41104
2,79236,84714
//Storyboard Layer 0 (Background)
//Storyboard Layer 1 (Fail)
//Storyboard Layer 2 (Pass)
//Storyboard Layer 3 (Foreground)
//Storyboard Sound Samples
//Background Colour Transformations
3,100,163,162,255

[TimingPoints]
4841,585.194577196918,4,1,0,100,1,0
4841,585.194577196918,4,1,0,100,1,0
42231,-100,4,1,0,100,0,1
61013,-100,4,1,0,100,0,0

[Colours]
Combo1 : 128,0,0
Combo2 : 255,128,0
Combo3 : 255,0,0
Combo4 : 255,255,0

[HitObjects]
140,92,4840,6,0,B|108:148|108:148|168:172,1,105,0|0,0:0|0:0,0:0:0:0:
264,204,5719,1,0,0:0:0:0:
320,268,6011,2,0,P|276:304|208:300,2,105,0|0|0,0:0|0:0|0:0,0:0:0:0:
396,228,7182,2,0,P|364:176|364:124,2,105,0|0|0,0:0|0:0|0:0,0:0:0:0:
160,124,8353,6,0,B|168:156|112:276,1,140
316,292,9523,2,0,P|388:304|420:288,1,105
328,200,10401,1,0,0:0:0:0:
412,180,10694,2,0,P|436:84|416:56,1,140,0|0,0:0|0:0,0:0:0:0:
336,136,11572,5,0,0:0:0:0:
252,136,11865,1,0,0:0:0:0:
172,164,12158,2,0,P|156:216|168:256,1,70,0|0,0:0|0:0,0:0:0:0:
220,292,12743,2,0,P|284:264|312:256,1,70
336,196,13328,2,0,P|304:148|304:136,1,70
212,72,13914,1,0,0:0:0:0:
164,140,14206,6,0,B|152:112|100:104|68:116,1,105,0|0,0:0|0:0,0:0:0:0:
100,216,15084,2,0,B|92:276|92:276|92:292|92:292|112:304,1,70
200,220,15816,2,0,P|216:272|264:328,1,105
316,264,16548,1,0,0:0:0:0:
440,264,16987,1,0,0:0:0:0:
388,148,17426,2,0,P|320:104|176:172,1,245
152,184,18597,1,0,0:0:0:0:
160,272,18889,6,0,P|180:300|248:308,1,105
336,240,19767,2,0,P|392:224|432:232,2,70,0|0|0,0:0|0:0|0:0,0:0:0:0:
272,252,20645,1,0,0:0:0:0:
272,252,20938,1,0,0:0:0:0:
256,192,21084,12,0,22987,0:0:0:0:
160,244,23572,6,0,P|176:280|204:308,2,70,0|0|0,0:0|0:0|0:0,0:0:0:0:
196,168,24450,1,0,0:0:0:0:
180,84,24743,1,0,0:0:0:0:
304,196,25328,2,0,P|344:256|360:260,1,70
420,272,25914,1,0,0:0:0:0:
428,188,26206,6,0,L|404:120,1,70
336,76,26792,2,0,P|272:72|240:72,2,70,0|0|0,0:0|0:0|0:0,0:0:0:0:
340,160,27670,1,0,0:0:0:0:
340,160,27962,1,0,0:0:0:0:
344,244,28255,2,0,P|288:264|188:248,1,140
148,100,29426,2,0,P|196:60|284:64,1,140
364,196,30589,6,0,L|148:296,1,210
124,216,31759,2,0,P|136:144|216:116,1,140
276,100,32645,6,0,L|320:104,1,35
344,128,32938,2,0,P|400:128|432:140,1,70
424,216,33523,2,0,P|476:248|512:260,2,70,0|0|0,0:0|0:0|0:0,0:0:0:0:
228,108,34987,6,0,L|140:92,1,70
136,176,35572,1,0,0:0:0:0:
136,176,35865,2,0,L|224:208,1,70,0|0,0:0|0:0,0:0:0:0:
256,192,37182,12,0,39523,0:0:0:0:
88,176,42304,6,0,P|100:252|240:292,1,210
324,244,43475,2,0,P|292:172|288:156,2,70,0|0|0,0:0|0:0|0:0,0:0:0:0:
416,252,44353,1,0,0:0:0:0:
416,160,44645,2,0,B|420:124|420:124|368:124,2,70,0|0|0,0:0|0:0|0:0,0:0:0:0:
340,200,45523,5,0,0:0:0:0:
248,176,45816,1,0,0:0:0:0:
160,96,46109,2,0,B|120:104|120:104|160:132|160:132|132:164|132:164|128:260,1,210
200,288,47280,1,0,0:0:0:0:
296,288,47572,2,0,L|372:288,2,70,0|0|0,0:0|0:0|0:0,0:0:0:0:
264,204,48450,2,0,P|244:152|316:120,1,140
396,184,49328,6,0,P|432:160|432:132,1,70
356,92,49914,2,0,P|312:96|224:52,1,140,0|0,0:0|0:0,0:0:0:0:
80,128,51071,2,0,B|44:188|44:188|96:232|96:232|76:272|96:288,1,175
124,292,51962,2,0,L|216:304,1,70
272,272,52548,1,0,0:0:0:0:
336,220,52841,1,0,0:0:0:0:
348,136,53133,6,0,L|416:120,1,70
464,192,53719,2,0,B|440:220|476:244|428:328,1,140
352,316,54582,2,0,P|272:320|256:320,1,70
284,236,55167,2,0,B|300:192|292:188|392:148,1,140,0|0,0:0|0:0,0:0:0:0:
440,220,56060,6,0,P|508:208|492:84,1,210
420,92,57231,1,0,0:0:0:0:
336,100,57523,2,0,L|244:104,1,70
184,128,58109,2,0,B|164:160|196:168|216:192|152:220|160:232|232:232|220:252,1,140
300,276,58987,6,0,B|340:248|340:248|440:276,1,140,0|0,0:0|0:0,0:0:0:0:
476,204,59865,1,0,0:0:0:0:
332,120,60450,1,0,0:0:0:0:
184,144,61036,5,0,0:0:0:0:
248,88,61328,2,0,L|328:80,1,70
408,128,61914,2,0,L|448:204,1,70
284,280,62645,2,0,P|188:280|156:264,1,105
136,204,63377,1,0,0:0:0:0:
232,124,63816,5,0,0:0:0:0:
352,168,64255,2,0,P|404:212|404:228,1,70
344,268,64841,2,0,P|296:268|268:260,2,70,0|0|0,0:0|0:0|0:0,0:0:0:0:
328,184,65719,1,0,0:0:0:0:
204,156,66158,1,0,0:0:0:0:
116,64,66597,2,0,L|56:104,1,70
68,188,67182,6,0,P|148:200|168:200,1,70
204,252,67767,1,0,0:0:0:0:
284,284,68060,6,0,P|328:284|408:268,1,105
328,164,68938,2,0,P|244:152|116:196,1,210,0|0,0:0|0:0,0:0:0:0:
232,320,70401,1,0,0:0:0:0:
312,292,70694,1,0,0:0:0:0:
388,256,70987,2,0,B|412:224|412:224|452:204,1,70
148,180,71572,6,0,B|116:156|156:116|108:84,1,105
236,72,72450,1,0,0:0:0:0:
312,112,72743,2,0,L|488:236,1,210
480,316,73914,2,0,P|432:332|388:328,2,70,0|0|0,0:0|0:0|0:0,0:0:0:0:
340,224,75084,2,0,P|292:184|296:168,1,70
344,128,75649,6,0,L|388:56,1,70
464,100,76255,2,0,P|532:116|492:236,1,210,0|0,0:0|0:0,0:0:0:0:
424,228,77405,2,0,L|352:220,1,70
308,208,77865,1,0,0:0:0:0:
228,304,78304,2,0,L|296:336,1,70
416,324,79036,1,0,0:0:0:0:
152,132,85914,6,0,P|232:136|368:152,1,210,0|0,0:0|0:0,0:0:0:0:
424,308,87377,1,0,0:0:0:0:
340,312,87670,2,0,P|280:280|256:268,1,70
208,232,88255,1,0,0:0:0:0:
260,164,88548,5,0,0:0:0:0:
340,136,88841,2,0,P|384:184|396:212,1,70
368,284,89426,2,0,P|300:280|280:268,2,70,0|0|0,0:0|0:0|0:0,0:0:0:0:
240,124,91182,2,0,P|196:112|144:120,1,70
168,208,91767,2,0,P|236:280|276:312,1,140
256,192,93377,12,0,96597,0:0:0:0:
