osu file format v13

[General]
AudioFilename: Homestuck Vol.8 - 10 Davesprite.mp3
AudioLeadIn: 0
PreviewTime: 42129
Countdown: 0
SampleSet: Normal
StackLeniency: 0.7
Mode: 0
LetterboxInBreaks: 0
WidescreenStoryboard: 1

[Editor]
DistanceSpacing: 1.2
BeatDivisor: 4
GridSize: 4
TimelineZoom: 1

[Metadata]
Title:Davesprite
TitleUnicode:Davesprite
Artist:Toby "Radiation" Fox
ArtistUnicode:Toby "Radiation" Fox
Creator:-Dave Strider-
Version:Cool Kid
Source:Homestuck
Tags:Homestuck davesprite
BeatmapID:462973
BeatmapSetID:195026

[Difficulty]
HPDrainRate:5
CircleSize:4
OverallDifficulty:6
ApproachRate:7
SliderMultiplier:1.4
SliderTickRate:1

[Events]
//Background and Video events
0,0,"DavespriteAscend03.jpg",0,0
//Break Periods
2,32405,41381
2,79690,88248
//Storyboard Layer 0 (Background)
//Storyboard Layer 1 (Fail)
//Storyboard Layer 2 (Pass)
//Storyboard Layer 3 (Foreground)
//Storyboard Sound Samples
//Background Colour Transformations
3,100,163,162,255

[TimingPoints]
4841,585.194577196918,4,1,0,100,1,0
42135,585.365853658537,4,1,0,100,1,1
60905,585.365853658537,4,1,0,100,1,0

[Colours]
Combo1 : 128,0,0
Combo2 : 255,128,0
Combo3 : 255,0,0
Combo4 : 255,255,0

[HitObjects]
92,132,4840,6,0,P|88:192|96:212,1,70
172,160,5426,2,0,P|228:152|256:140,1,70
236,228,6011,2,0,P|184:272|176:288,1,70
256,320,6597,1,0,0:0:0:0:
336,296,6889,1,0,0:0:0:0:
380,220,7182,2,0,P|368:160|360:144,1,70
288,200,7767,2,0,P|232:220|204:216,1,70
136,256,8353,2,0,P|188:304|208:312,1,70
260,264,8938,5,0,0:0:0:0:
320,204,9231,1,0,0:0:0:0:
400,236,9523,2,0,P|412:268|448:304,1,70
348,308,10109,2,0,L|280:296,1,70
304,216,10694,2,0,L|300:124,2,70,0|0|0,0:0|0:0|0:0,0:0:0:0:
240,272,11572,1,0,0:0:0:0:
184,212,11865,2,0,P|200:168|208:104,1,105
332,136,12743,1,0,0:0:0:0:
416,184,13036,2,0,P|364:260|328:272,1,105
236,220,13914,5,0,0:0:0:0:
224,136,14206,2,0,L|164:96,1,70
112,168,14792,2,0,L|120:244,1,70
208,224,15377,1,0,0:0:0:0:
292,208,15670,1,0,0:0:0:0:
376,188,15962,1,0,0:0:0:0:
448,236,16255,2,0,L|488:320,1,70
388,296,16841,5,0,0:0:0:0:
312,252,17133,1,0,0:0:0:0:
272,180,17426,1,0,0:0:0:0:
272,180,17523,1,0,0:0:0:0:
272,180,17621,2,0,P|320:160|372:132,1,93.3333333333333,0|0,0:0|0:0,0:0:0:0:
420,192,18304,1,0,0:0:0:0:
472,260,18597,1,0,0:0:0:0:
420,320,18889,2,0,P|360:336|332:340,1,70
336,260,19475,2,0,P|336:216|344:176,1,70
264,180,20060,6,0,P|216:224|188:248,1,70
128,220,20645,1,0,0:0:0:0:
136,136,20938,1,0,0:0:0:0:
220,112,21231,2,0,P|292:116|336:100,1,105,0|0,0:0|0:0,0:0:0:0:
364,188,22109,1,0,0:0:0:0:
380,272,22401,2,0,P|304:296|248:296,1,105
184,216,23280,1,0,0:0:0:0:
252,152,23572,6,0,P|312:128|340:116,1,70
376,184,24158,2,0,L|408:212,1,35
456,276,24597,1,0,0:0:0:0:
372,292,24889,1,0,0:0:0:0:
344,296,25036,2,0,L|268:304,1,70
200,264,25621,1,0,0:0:0:0:
136,196,25914,1,0,0:0:0:0:
216,156,26206,2,0,L|296:136,1,70
356,200,26792,5,0,0:0:0:0:
376,224,26938,2,0,L|412:284,1,70
424,304,27377,1,0,0:0:0:0:
336,320,27670,1,0,0:0:0:0:
336,320,27816,2,0,L|232:320,1,105
168,260,28548,1,0,0:0:0:0:
124,176,28841,1,0,0:0:0:0:
192,112,29133,1,0,0:0:0:0:
124,176,29426,5,0,0:0:0:0:
168,260,29719,1,0,0:0:0:0:
248,292,30011,2,0,P|320:284|340:276,1,70
376,208,30597,1,0,0:0:0:0:
288,188,30889,2,0,L|212:152,1,70
136,132,31475,1,0,0:0:0:0:
104,216,31767,2,0,L|140:268,3,35,0|0|0|0,0:0|0:0|0:0|0:0,0:0:0:0:
268,152,42281,6,0,P|292:216|308:240,1,70
232,264,42866,2,0,L|180:264|152:264,1,70
148,188,43452,1,0,0:0:0:0:
132,104,43744,1,0,0:0:0:0:
224,128,44037,6,0,P|284:156|316:168,1,70
348,220,44622,1,0,0:0:0:0:
348,220,44915,2,0,L|312:300,1,70
232,248,45500,1,0,0:0:0:0:
232,248,45793,2,0,L|208:168,1,70
248,104,46378,1,0,0:0:0:0:
340,72,46671,1,0,0:0:0:0:
432,88,46964,1,0,0:0:0:0:
424,184,47256,6,0,P|432:224|448:256,1,70
356,240,47842,2,0,P|304:276|280:284,1,70
240,208,48427,1,0,0:0:0:0:
304,144,48720,1,0,0:0:0:0:
220,108,49013,1,0,0:0:0:0:
144,160,49305,1,0,0:0:0:0:
144,184,49452,2,0,L|216:284,1,105
284,232,50183,1,0,0:0:0:0:
384,212,50476,1,0,0:0:0:0:
256,192,51061,12,0,51647,0:0:0:0:
312,220,51939,6,0,P|288:256|268:288,1,70
200,224,52525,1,0,0:0:0:0:
160,136,52817,1,0,0:0:0:0:
248,112,53110,1,0,0:0:0:0:
280,112,53256,2,0,P|328:124|364:132,1,70
388,148,53695,1,0,0:0:0:0:
428,220,53988,2,0,P|400:272|376:292,1,70
304,284,54574,1,0,0:0:0:0:
220,260,54866,1,0,0:0:0:0:
164,220,55110,5,0,0:0:0:0:
144,204,55208,1,0,0:0:0:0:
128,184,55305,1,0,0:0:0:0:
116,168,55403,2,0,P|148:124|172:132,1,70
208,128,55793,1,0,0:0:0:0:
260,144,55891,2,0,P|296:164|312:172,1,46.6666666666667
376,208,56330,1,0,0:0:0:0:
368,296,56622,1,0,0:0:0:0:
276,300,56915,1,0,0:0:0:0:
240,216,57208,6,0,P|288:168|288:136,1,70
208,136,57793,2,0,L|64:136,1,140,0|0,0:0|0:0,0:0:0:0:
88,224,58671,1,0,0:0:0:0:
184,256,58964,1,0,0:0:0:0:
284,260,59256,1,0,0:0:0:0:
392,256,59549,1,0,0:0:0:0:
460,196,59842,1,0,0:0:0:0:
256,192,60427,12,0,61051,0:0:0:0:
156,204,61344,6,0,P|196:248|224:268,1,70
132,296,61929,2,0,L|56:272,1,70
88,196,62514,2,0,L|64:112,1,70
164,128,63100,1,0,0:0:0:0:
268,128,63392,1,0,0:0:0:0:
368,132,63685,2,0,P|396:176|424:200,1,70
340,236,64270,2,0,P|280:256|248:264,1,70
196,296,64856,6,0,B|148:316|148:316|116:284,2,70,0|0|0,0:0|0:0|0:0,0:0:0:0:
188,216,65734,2,0,P|144:168|132:144,1,70
232,152,66319,2,0,L|320:152,1,70
368,216,66905,1,0,0:0:0:0:
304,272,67197,1,0,0:0:0:0:
388,308,67490,1,0,0:0:0:0:
452,240,67783,2,0,P|424:192|416:176,1,70
372,100,68514,1,0,0:0:0:0:
280,152,68953,1,0,0:0:0:0:
280,152,69246,6,0,L|192:184,1,70
272,244,69831,2,0,P|300:276|340:268,1,70
368,200,70417,1,0,0:0:0:0:
372,116,70709,1,0,0:0:0:0:
284,128,71002,2,0,L|192:160,1,70
268,220,71587,2,0,P|312:260|372:268,2,105,0|0|0,0:0|0:0|0:0,0:0:0:0:
296,136,72758,1,0,0:0:0:0:
384,112,73051,1,0,0:0:0:0:
440,192,73344,1,0,0:0:0:0:
400,264,73587,5,0,0:0:0:0:
372,276,73685,1,0,0:0:0:0:
328,284,73783,1,0,0:0:0:0:
288,284,73880,1,0,0:0:0:0:
204,284,74222,2,0,L|132:276,1,70
124,196,74807,1,0,0:0:0:0:
120,112,75100,1,0,0:0:0:0:
204,136,75392,2,0,P|252:148|296:148,1,70
256,228,75978,6,0,P|216:252|164:268,1,70
116,224,76563,1,0,0:0:0:0:
116,140,76856,2,0,L|68:88,1,70
168,48,77441,1,0,0:0:0:0:
260,132,77880,2,0,P|292:180|332:216,1,105
280,288,78612,1,0,0:0:0:0:
184,268,78905,1,0,0:0:0:0:
136,188,79197,1,0,0:0:0:0:
168,104,79490,1,0,0:0:0:0:
256,188,89148,5,4,0:0:0:0:
256,192,91197,1,0,0:0:0:0:
256,192,91344,1,0,0:0:0:0:
256,192,91490,2,0,L|256:104,1,70
256,40,92075,1,0,0:0:0:0:
256,40,92368,1,0,0:0:0:0:
256,192,93392,12,0,97636,0:0:0:0:
