osu file format v14

[General]
AudioFilename: Undertale Ost- 087 - Hopes and Dreams.mp3
AudioLeadIn: 0
PreviewTime: 67619
Countdown: 0
SampleSet: Normal
StackLeniency: 0.7
Mode: 0
LetterboxInBreaks: 1
WidescreenStoryboard: 0

[Editor]
DistanceSpacing: 2
BeatDivisor: 4
GridSize: 8
TimelineZoom: 2.4

[Metadata]
Title:Hopes and Dreams
TitleUnicode:Hopes and Dreams
Artist:Toby Fox
ArtistUnicode:Toby Fox
Creator:Boldenouy
Version:DETERMINATION
Source:Undertale
Tags:
BeatmapID:806818
BeatmapSetID:367912

[Difficulty]
HPDrainRate:7
CircleSize:4.5
OverallDifficulty:7.5
ApproachRate:9
SliderMultiplier:1
SliderTickRate:1

[Events]
//Background and Video events
0,0,"undertale.png",0,0
//Break Periods
//Storyboard Layer 0 (Background)
//Storyboard Layer 1 (Fail)
//Storyboard Layer 2 (Pass)
//Storyboard Layer 3 (Foreground)
//Storyboard Sound Samples

[TimingPoints]
20,351.390922401171,4,2,0,100,1,0
20,-100,4,2,0,35,0,0
5993,-100,4,2,0,5,0,0
6345,-100,4,2,0,35,0,0
6696,-100,4,2,0,5,0,0
7047,-100,4,2,0,35,0,0
7399,-100,4,2,0,5,0,0
8101,-100,4,2,0,35,0,0
8804,-100,4,2,0,5,0,0
8980,-100,4,2,0,35,0,0
9507,-100,4,2,0,5,0,0
9683,-100,4,2,0,35,0,0
11615,-100,4,2,0,5,0,0
11967,-100,4,2,0,35,0,0
12318,-100,4,2,0,5,0,0
12670,-100,4,2,0,35,0,0
13021,-100,4,2,0,5,0,0
14075,-100,4,2,0,35,0,0
14427,-100,4,2,0,5,0,0
14778,-100,4,2,0,35,0,0
15129,-100,4,2,0,5,0,0
15481,-100,4,2,0,35,0,0
15832,-100,4,2,0,5,0,0
16886,-100,4,2,0,35,0,0
17238,-100,4,2,0,5,0,0
17589,-100,4,2,0,35,0,0
17940,-100,4,2,0,5,0,0
18292,-100,4,2,0,35,0,0
18643,-100,4,2,0,5,0,0
19346,-100,4,2,0,35,0,0
21279,-66.6666666666667,4,1,0,35,0,0
22509,-66.6666666666667,4,1,0,55,0,1
22860,-66.6666666666667,4,1,0,35,0,1
44822,-66.6666666666667,4,1,0,35,0,0
59580,-66.6666666666667,4,1,0,5,0,0
59668,-66.6666666666667,4,1,0,35,0,0
67487,-66.6666666666667,4,2,0,50,0,1
67838,-66.6666666666667,4,1,0,35,0,1
83563,-66.6666666666667,4,1,0,5,0,1
83651,-66.6666666666667,4,1,0,35,0,1
87955,-66.6666666666667,4,1,0,5,0,1
88043,-66.6666666666667,4,1,0,35,0,1
88219,-66.6666666666667,4,1,0,5,0,1
88394,-66.6666666666667,4,1,0,35,0,1
89976,-66.6666666666667,4,1,0,35,0,0
99639,-66.6666666666667,4,1,0,5,0,0
99815,-66.6666666666667,4,1,0,35,0,0
100342,-66.6666666666667,4,1,0,5,0,0
100517,-66.6666666666667,4,1,0,35,0,0
101044,-66.6666666666667,4,1,0,5,0,0
101220,-66.6666666666667,4,1,0,35,0,0
112465,-66.6666666666667,4,1,0,35,0,1
132406,-66.6666666666667,4,1,0,5,0,1
132494,-66.6666666666667,4,1,0,35,0,1
133812,-66.6666666666667,4,1,0,5,0,1
133899,-66.6666666666667,4,1,0,35,0,1
133987,-66.6666666666667,4,1,0,5,0,1
134075,-66.6666666666667,4,1,0,35,0,1
134954,-66.6666666666667,4,1,0,5,0,1
135305,-100,4,2,0,35,0,0
139873,-50,4,2,0,50,0,0
140137,-50,4,2,0,5,0,0
140224,-50,4,2,0,50,0,0
140488,-50,4,2,0,5,0,0
140576,-100,4,2,0,50,0,0
140839,-100,4,2,0,5,0,0
140927,-100,4,2,0,35,0,0
141027,-100,4,2,0,35,0,0
141103,-100,4,2,0,5,0,0
141279,-100,4,2,0,35,0,0
141630,-100,4,2,0,5,0,0
141806,-100,4,2,0,35,0,0
141981,-100,4,2,0,5,0,0
142157,-100,4,2,0,35,0,0
142948,-100,4,2,0,5,0,0
143036,-100,4,2,0,35,0,0
143299,-100,4,2,0,5,0,0
143387,-100,4,2,0,35,0,0
143651,-100,4,2,0,5,0,0
143738,-100,4,2,0,35,0,0
144002,-100,4,2,0,5,0,0
144090,-100,4,2,0,35,0,0
144353,-100,4,2,0,5,0,0
144441,-200,4,2,0,35,0,0
144968,-200,4,2,0,5,0,0
145144,-50,4,2,0,60,0,0
145407,-50,4,2,0,5,0,0
145495,-50,4,2,0,60,0,0
145759,-50,4,2,0,5,0,0
145847,-50,4,2,0,60,0,0
146110,-50,4,2,0,5,0,0
146230,351.390922401171,4,1,0,35,1,0
146230,-66.6666666666667,4,1,0,35,0,0
150358,-66.6666666666667,4,1,0,25,0,0
150446,-66.6666666666667,4,1,0,35,0,0
151149,-50,4,2,0,60,0,0
151412,-50,4,2,0,5,0,0
151500,-50,4,2,0,60,0,0
151764,-50,4,2,0,5,0,0
151851,-50,4,2,0,60,0,0
152115,-50,4,2,0,5,0,0
152203,-66.6666666666667,4,1,0,35,0,0
156419,-100,4,1,0,35,0,0
156683,-100,4,1,0,5,0,0
156771,-100,4,1,0,35,0,0
157034,-100,4,1,0,5,0,0
157122,-100,4,1,0,35,0,0
157386,-100,4,1,0,5,0,0
157474,-66.6666666666667,4,1,0,35,0,0
160988,-200,4,1,0,35,0,0
161427,-200,4,1,0,5,0,0
161515,-66.6666666666667,4,1,0,35,0,0
162393,-50,4,2,0,60,0,0
162657,-50,4,1,0,5,0,0
162744,-50,4,2,0,60,0,0
163008,-50,4,1,0,5,0,0
163096,-50,4,2,0,60,0,0
163359,-50,4,1,0,5,0,0
163447,-66.6666666666667,4,1,0,35,0,0
163535,-66.6666666666667,4,1,0,5,0,0
163799,-66.6666666666667,4,1,0,35,0,0
166961,-200,4,1,0,35,0,0
168542,-100,4,1,0,25,0,0
170299,-100,4,1,0,5,0,0
170387,-100,4,1,0,25,0,0
170739,-100,4,1,0,5,0,0
170826,-100,4,1,0,25,0,0
171090,-100,4,1,0,5,0,0
171178,-100,4,1,0,25,0,0
171354,-100,4,1,0,5,0,0
171529,-50,4,1,0,35,0,0
171705,-100,4,1,0,5,0,0
171881,-100,4,1,0,25,0,0
172144,-100,4,1,0,5,0,0
172232,-100,4,1,0,25,0,0
172671,-100,4,1,0,5,0,0
172759,-100,4,1,0,25,0,0
173198,-100,4,1,0,5,0,0
173286,-66.6666666666667,4,1,0,35,0,0
173550,-66.6666666666667,4,1,0,5,0,0
173638,-66.6666666666667,4,1,0,35,0,0
173901,-66.6666666666667,4,1,0,5,0,0
173989,-66.6666666666667,4,1,0,35,0,0
174253,-66.6666666666667,4,1,0,5,0,0
174340,-66.6666666666667,4,1,0,35,0,0
176273,-66.6666666666667,4,1,0,35,0,0
177064,-66.6666666666667,4,1,0,5,0,0
177152,-66.6666666666667,4,2,0,50,0,0
179436,-66.6666666666667,4,2,0,5,0,0

[Colours]
Combo1 : 255,0,0
Combo2 : 37,37,37
Combo3 : 82,82,82
Combo4 : 128,128,255
Combo5 : 234,0,234

[HitObjects]
256,192,20,5,0,0:0:0:0:
256,248,722,1,2,0:0:0:0:
304,216,1425,1,0,0:0:0:0:
356,190,2831,5,0,0:0:0:0:
352,244,3533,1,2,0:0:0:0:
304,216,4236,1,0,0:0:0:0:
217,291,5642,54,0,B|166:275|151:222,1,100
189,108,6345,2,0,B|229:72|282:86,1,100
361,176,7047,2,0,B|372:228|334:267,1,100,2|0,0:0|0:0,0:0:0:0:
278,216,8101,6,0,B|237:248|237:248|179:219,2,100,2|2|0,0:0|0:0|0:0,0:0:0:0:
293,202,8980,1,0,0:0:0:0:
306,187,9156,2,0,B|350:160|350:160|388:191,1,100
402,203,9683,1,0,0:0:0:0:
417,215,9858,2,0,L|458:174,1,50,2|0,0:0|0:0,0:0:0:0:
474,145,10210,53,0,0:0:0:0:
487,107,10386,1,0,0:0:0:0:
471,70,10561,1,0,0:0:0:0:
438,56,10737,1,0,0:0:0:0:
402,57,10913,2,0,P|376:75|366:98,1,50
366,94,11264,6,0,P|318:116|263:94,1,100
243,40,11967,2,0,P|206:82|209:129,1,100,2|0,0:0|0:0,0:0:0:0:
238,187,12670,2,0,P|272:152|274:103,1,100
274,103,14075,54,0,L|378:147,1,100
238,166,14778,2,0,L|145:127,1,100,2|0,0:0|0:0,0:0:0:0:
216,236,15481,2,0,L|308:274,1,100
312,192,16886,6,0,B|288:224|288:224|256:224|256:224|232:256,1,100
205,184,17589,2,0,B|221:161|221:161|253:161|253:161|277:129,1,100
244,67,18292,2,0,B|220:99|220:99|188:99|188:99|171:121,1,100,2|0,0:0|0:0,0:0:0:0:
259,177,19346,53,0,0:0:0:0:
241,201,19697,1,2,0:0:0:0:
222,224,20400,2,0,P|221:280|250:316,1,100
247,314,21103,2,0,L|295:288,1,50
336,263,21366,21,0,0:0:0:0:
336,263,21454,1,8,3:0:0:0:
235,105,21630,1,0,0:0:0:0:
149,272,21806,1,8,3:0:0:0:
321,200,21981,1,0,0:0:0:0:
138,149,22157,1,8,3:0:0:0:
185,330,22333,1,0,0:0:0:0:
273,164,22509,6,4,B|304:96|304:96|390:71,1,150.000005722046,6|4,2:0|0:0,0:0:0:0:
366,164,23036,1,0,0:0:0:0:
357,253,23211,2,0,B|429:231|429:231|460:163,1,150.000005722046,8|0,0:0|0:0,0:0:0:0:
269,275,23738,1,0,0:0:0:0:
269,275,23914,1,8,0:0:0:0:
340,297,24090,54,0,L|261:272,1,75.0000028610231,2|0,0:0|0:0,0:0:0:0:
109,101,24441,1,0,0:0:0:0:
179,124,24617,2,2,L|250:146,1,75.0000028610231,2|0,0:0|0:0,0:0:0:0:
37,78,24968,2,0,L|108:100,1,75.0000028610231,2|0,0:0|0:0,0:0:0:0:
119,136,25232,1,0,0:0:0:0:
130,171,25320,6,8,P|198:224|275:198,1,150.000005722046,2|0,0:0|0:0,0:0:0:0:
302,71,25847,1,0,0:0:0:0:
254,214,26022,2,8,P|306:264|379:257,1,150.000005722046,2|0,0:0|0:0,0:0:0:0:
199,313,26550,1,0,0:0:0:0:
23,249,26725,1,8,0:0:0:0:
166,128,26901,1,0,0:0:0:0:
23,249,27252,53,0,0:0:0:0:
166,128,27428,1,8,0:0:0:0:
189,110,27779,5,4,0:0:0:0:
298,135,27955,1,0,0:0:0:0:
147,49,28131,2,0,P|146:105|129:119,1,75.0000028610231,8|0,0:0|0:0,0:0:0:0:
24,94,28482,1,0,0:0:0:0:
24,94,28658,1,0,0:0:0:0:
66,198,28834,2,0,P|101:237|138:240,1,75.0000028610231,2|0,0:0|0:0,0:0:0:0:
155,134,29185,1,0,0:0:0:0:
217,228,29361,2,0,L|257:247,1,37.5000014305115
286,254,29536,2,0,P|362:252|413:195,2,150.000005722046,8|0|0,0:0|0:0|0:0,0:0:0:0:
260,184,30591,54,0,L|288:258,1,75.0000028610231,2|0,0:0|0:0,0:0:0:0:
112,112,30942,2,0,L|85:41,1,75.0000028610231,8|0,0:0|0:0,0:0:0:0:
304,97,31293,1,0,0:0:0:0:
258,240,31469,1,0,0:0:0:0:
179,111,31645,2,0,P|214:131|225:167,1,75.0000028610231,8|0,0:0|0:0,0:0:0:0:
296,30,31996,1,0,0:0:0:0:
296,30,32172,1,0,0:0:0:0:
220,240,32347,1,8,0:0:0:0:
150,66,32523,5,0,0:0:0:0:
375,76,32699,1,0,0:0:0:0:
340,142,32875,1,0,0:0:0:0:
299,204,33050,1,0,0:0:0:0:
340,266,33226,1,0,0:0:0:0:
375,332,33402,2,0,P|414:325|434:294,1,75.0000028610231
432,184,33753,54,2,P|375:136|345:67,1,150.000005722046,2|0,0:0|0:0,0:0:0:0:
250,184,34280,1,8,0:0:0:0:
344,299,34456,2,2,P|373:231|431:184,1,150.000005722046,2|0,0:0|0:0,0:0:0:0:
250,184,34983,1,8,0:0:0:0:
198,319,35159,2,2,P|268:299|360:302,1,150.000005722046,2|0,0:0|0:0,0:0:0:0:
452,294,35686,1,8,0:0:0:0:
403,152,35861,1,8,0:0:0:0:
344,299,36037,1,8,0:0:0:0:
247,175,36213,1,8,0:0:0:0:
344,51,36388,1,8,0:0:0:0:
417,34,36564,6,0,L|325:55,1,75.0000028610231,2|0,0:0|0:0,0:0:0:0:
247,175,36916,2,0,L|197:246,1,75.0000028610231
157,341,37267,2,0,P|108:298|100:270,1,75.0000028610231,8|0,0:0|0:0,0:0:0:0:
146,189,37618,2,0,P|187:215|204:237,1,75.0000028610231
326,326,37970,53,2,0:0:0:0:
190,263,38145,1,8,0:0:0:0:
132,124,38321,2,0,L|218:103,1,75.0000028610231
102,133,38673,1,8,0:0:0:0:
66,142,38848,1,8,0:0:0:0:
284,86,39024,1,8,0:0:0:0:
181,38,39200,1,8,0:0:0:0:
286,89,39375,6,0,P|322:141|330:166,1,75.0000028610231
227,155,39727,1,2,0:0:0:0:
178,259,39902,2,0,P|155:229|139:196,1,75.0000028610231
222,137,40254,1,8,0:0:0:0:
357,205,40429,2,0,L|433:168,1,75.0000028610231
216,115,40781,2,2,P|180:98|144:184,2,150.000005722046,2|0|0,0:0|0:0|0:0,0:0:0:0:
216,115,41835,54,0,L|307:66,1,75.0000028610231
133,60,42186,1,8,0:0:0:0:
225,178,42362,2,0,L|225:256,1,75.0000028610231
133,88,42713,1,2,0:0:0:0:
44,253,42889,2,0,L|44:178,2,75.0000028610231,8|0|0,0:0|0:0|0:0,0:0:0:0:
133,112,43416,1,0,0:0:0:0:
45,279,43592,1,8,0:0:0:0:
232,268,43768,5,8,3:0:0:0:
339,298,43943,1,0,1:0:0:0:
312,191,44119,1,8,3:0:0:0:
486,109,44295,1,0,1:0:0:0:
463,217,44470,1,8,3:0:0:0:
380,143,44646,1,0,1:0:0:0:
330,86,44822,38,8,P|295:62|260:48,1,75.0000028610231,4|0,0:0|0:0,0:0:0:0:
185,43,45349,1,8,0:0:0:0:
152,67,45700,2,0,L|88:112,1,75.0000028610231
70,298,46052,1,8,0:0:0:0:
111,300,46403,2,0,L|188:302,1,75.0000028610231
289,144,46754,1,8,0:0:0:0:
254,124,47106,2,0,L|176:73,1,75.0000028610231
277,249,47457,1,8,0:0:0:0:
312,269,47809,53,0,0:0:0:0:
348,288,48160,1,0,0:0:0:0:
392,144,48336,1,2,0:0:0:0:
249,190,48511,2,0,P|208:199|169:184,1,75.0000028610231
266,71,48863,2,0,P|296:49|333:45,1,75.0000028610231,2|0,0:0|0:0,0:0:0:0:
194,223,49214,2,0,P|160:206|139:176,1,75.0000028610231
362,210,49566,2,0,P|376:243|372:280,1,75.0000028610231,2|0,0:0|0:0,0:0:0:0:
347,351,49917,1,8,0:0:0:0:
198,333,50093,1,8,0:0:0:0:
284,211,50268,1,8,0:0:0:0:
168,257,50444,5,0,0:0:0:0:
168,257,50532,1,0,0:0:0:0:
168,257,50620,2,8,L|121:329,1,75.0000028610231,2|0,0:0|0:0,0:0:0:0:
251,132,50971,2,0,L|291:69,1,75.0000028610231
251,257,51323,2,0,L|291:319,1,75.0000028610231,2|0,0:0|0:0,0:0:0:0:
168,132,51674,2,0,L|127:69,1,75.0000028610231
306,195,52025,54,0,L|381:195,1,75.0000028610231,2|0,0:0|0:0,0:0:0:0:
121,195,52377,2,0,L|46:195,1,75.0000028610231
291,69,52728,2,0,L|251:132,1,75.0000028610231,2|0,0:0|0:0,0:0:0:0:
127,319,53080,2,8,L|168:257,1,75.0000028610231,0|0,0:0|0:0,0:0:0:0:
127,69,53431,2,0,L|168:132,1,75.0000028610231,2|0,0:0|0:0,0:0:0:0:
291,320,53782,2,4,L|251:257,2,75.0000028610231
412,293,54309,5,0,0:0:0:0:
412,293,54397,1,0,0:0:0:0:
412,293,54485,2,0,P|449:295|481:327,1,75.0000028610231,2|0,0:0|0:0,0:0:0:0:
366,123,54836,2,0,P|329:121|297:89,1,75.0000028610231
400,250,55188,2,0,P|418:251|455:294,1,75.0000028610231,2|0,0:0|0:0,0:0:0:0:
377,165,55539,2,4,P|359:164|324:120,2,75.0000028610231
234,208,56242,54,0,L|310:188,1,75.0000028610231
377,165,56593,1,8,0:0:0:0:
233,120,56945,2,0,L|161:140,1,75.0000028610231
89,162,57296,1,8,0:0:0:0:
317,295,57648,2,0,L|393:275,1,75.0000028610231
460,252,57999,1,8,0:0:0:0:
231,217,58350,6,0,L|303:197,1,75.0000028610231
303,45,58702,2,0,L|231:65,1,75.0000028610231
282,129,59053,2,0,L|354:109,1,75.0000028610231,2|0,0:0|0:0,0:0:0:0:
208,150,59405,2,0,P|168:178|152:209,1,75.0000028610231
149,267,59668,1,0,0:0:0:0:
149,267,59756,2,0,P|191:268|238:236,1,75.0000028610231
296,206,60107,54,0,P|345:186|377:184,1,75.0000028610231
215,179,60459,2,0,P|236:148|265:124,1,75.0000028610231
136,201,60810,2,0,P|138:163|152:128,1,75.0000028610231
217,264,61162,2,0,L|318:297,2,75.0000028610231
169,205,61864,6,0,P|203:227|245:234,1,75.0000028610231
345,232,62216,1,8,0:0:0:0:
345,232,62567,2,0,L|427:228,2,75.0000028610231,0|0|8,0:0|0:0|0:0,0:0:0:0:
218,106,63270,2,0,P|234:141|268:169,1,75.0000028610231
345,232,63621,1,8,0:0:0:0:
345,232,63973,2,0,L|409:279,2,75.0000028610231,0|0|8,0:0|0:0|0:0,0:0:0:0:
320,120,64675,53,2,0:0:0:0:
320,120,65027,1,2,0:0:0:0:
226,183,65203,1,0,0:0:0:0:
233,74,65378,1,8,0:0:0:0:
233,74,65730,2,0,P|192:79|153:110,1,75.0000028610231
262,173,66081,2,0,P|240:206|238:244,1,75.0000028610231
361,226,66432,2,0,P|368:266|401:292,1,75.0000028610231
450,167,66784,2,0,L|486:84,2,75.0000028610231
277,93,67487,22,4,L|200:122,1,75.0000028610231,4|0,0:0|0:0,0:0:0:0:
206,254,67838,2,0,L|263:301,1,75.0000028610231,2|0,0:0|0:0,0:0:0:0:
277,46,68189,2,0,L|199:92,1,75.0000028610231,2|0,0:0|0:0,0:0:0:0:
205,300,68541,2,0,L|263:376,1,75.0000028610231,2|0,0:0|0:0,0:0:0:0:
161,238,68892,1,8,0:0:0:0:
272,136,69068,2,0,P|306:110|354:103,1,75.0000028610231,2|0,0:0|0:0,0:0:0:0:
195,154,69419,2,0,P|158:134|125:86,1,75.0000028610231,2|0,0:0|0:0,0:0:0:0:
275,222,69771,1,0,0:0:0:0:
318,212,69858,1,0,0:0:0:0:
364,202,69946,2,8,P|410:204|452:222,1,75.0000028610231,8|0,0:0|0:0,0:0:0:0:
321,69,70298,5,0,0:0:0:0:
189,179,70473,1,0,0:0:0:0:
351,239,70649,2,8,P|400:254|420:274,1,75.0000028610231,8|0,0:0|0:0,0:0:0:0:
278,327,71000,1,0,0:0:0:0:
175,280,71176,2,0,B|214:256|214:256|196:195|240:147,2,150.000005722046,2|0|0,0:0|0:0|0:0,0:0:0:0:
136,305,71967,1,0,0:0:0:0:
93,290,72055,2,0,P|61:252|19:252,1,75.0000028610231,2|0,0:0|0:0,0:0:0:0:
106,114,72406,2,2,B|185:91,1,75.0000028610231,2|0,0:0|0:0,0:0:0:0:
403,75,72757,2,2,B|330:95,1,75.0000028610231,2|0,0:0|0:0,0:0:0:0:
205,204,73109,54,0,P|243:212|291:172,1,75.0000028610231,10|0,0:0|0:0,0:0:0:0:
462,218,73460,1,0,0:0:0:0:
340,75,73636,1,0,0:0:0:0:
340,263,73812,2,0,P|292:255|266:265,1,75.0000028610231,10|0,0:0|0:0,0:0:0:0:
126,141,74163,1,0,0:0:0:0:
292,190,74339,1,0,0:0:0:0:
179,249,74514,1,8,0:0:0:0:
259,37,74690,2,0,P|268:77|301:97,1,75.0000028610231,10|0,0:0|0:0,0:0:0:0:
219,224,75041,2,0,P|181:231|118:205,1,75.0000028610231,10|0,0:0|0:0,0:0:0:0:
370,190,75393,5,0,0:0:0:0:
336,220,75481,1,0,0:0:0:0:
290,232,75569,2,0,B|265:244|265:244|277:284|255:308,1,75.0000028610231,2|0,0:0|0:0,0:0:0:0:
116,310,75920,1,0,0:0:0:0:
131,123,76096,1,0,0:0:0:0:
305,188,76271,2,0,L|229:188,1,75.0000028610231,10|0,0:0|0:0,0:0:0:0:
117,189,76623,53,8,0:0:0:0:
299,56,76798,2,0,L|370:98,1,75.0000028610231,8|0,0:0|0:0,0:0:0:0:
448,74,77150,2,2,B|462:147|392:179|392:179|410:209,1,150.000005722046,2|0,0:0|0:0,0:0:0:0:
427,232,77589,1,0,0:0:0:0:
405,271,77677,2,0,P|361:300|274:267,2,150.000005722046,2|0|0,0:0|0:0|0:0,0:0:0:0:
297,160,78555,5,0,0:0:0:0:
297,160,78643,1,0,0:0:0:0:
297,160,78731,2,0,P|252:155|222:133,1,75.0000028610231,2|0,0:0|0:0,0:0:0:0:
152,97,79082,1,8,0:0:0:0:
298,62,79258,1,8,0:0:0:0:
196,173,79434,2,0,P|239:184|261:228,1,75.0000028610231,2|0,0:0|0:0,0:0:0:0:
175,274,79785,2,0,P|207:311|234:317,1,75.0000028610231
302,239,80137,54,0,L|371:282,1,75.0000028610231,2|0,0:0|0:0,0:0:0:0:
391,108,80488,1,0,0:0:0:0:
391,108,80576,1,0,0:0:0:0:
391,108,80664,1,0,0:0:0:0:
365,278,80839,2,0,P|346:230|325:224,1,75.0000028610231,2|0,0:0|0:0,0:0:0:0:
283,235,81103,1,0,0:0:0:0:
239,222,81191,2,0,P|233:180|211:153,1,75.0000028610231,2|0,0:0|0:0,0:0:0:0:
133,76,81542,5,8,0:0:0:0:
133,76,81894,1,8,0:0:0:0:
70,171,82069,1,0,0:0:0:0:
172,221,82245,1,2,0:0:0:0:
172,221,82596,1,8,0:0:0:0:
235,260,82948,2,0,P|272:276|265:147,1,262.500010013581,2|0,0:0|0:0,0:0:0:0:
228,170,83651,2,0,P|192:138|271:77,1,150.000005722046,2|0,0:0|0:0,0:0:0:0:
259,107,84090,1,2,0:0:0:0:
298,129,84178,1,8,0:0:0:0:
342,130,84265,1,2,0:0:0:0:
385,119,84353,54,0,B|410:135|410:135|433:69,1,75.0000028610231,8|0,0:0|0:0,0:0:0:0:
284,36,84705,1,8,0:0:0:0:
431,61,84880,1,8,0:0:0:0:
476,204,85056,2,0,P|446:223|415:275,1,75.0000028610231,2|0,0:0|0:0,0:0:0:0:
411,358,85407,2,0,B|403:340|403:340|349:354|329:314,1,75.0000028610231
255,288,85759,1,8,0:0:0:0:
255,288,85935,2,0,L|185:322,1,75.0000028610231,2|0,0:0|0:0,0:0:0:0:
87,354,86286,2,0,P|77:315|108:259,1,75.0000028610231,2|2,0:0|0:0,0:0:0:0:
143,89,86637,5,0,0:0:0:0:
159,130,86725,1,0,0:0:0:0:
201,144,86813,2,0,P|240:118|280:122,1,75.0000028610231,2|0,0:0|0:0,0:0:0:0:
401,250,87164,2,0,B|379:219|379:219|341:193,1,75.0000028610231,2|0,0:0|0:0,0:0:0:0:
227,107,87516,1,0,0:0:0:0:
104,194,87692,1,0,0:0:0:0:
247,153,87867,2,0,L|294:150,1,37.5000014305115,8|0,0:0|0:0,0:0:0:0:
329,147,88043,54,0,B|310:173|310:173|324:242,1,75.0000028610231,8|0,0:0|0:0,0:0:0:0:
351,324,88394,2,0,B|385:308|385:308|367:273|367:273|421:233|391:184,1,150.000005722046,2|0,0:0|0:0,0:0:0:0:
419,170,88834,1,2,0:0:0:0:
398,130,88921,2,0,B|355:85|292:107|292:107|244:62,2,150.000005722046,2|0|0,0:0|0:0|0:0,0:0:0:0:
165,230,89976,53,0,0:0:0:0:
290,302,90327,1,0,0:0:0:0:
373,267,90503,1,0,0:0:0:0:
430,198,90678,1,0,0:0:0:0:
430,198,91030,2,0,B|379:191|379:191|367:147|326:96,2,150.000005722046
373,267,91908,1,0,0:0:0:0:
290,302,92084,1,0,0:0:0:0:
290,302,92435,1,0,0:0:0:0:
216,318,92787,53,0,0:0:0:0:
149,283,93138,1,0,0:0:0:0:
253,240,93314,1,0,0:0:0:0:
341,309,93489,1,0,0:0:0:0:
269,285,93841,1,0,0:0:0:0:
218,229,94192,2,2,B|205:218|205:218|180:231|180:231|184:206|184:206|161:197|161:197|178:182|178:182|133:140|154:80,1,225.000008583069,2|0,0:0|0:0,0:0:0:0:
220,54,94895,2,2,B|233:77|226:103|226:103|246:91|246:91|228:126|228:126|285:123|331:163,1,225.000008583069,2|0,0:0|0:0,0:0:0:0:
400,219,95598,5,0,0:0:0:0:
312,240,95774,1,0,0:0:0:0:
255,309,95949,1,0,0:0:0:0:
221,225,96125,1,0,0:0:0:0:
312,240,96301,2,0,B|331:271|331:271|363:298,1,75.0000028610231
400,219,96652,2,0,B|381:185|381:185|353:162,1,75.0000028610231
284,104,97003,53,0,0:0:0:0:
239,111,97091,1,0,0:0:0:0:
206,141,97179,2,0,P|155:166|126:152,3,75.0000028610231
73,127,98058,1,0,0:0:0:0:
73,127,98409,5,0,0:0:0:0:
73,127,98760,1,0,0:0:0:0:
55,215,98936,1,0,0:0:0:0:
139,259,99112,1,0,0:0:0:0:
139,259,99463,2,0,B|176:238|176:238|186:174,1,75.0000028610231
215,82,99815,2,2,B|194:131|194:131|285:181|234:280,1,225.000008583069,2|0,0:0|0:0,0:0:0:0:
224,341,100517,2,2,B|295:346|313:249|313:249|235:276,1,225.000008583069,2|0,0:0|0:0,0:0:0:0:
106,280,101220,54,0,P|71:255|47:197,1,75.0000028610231
135,306,101571,1,0,0:0:0:0:
211,245,101747,1,0,0:0:0:0:
232,149,101923,1,0,0:0:0:0:
253,188,102274,6,0,P|281:221|312:237,1,75.0000028610231
209,291,102626,2,0,P|245:313|294:323,1,75.0000028610231
173,275,102977,1,0,0:0:0:0:
295,216,103153,1,0,0:0:0:0:
409,286,103328,1,0,0:0:0:0:
447,261,103680,1,0,0:0:0:0:
475,225,104031,1,0,0:0:0:0:
487,181,104383,53,0,0:0:0:0:
375,175,104558,1,0,0:0:0:0:
285,106,104734,2,0,L|218:153,1,75.0000028610231
162,192,105085,2,0,L|223:148,1,75.0000028610231
244,39,105437,2,2,L|114:129,1,150.000005722046,2|0,0:0|0:0,0:0:0:0:
43,179,105964,1,0,0:0:0:0:
99,258,106140,2,2,L|222:172,1,150.000005722046,2|0,0:0|0:0,0:0:0:0:
298,117,106667,1,0,0:0:0:0:
298,117,106842,5,0,0:0:0:0:
447,189,107018,1,0,0:0:0:0:
285,219,107194,1,0,0:0:0:0:
398,99,107369,1,0,0:0:0:0:
378,263,107545,2,0,B|350:289|350:289|314:300,1,75.0000028610231
143,259,107897,2,0,B|171:233|171:233|207:222,1,75.0000028610231
315,195,108248,53,0,0:0:0:0:
256,242,108424,1,0,0:0:0:0:
242,254,108511,1,0,0:0:0:0:
225,264,108599,2,0,P|180:273|136:265,1,75.0000028610231
133,265,108863,1,0,0:0:0:0:
118,254,108951,1,0,0:0:0:0:
33,180,109126,2,0,P|70:156|105:150,2,75.0000028610231
190,135,109653,6,0,P|222:110|231:75,1,75.0000028610231
256,15,110005,1,0,0:0:0:0:
148,48,110181,1,0,0:0:0:0:
124,157,110356,2,0,P|101:196|63:229,1,75.0000028610231
207,175,110708,2,0,P|224:140|253:108,1,75.0000028610231
377,253,111059,54,2,B|336:280|232:280|272:208|336:168|336:280|294:320,1,225.000008583069,2|0,0:0|0:0,0:0:0:0:
136,129,111762,2,2,B|176:104|280:104|240:176|176:216|176:104|212:69,1,225.000008583069,2|0,0:0|0:0,0:0:0:0:
218,225,112465,22,0,L|170:283,1,75.0000028610231,2|0,0:0|0:0,0:0:0:0:
335,164,112816,2,0,L|409:175,1,75.0000028610231,2|0,0:0|0:0,0:0:0:0:
223,95,113167,2,0,B|189:22,1,75.0000028610231,2|0,0:0|0:0,0:0:0:0:
53,88,113519,2,0,B|84:155,1,75.0000028610231,2|0,0:0|0:0,0:0:0:0:
236,155,113870,1,8,0:0:0:0:
289,293,114046,2,0,B|330:279|330:279|359:250,1,75.0000028610231,8|0,0:0|0:0,0:0:0:0:
293,73,114397,2,0,B|254:87|254:87|217:120,1,75.0000028610231,8|0,0:0|0:0,0:0:0:0:
108,234,114749,5,0,0:0:0:0:
74,199,114836,1,0,0:0:0:0:
63,151,114924,2,0,B|105:149|105:149|154:168,1,75.0000028610231,2|0,0:0|0:0,0:0:0:0:
248,60,115276,1,8,0:0:0:0:
159,178,115451,1,8,0:0:0:0:
303,43,115627,2,0,B|294:82|294:82|307:127,1,75.0000028610231,10|0,0:0|0:0,0:0:0:0:
222,271,115979,53,0,0:0:0:0:
222,271,116154,2,0,P|270:266|307:275,1,75.0000028610231,2|0,0:0|0:0,0:0:0:0:
145,289,116506,2,0,P|105:273|76:244,1,75.0000028610231,2|0,0:0|0:0,0:0:0:0:
328,237,116857,1,0,0:0:0:0:
328,237,116945,1,0,0:0:0:0:
328,237,117033,2,0,L|388:289,1,75.0000028610231,8|0,0:0|0:0,0:0:0:0:
386,132,117384,2,0,L|330:83,1,75.0000028610231,8|0,0:0|0:0,0:0:0:0:
330,298,117735,2,0,L|387:348,1,75.0000028610231,8|0,0:0|0:0,0:0:0:0:
295,101,118087,6,0,P|254:116|202:120,1,75.0000028610231,2|0,0:0|0:0,0:0:0:0:
74,140,118438,1,8,0:0:0:0:
275,37,118614,1,8,0:0:0:0:
177,240,118790,2,0,P|211:253|248:259,1,75.0000028610231,8|0,0:0|0:0,0:0:0:0:
373,175,119141,2,0,P|414:175|463:200,1,75.0000028610231,2|0,0:0|0:0,0:0:0:0:
316,67,119492,53,8,0:0:0:0:
316,67,119668,2,0,P|279:93|257:133,1,75.0000028610231,10|0,0:0|0:0,0:0:0:0:
88,203,120019,2,0,P|95:166|113:134,1,75.0000028610231,2|0,0:0|0:0,0:0:0:0:
274,147,120371,1,0,0:2:0:0:
322,151,120459,1,0,0:0:0:0:
360,180,120547,2,0,P|319:194|284:214,1,75.0000028610231,8|0,0:0|0:0,0:0:0:0:
145,245,120898,6,0,P|168:278|205:298,1,75.0000028610231,2|0,0:0|0:0,0:0:0:0:
228,187,121249,2,0,P|207:156|175:136,1,75.0000028610231,10|0,0:0|0:0,0:0:0:0:
64,159,121601,53,8,0:0:0:0:
281,102,121776,2,0,L|357:33,1,75.0000028610231,8|0,0:0|0:0,0:0:0:0:
257,127,122128,2,0,L|177:199,1,75.0000028610231,8|0,0:0|0:0,0:0:0:0:
438,158,122479,1,2,0:0:0:0:
475,223,122655,1,10,0:0:0:0:
443,291,122831,2,0,P|405:275|345:282,1,75.0000028610231,2|0,0:0|0:0,0:0:0:0:
140,155,123182,1,8,0:0:0:0:
140,155,123358,2,0,P|177:153|211:138,1,75.0000028610231,10|0,0:0|0:0,0:0:0:0:
135,305,123709,6,0,B|103:284|103:284|74:246,1,75.0000028610231,8|0,0:0|0:0,0:0:0:0:
215,188,124060,2,0,B|247:209|247:209|276:247,1,75.0000028610231
173,106,124412,54,2,L|102:172,1,75.0000028610231,2|0,0:0|0:0,0:0:0:0:
337,139,124763,2,0,L|391:87,1,75.0000028610231,2|0,0:0|0:0,0:0:0:0:
239,114,125115,1,8,0:0:0:0:
347,272,125290,1,8,0:0:0:0:
347,272,125642,2,0,B|382:289|382:289|391:210|421:164,1,150.000005722046,8|0,0:0|0:0,0:0:0:0:
390,137,126081,1,2,0:0:0:0:
345,156,126169,2,2,P|316:174|265:176,1,75.0000028610231,2|0,0:0|0:0,0:0:0:0:
138,277,126520,5,8,0:0:0:0:
193,179,126696,1,8,0:0:0:0:
139,79,126872,1,2,0:0:0:0:
185,90,126959,1,2,0:0:0:0:
232,79,127047,1,2,0:0:0:0:
321,148,127223,2,0,L|340:113,1,37.5000014305115,8|0,0:0|0:0,0:0:0:0:
361,70,127399,2,0,P|370:119|405:160,1,75.0000028610231,8|0,0:0|0:0,0:0:0:0:
299,275,127750,53,0,0:0:0:0:
299,275,127838,1,0,0:0:0:0:
299,275,127926,2,0,P|248:258|208:256,1,75.0000028610231,2|0,0:0|0:0,0:0:0:0:
178,251,128189,1,0,0:0:0:0:
129,254,128277,2,0,P|106:232|86:182,1,75.0000028610231,2|0,0:0|0:0,0:0:0:0:
81,144,128541,1,0,0:0:0:0:
86,95,128629,2,0,B|123:110|123:110|180:108,1,75.0000028610231,8|0,0:0|0:0,0:0:0:0:
397,160,128980,2,0,B|342:169|342:169|299:213,1,112.500004291535,8|0,0:0|0:0,0:0:0:0:
274,250,129331,6,0,L|207:206,1,75.0000028610231,2|0,0:0|0:0,0:0:0:0:
292,55,129683,1,8,0:0:0:0:
158,170,129858,1,8,0:0:0:0:
332,167,130034,1,8,0:0:0:0:
209,318,130210,1,0,0:0:0:0:
209,318,130298,1,0,0:0:0:0:
209,318,130386,2,0,L|170:237,1,75.0000028610231
118,111,130737,53,2,0:0:0:0:
217,335,130913,2,0,P|260:326|302:324,2,75.0000028610231,8|0|0,0:0|0:0|0:0,0:0:0:0:
129,134,131440,1,2,0:0:0:0:
337,308,131615,1,0,0:0:0:0:
374,276,131703,1,0,0:0:0:0:
394,231,131791,2,2,B|363:202|363:202|314:196,1,75.0000028610231,2|0,0:0|0:0,0:0:0:0:
390,57,132142,6,0,B|387:77|387:77|372:94|372:94|374:113|374:113|359:131|359:131|359:153|359:153|350:171,1,112.500004291535,2|0,0:0|0:0,0:0:0:0:
339,182,132494,2,2,B|333:160|333:160|317:149|317:149|311:134|311:134|296:123|296:123|293:106|293:106|282:88,1,112.500004291535,2|0,0:0|0:0,0:0:0:0:
267,64,132845,1,8,0:0:0:0:
110,255,133021,2,0,P|148:242|172:215,1,75.0000028610231,8|0,0:0|0:0,0:0:0:0:
381,111,133372,2,0,P|425:123|463:153,1,75.0000028610231,8|0,0:0|0:0,0:0:0:0:
326,295,133724,2,0,L|282:278,1,37.5000014305115,2|0,0:0|0:0,0:0:0:0:
345,165,133899,2,0,L|379:178,1,37.5000014305115,2|0,0:0|0:0,0:0:0:0:
308,218,134075,2,0,P|254:220|231:261,1,75.0000028610231,8|0,0:0|0:0,0:0:0:0:
123,86,134427,2,0,L|103:45,1,37.5000014305115
177,77,134602,2,0,L|201:117,1,37.5000014305115
264,136,134778,2,0,L|220:62,2,75.0000028610231
128,255,135305,22,0,P|161:260|197:256,1,50
273,231,135656,1,0,0:0:0:0:
273,231,135832,2,0,P|303:237|338:252,1,50
332,253,136096,1,0,0:0:0:0:
343,262,136183,2,0,P|359:237|366:202,1,50,2|0,0:0|0:0,0:0:0:0:
224,57,136535,2,0,P|209:77|202:101,2,50
83,155,137062,6,0,P|81:180|90:204,1,50
369,299,137413,2,0,P|371:274|362:250,1,50
83,155,137765,2,2,P|95:220|161:268,1,150,2|0,0:0|0:0,0:0:0:0:
428,229,138468,2,0,P|428:179|388:126,1,100,2|2,0:0|0:0,0:0:0:0:
230,88,138995,2,2,B|223:118|223:118|210:136|210:136|207:160|207:160|194:175|194:175|190:202|190:202|176:221|176:221|172:244|172:244|159:271,1,200,2|0,0:0|0:0,0:0:0:0:
98,319,139873,54,2,L|157:177,1,150
414,65,140224,2,2,L|355:207,1,150
256,192,140576,2,4,B|239:166|283:142|243:104,1,75
256,104,140927,6,0,L|256:52,1,50
197,135,141279,1,0,0:0:0:0:
197,135,141454,2,0,P|191:166|157:181,1,50
347,270,141806,2,0,P|353:239|387:224,1,50
448,170,142157,53,2,0:0:0:0:
95,234,142333,1,2,0:0:0:0:
188,283,142684,2,0,L|202:209,1,75
279,130,143036,2,0,L|304:202,1,75
355,106,143387,2,0,L|330:34,1,75
369,148,143738,2,0,L|393:219,1,75
297,270,144090,2,0,L|311:196,1,75
333,83,144441,2,0,L|319:157,1,75
72,72,145144,6,2,L|224:72,1,150
440,200,145495,2,2,L|290:200,1,150
256,136,145847,2,4,B|363:136|363:136|292:78,1,166.666666666667
290,82,146230,5,8,0:0:0:0:
382,312,146405,1,8,0:0:0:0:
154,212,146581,2,0,L|154:124,1,75.0000028610231,8|0,0:0|0:0,0:0:0:0:
381,212,146932,1,2,0:0:0:0:
448,212,147108,2,0,L|448:287,1,75.0000028610231,8|0,0:0|0:0,0:0:0:0:
314,212,147459,2,0,L|314:91,1,112.500004291535,8|0,0:0|0:0,0:0:0:0:
314,50,147811,5,0,0:0:0:0:
99,200,147986,2,0,L|111:293,1,75.0000028610231,2|0,0:0|0:0,0:0:0:0:
275,122,148338,2,0,L|283:29,1,75.0000028610231
420,227,148689,2,0,L|397:321,1,75.0000028610231,2|0,0:0|0:0,0:0:0:0:
96,302,149041,53,0,0:0:0:0:
182,94,149216,1,0,0:0:0:0:
348,246,149392,1,0,0:0:0:0:
137,170,149568,1,0,0:0:0:0:
303,322,149743,2,2,B|132:311|323:179|116:168,1,262.500010013581,2|0,0:0|0:0,0:0:0:0:
87,165,150446,1,0,0:0:0:0:
252,75,150622,1,0,0:0:0:0:
388,204,150798,1,0,0:0:0:0:
307,373,150973,1,0,0:0:0:0:
121,348,151149,6,2,B|177:340|192:290|192:290|132:272,1,150,2|0,0:0|0:0,0:0:0:0:
162,201,151500,2,2,B|106:209|91:259|91:259|151:277,1,150,2|0,0:0|0:0,0:0:0:0:
237,263,151852,2,0,L|376:130,1,150,4|0,0:0|0:0,0:0:0:0:
380,124,152203,54,0,P|418:146|442:179,1,75.0000028610231
480,248,152555,1,2,0:0:0:0:
390,42,152730,1,8,0:0:0:0:
281,146,152906,1,0,0:0:0:0:
281,146,152994,1,0,0:0:0:0:
281,146,153082,2,0,L|188:168,1,75.0000028610231,2|0,0:0|0:0,0:0:0:0:
121,189,153433,1,8,0:0:0:0:
377,212,153609,6,0,P|343:239|295:258,1,75.0000028610231,2|0,0:0|0:0,0:0:0:0:
177,89,153960,2,0,P|206:61|259:43,1,75.0000028610231
419,194,154311,2,0,P|398:229|358:258,1,75.0000028610231,2|0,0:0|0:0,0:0:0:0:
111,119,154663,2,0,P|127:89|184:38,1,75.0000028610231
394,115,155014,2,0,P|386:156|357:205,1,75.0000028610231,2|0,0:0|0:0,0:0:0:0:
164,170,155366,2,0,P|168:131|201:70,1,75.0000028610231
320,81,155717,2,0,P|326:124|317:178,1,75.0000028610231,2|0,0:0|0:0,0:0:0:0:
81,214,156068,1,0,0:0:0:0:
46,147,156244,1,0,0:0:0:0:
22,76,156420,54,0,L|97:88,1,75,2|0,0:0|0:0,0:0:0:0:
198,167,156771,2,0,L|123:155,1,75,2|0,0:0|0:0,0:0:0:0:
0,191,157123,2,0,L|74:205,1,75,10|0,0:0|0:0,0:0:0:0:
118,215,157474,5,0,0:0:0:0:
205,257,157650,1,0,0:0:0:0:
291,301,157825,2,0,L|363:334,1,75.0000028610231,2|0,0:0|0:0,0:0:0:0:
359,84,158177,1,8,0:0:0:0:
359,258,158352,2,0,L|290:226,1,75.0000028610231,2|0,0:0|0:0,0:0:0:0:
137,59,158704,2,0,B|176:65|205:90,1,75.0000028610231,2|0,0:0|0:0,0:0:0:0:
281,150,159055,1,0,0:0:0:0:
108,294,159231,1,8,0:0:0:0:
198,328,159407,1,0,0:0:0:0:
244,341,159495,1,0,0:0:0:0:
292,332,159582,54,0,P|327:312|370:303,1,75.0000028610231,2|0,0:0|0:0,0:0:0:0:
464,261,159934,1,0,0:0:0:0:
309,269,160109,1,0,0:0:0:0:
165,330,160285,5,8,0:0:0:0:
236,274,160461,1,0,0:0:0:0:
167,28,160637,1,8,0:0:0:0:
236,85,160812,1,0,0:0:0:0:
306,140,160988,2,2,P|334:117|351:88,1,62.5,2|0,0:0|0:0,0:0:0:0:
378,56,161515,53,0,0:0:0:0:
505,241,161691,1,8,0:0:0:0:
344,139,161866,1,0,0:0:0:0:
414,235,162042,1,8,0:0:0:0:
331,222,162218,1,0,0:0:0:0:
265,271,162393,6,2,B|215:262|215:262|190:223|119:196,1,150,2|0,0:0|0:0,0:0:0:0:
37,187,162745,2,2,B|48:124|107:108|107:108|118:67,1,150,2|0,0:0|0:0,0:0:0:0:
211,36,163096,2,0,L|161:218,1,150,4|0,0:0|0:0,0:0:0:0:
149,252,163448,54,0,L|138:295,1,37.5000014305115,8|0,0:0|0:0,0:0:0:0:
122,353,163799,1,0,0:0:0:0:
303,174,163975,1,8,0:0:0:0:
372,202,164326,1,8,0:0:0:0:
440,231,164678,1,8,0:0:0:0:
268,84,164853,2,0,P|236:113|192:120,1,75.0000028610231,2|0,0:0|0:0,0:0:0:0:
244,304,165205,2,0,P|276:275|320:268,1,75.0000028610231
201,34,165556,2,0,P|189:88|152:115,1,75.0000028610231,2|0,0:0|0:0,0:0:0:0:
310,353,165907,2,0,P|322:299|359:272,1,75.0000028610231
103,84,166259,6,0,L|185:104,1,75.0000028610231,2|0,0:0|0:0,0:0:0:0:
409,304,166610,2,0,L|327:284,1,75.0000028610231
61,78,166962,1,0,0:0:0:0:
256,192,167049,12,0,168367,0:0:0:0:
341,93,168543,37,0,0:0:0:0:
195,130,168719,1,0,0:0:0:0:
123,153,169070,1,0,0:0:0:0:
181,200,169421,1,0,0:0:0:0:
308,280,169597,1,0,0:0:0:0:
379,257,169948,54,0,P|379:306|333:351,1,100
321,358,170388,1,0,0:0:0:0:
291,361,170475,2,0,P|246:338|227:297,1,75
220,289,170827,2,0,L|140:231,1,75
135,222,171178,2,0,P|171:202|180:180,1,50
391,133,171530,54,0,L|438:39,1,100,8|0,0:0|0:0,0:0:0:0:
61,216,171881,22,0,P|52:172|61:135,1,75
62,132,172232,1,0,0:0:0:0:
131,95,172408,2,0,P|157:110|215:113,1,75
212,117,172760,2,0,P|281:152|323:198,1,125
336,209,173287,6,2,L|211:166,1,112.500004291535,2|0,0:0|0:0,0:0:0:0:
83,218,173638,6,0,L|189:254,1,112.500004291535
370,181,173989,54,2,L|245:138,1,112.500004291535,2|0,0:0|0:0,0:0:0:0:
215,135,174341,5,2,0:0:0:0:
358,38,174516,1,0,0:0:0:0:
494,144,174692,1,10,0:0:0:0:
435,306,174868,1,0,0:0:0:0:
262,299,175044,1,2,0:0:0:0:
433,276,175219,1,0,0:0:0:0:
95,321,175395,1,10,0:0:0:0:
19,163,175571,1,0,0:0:0:0:
146,46,175746,1,2,0:0:0:0:
296,129,175922,1,0,0:0:0:0:
262,299,176098,1,10,0:0:0:0:
199,220,176273,2,0,L|165:264,2,37.5000014305115
220,143,176537,54,2,B|284:179|279:242,1,112.500004291535,2|0,0:0|0:0,0:0:0:0:
346,255,176888,2,0,P|316:286|287:310,1,75.0000028610231,2|0,0:0|0:0,0:0:0:0:
251,334,177152,22,2,B|8:162|80:34|240:34|256:162|256:162|272:34|432:34|504:162|246:340,1,975.0000371933,4|0,0:0|0:0,0:0:0:0:
