osu file format v14

[General]
AudioFilename: Undertale OST- Bergentrckung-ASGORE.mp3
AudioLeadIn: 0
PreviewTime: 72273
Countdown: 1
SampleSet: Normal
StackLeniency: 0.7
Mode: 0
LetterboxInBreaks: 1
WidescreenStoryboard: 0

[Editor]
DistanceSpacing: 2
BeatDivisor: 4
GridSize: 4
TimelineZoom: 2

[Metadata]
Title:Bergentrükung/ASGORE
TitleUnicode:Bergentrükung/ASGORE
Artist:Toby Fox
ArtistUnicode:Toby Fox
Creator:putojajexd
Version:Frisk
Source:Undertale
Tags:Asgore, Fight, Frisk, Neutral Route, Sans, Papyrus, Chara, Asriel, Toriel, Undyne, Alphis, Mettaton
BeatmapID:899812
BeatmapSetID:415241

[Difficulty]
HPDrainRate:6
CircleSize:4.2
OverallDifficulty:8
ApproachRate:9.3
SliderMultiplier:1.4
SliderTickRate:1

[Events]
//Background and Video events
0,0,"asgore1.jpg",0,0
//Break Periods
2,17403,20632
//Storyboard Layer 0 (Background)
//Storyboard Layer 1 (Fail)
//Storyboard Layer 2 (Pass)
//Storyboard Layer 3 (Foreground)
//Storyboard Sound Samples

[TimingPoints]
1275,530.973451327434,4,1,1,40,1,0
21214,522.347779151359,4,3,1,100,1,0

[HitObjects]
96,76,213,5,4,0:0:0:0:
260,36,744,1,0,0:0:0:0:
208,140,1275,2,0,P|292:184|316:96,1,210
100,232,2336,5,4,0:0:0:0:
248,156,2867,1,0,0:0:0:0:
220,240,3398,2,0,B|252:232|252:232|248:248|248:248|268:232|268:232|268:252|268:252|280:236|280:236|280:252|280:252|288:236|288:236|292:252|292:252|296:236|296:236|304:252|304:252|304:236|304:236,1,210
348,260,4460,5,4,0:0:0:0:
332,92,4991,1,0,0:0:0:0:
244,160,5522,2,0,B|252:192|252:192|236:188|236:188|252:208|252:208|232:208|232:208|248:220|248:220|232:220|232:220|248:228|248:228|232:232|232:232|248:236|248:236|232:244|232:244|248:244|248:244,1,210
112,60,6584,5,4,0:0:0:0:
228,56,7115,1,0,0:0:0:0:
196,164,7646,2,0,B|228:156|228:156|224:172|224:172|244:156|244:156|244:176|244:176|256:160|256:160|256:176|256:176|264:160|264:160|268:176|268:176|272:160|272:160|280:176|280:176|280:160|280:160,1,210
392,300,8708,5,4,0:0:0:0:
276,304,9239,1,0,0:0:0:0:
308,196,9770,2,0,B|276:204|276:204|280:188|280:188|260:204|260:204|260:184|260:184|248:200|248:200|248:184|248:184|240:200|240:200|236:184|236:184|232:200|232:200|224:184|224:184|224:200|224:200,1,210
248,64,10832,5,8,0:0:0:0:
108,240,11363,1,0,0:0:0:0:
136,128,11894,2,0,L|352:176,1,210
232,196,12956,5,8,0:0:0:0:
292,104,13221,1,0,0:0:0:0:
180,104,13487,1,0,0:0:0:0:
256,188,13752,1,0,0:0:0:0:
144,192,14018,1,0,0:0:0:0:
228,116,14549,5,0,0:0:0:0:
256,180,15080,2,4,L|276:176,1,17.5
264,204,15213,2,4,L|284:200,1,17.5
232,68,15611,1,0,0:0:0:0:
320,140,15876,1,0,0:0:0:0:
400,60,16142,2,12,B|404:72|404:72|401:90|401:90|394:97|394:97|399:107|399:107|384:112|384:112|363:114|363:114|358:109|358:109|348:98|348:98|343:93|343:93|340:83|340:83|386:87|386:87|384:99|384:99|377:97|377:97|377:63|377:63|368:67|368:67|365:78|365:78|366:89|366:89|380:72,1,280,0|0,0:0|0:0,0:0:0:0:
160,80,21186,5,0,0:0:0:0:
336,68,21736,1,0,0:0:0:0:
240,208,22258,1,0,0:0:0:0:
448,172,22911,1,0,0:0:0:0:
432,212,23042,1,0,0:0:0:0:
360,260,23303,1,0,0:0:0:0:
236,252,23695,1,0,0:0:0:0:
112,260,24086,1,0,0:0:0:0:
124,176,24348,2,0,L|264:196,1,140
124,100,25392,5,0,0:0:0:0:
292,80,25915,1,0,0:0:0:0:
316,248,26437,2,0,L|188:248,1,105
224,164,27090,1,0,0:0:0:0:
256,136,27220,1,0,0:0:0:0:
300,64,27482,1,0,0:0:0:0:
336,184,27873,1,0,0:0:0:0:
268,288,28265,1,0,0:0:0:0:
188,252,28526,2,0,L|32:200,1,140
100,92,29571,5,0,0:0:0:0:
268,100,30093,1,0,0:0:0:0:
156,224,30616,2,0,L|304:208,1,140
272,288,31399,1,0,0:0:0:0:
324,224,31660,1,0,0:0:0:0:
256,116,32052,1,0,0:0:0:0:
376,76,32444,1,0,0:0:0:0:
360,160,32705,2,0,B|200:176|200:176|200:164,1,140
160,116,33489,1,0,0:0:0:0:
188,196,33750,1,0,0:0:0:0:
312,188,34142,2,0,L|416:164,1,105
256,192,34795,12,0,36362,0:0:0:0:
148,136,36623,5,0,0:0:0:0:
184,160,36753,1,0,0:0:0:0:
152,184,36884,1,0,0:0:0:0:
96,64,37929,1,0,0:0:0:0:
320,232,38451,1,0,0:0:0:0:
76,96,38973,5,4,3:3:0:0:
76,96,39104,1,4,3:3:0:0:
228,76,39234,1,0,0:0:0:0:
184,152,39365,1,4,3:3:0:0:
320,120,39496,1,0,0:0:0:0:
320,120,39626,1,0,0:0:0:0:
232,228,39757,1,0,0:0:0:0:
232,228,39887,1,4,3:3:0:0:
356,280,40018,1,4,3:3:0:0:
160,176,42107,1,4,3:3:0:0:
160,176,42238,1,4,3:3:0:0:
288,96,42368,1,0,0:0:0:0:
220,76,42499,1,4,3:3:0:0:
372,92,42630,1,4,3:3:0:0:
372,92,42760,1,4,3:3:0:0:
256,208,42891,1,0,0:0:0:0:
320,176,43021,1,4,3:3:0:0:
396,304,43152,1,4,3:3:0:0:
