osu file format v13

[General]
AudioFilename: 04 - Kgb.mp3
AudioLeadIn: 0
PreviewTime: 86519
Countdown: 0
SampleSet: Soft
StackLeniency: 0.7
Mode: 0
LetterboxInBreaks: 1
WidescreenStoryboard: 1

[Editor]
DistanceSpacing: 1.6
BeatDivisor: 4
GridSize: 4
TimelineZoom: 1.800006

[Metadata]
Title:Kgb
TitleUnicode:Kgb
Artist:Titas
ArtistUnicode:Titãs
Creator:Davidsoneca
Version:Insane
Source:
Tags:
BeatmapID:442879
BeatmapSetID:185163

[Difficulty]
HPDrainRate:6.8
CircleSize:4
OverallDifficulty:7
ApproachRate:9
SliderMultiplier:1.9
SliderTickRate:1

[Events]
//Background and Video events
0,0,"soldiers-with-guitars-instead-of-guns-funny-hd-wallpaper-1920x1080-1515.jpg",0,0
//Break Periods
2,110420,121470
//Storyboard Layer 0 (Background)
//Storyboard Layer 1 (Fail)
//Storyboard Layer 2 (Pass)
//Storyboard Layer 3 (Foreground)
//Storyboard Sound Samples
//Background Colour Transformations
3,100,163,162,255

[TimingPoints]
234,370.32465127762,4,2,0,70,1,0
2093,-133.333333333333,4,2,0,70,0,0
3204,-100,4,2,0,70,0,0
5056,-133.333333333333,4,2,0,70,0,0
6167,-100,4,2,0,70,0,0
8019,-133.333333333333,4,2,0,70,0,0
9130,-100,4,2,0,70,0,0
85778,-133.333333333333,4,2,0,70,0,0
86519,-100,4,2,0,70,0,1
110220,-133.333333333333,4,2,0,70,0,0
122092,-100,4,2,0,70,0,0
172805,-100,4,2,0,70,0,1
208356,-100,4,2,0,70,0,0
214313,-100,4,2,0,5,0,0

[Colours]
Combo1 : 251,255,89
Combo2 : 0,102,240
Combo3 : 134,211,227
Combo4 : 64,186,64

[HitObjects]
247,125,234,6,0,P|320:142|370:145,1,95
384,205,604,1,0,0:0:0:0:
251,130,974,1,0,0:0:0:0:
120,208,1344,2,0,P|105:136|103:97,1,95
140,48,1715,1,0,0:0:0:0:
338,79,2085,2,0,P|393:73|431:77,1,71.2500027179719
270,164,2455,2,0,P|221:174|190:179,1,71.2500027179719
367,223,2826,2,0,P|418:226|438:230,1,71.2500027179719
269,282,3196,6,0,P|198:286|157:302,1,95
112,249,3566,1,0,0:0:0:0:
272,280,3937,1,0,0:0:0:0:
339,122,4307,2,0,P|377:171|406:208,1,95
474,234,4677,1,0,0:0:0:0:
303,294,5048,2,0,P|314:344|323:369,1,71.2500027179719
251,205,5418,2,0,P|249:159|246:129,1,71.2500027179719
197,290,5788,2,0,P|200:338|199:369,1,71.2500027179719
129,196,6159,6,0,P|136:91|136:90,1,95
101,22,6529,1,0,0:0:0:0:
127,195,6899,1,0,0:0:0:0:
258,85,7270,2,0,P|339:49|368:47,1,95
421,85,7640,1,0,0:0:0:0:
315,185,8010,2,0,P|270:189|234:190,1,71.2500027179719
403,239,8381,2,0,P|452:232|479:229,1,71.2500027179719
341,309,8751,2,0,P|284:307|268:309,1,71.2500027179719
164,214,9121,6,0,P|177:296|184:331,1,95
132,379,9492,1,0,0:0:0:0:
164,211,9862,1,0,0:0:0:0:
192,42,10232,2,0,P|231:103|245:142,1,95
324,130,10603,1,0,0:0:0:0:
349,298,10973,2,0,P|418:197|418:116,1,190
396,50,11528,1,0,0:0:0:0:
396,50,11714,1,0,0:0:0:0:
255,253,12084,5,0,0:0:0:0:
135,282,12269,1,0,0:0:0:0:
154,165,12454,2,0,P|194:114|221:91,1,95
334,58,12825,1,0,0:0:0:0:
215,37,13195,1,0,0:0:0:0:
215,37,13380,1,0,0:0:0:0:
215,37,13565,2,0,P|208:102|208:131,1,95
96,77,13936,1,0,0:0:0:0:
121,197,14121,1,0,0:0:0:0:
121,197,14306,2,0,P|217:213|287:290,1,190
262,29,15046,5,0,0:0:0:0:
274,151,15232,1,0,0:0:0:0:
274,151,15417,2,0,P|342:197|378:210,1,95
440,117,15787,1,0,0:0:0:0:
440,117,16157,1,0,0:0:0:0:
317,331,16528,1,0,0:0:0:0:
278,193,16713,1,0,0:0:0:0:
184,300,16898,2,0,P|186:230|181:196,1,95
116,79,17268,1,0,0:0:0:0:
189,34,17454,1,0,0:0:0:0:
100,159,17639,1,0,0:0:0:0:
93,244,17824,1,0,0:0:0:0:
120,324,18009,6,0,P|150:250|166:218,1,95
238,108,18379,2,0,P|301:135|333:159,1,95
262,290,18750,2,0,P|350:280|379:271,1,95
406,135,19120,2,0,B|349:77|288:69|231:50,1,190
237,52,19861,1,0,0:0:0:0:
81,122,20231,1,0,0:0:0:0:
81,122,20601,1,0,0:0:0:0:
151,277,20972,5,0,0:0:0:0:
276,319,21157,1,0,0:0:0:0:
276,319,21342,2,0,P|339:273|380:255,1,95
487,266,21712,2,0,B|438:195|433:125|437:81,1,190
436,86,22268,1,0,0:0:0:0:
328,163,22453,1,0,0:0:0:0:
276,39,22638,1,0,0:0:0:0:
148,76,22823,1,0,0:0:0:0:
186,203,23008,1,0,0:0:0:0:
328,163,23194,2,0,B|312:233|257:290|181:262,1,190
193,266,23934,5,0,0:0:0:0:
84,189,24119,1,0,0:0:0:0:
84,189,24305,2,0,P|145:143|193:112,1,95
285,84,24675,2,0,B|265:153|270:206|283:259|338:250,1,190
321,250,25230,1,0,0:0:0:0:
441,309,25416,1,0,0:0:0:0:
314,352,25601,1,0,0:0:0:0:
192,297,25786,2,0,B|163:236|118:203|71:175|83:126,1,190
176,26,26341,1,0,0:0:0:0:
213,173,26527,1,0,0:0:0:0:
271,32,26712,1,0,0:0:0:0:
318,176,26897,6,0,P|342:104|363:74,1,95
436,214,27267,2,0,P|416:288|403:310,1,95
257,275,27638,2,0,P|240:198|239:168,1,95
187,39,28008,2,0,B|129:88|103:151|116:225,1,190
113,205,28748,1,0,0:0:0:0:
187,38,29119,1,0,0:0:0:0:
187,38,29489,1,0,0:0:0:0:
200,342,29859,6,0,L|249:242,1,95
342,230,30230,1,0,0:0:0:0:
140,286,30600,1,0,0:0:0:0:
202,86,30970,2,0,P|264:52|303:40,1,95
376,97,31341,1,0,0:0:0:0:
305,293,31711,2,0,P|250:244|222:230,1,95
324,187,32081,2,0,P|397:208|427:223,1,95
376,97,32452,2,0,P|303:86|259:95,1,95
186,46,32822,6,0,P|168:100|150:144,1,95,0|0,0:0|0:0,0:0:0:0:
52,161,33192,1,0,0:0:0:0:
250,94,33563,1,0,0:0:0:0:
222,301,33933,2,0,P|203:229|182:190,1,95
124,288,34303,1,0,0:0:0:0:
263,17,34674,2,0,B|325:88|350:155|346:198,1,190
214,259,35229,1,0,0:0:0:0:
214,259,35414,1,0,0:0:0:0:
266,16,35785,5,0,0:0:0:0:
379,95,35970,1,0,0:0:0:0:
379,95,36155,2,0,P|354:150|340:202,1,95
214,259,36525,2,0,B|160:174|116:122|57:142,1,190
94,289,37081,1,0,0:0:0:0:
76,138,37266,2,0,P|130:103|168:93,1,95
310,114,37636,1,0,0:0:0:0:
310,114,38007,2,0,P|372:100|417:86,1,95
402,91,38747,5,0,0:0:0:0:
366,238,38932,1,0,0:0:0:0:
366,238,39118,2,0,P|287:216|244:215,1,95
136,279,39488,1,0,0:0:0:0:
136,279,39858,1,0,0:0:0:0:
157,128,40043,1,0,0:0:0:0:
157,128,40229,2,0,P|220:96|267:85,1,95
241,241,40599,1,0,0:0:0:0:
240,16,40969,1,0,0:0:0:0:
327,52,41154,1,0,0:0:0:0:
386,125,41340,1,0,0:0:0:0:
422,212,41525,1,0,0:0:0:0:
407,306,41710,6,0,L|351:226,1,95
206,88,42080,2,0,L|266:171,1,95
290,343,42451,2,0,L|222:250,1,95
98,137,42821,2,0,B|111:230|153:292|168:316,1,190
165,312,43561,1,0,0:0:0:0:
165,312,43747,1,0,0:0:0:0:
100,243,43932,2,0,L|59:152,2,95,0|0|0,0:0|0:0|0:0,0:0:0:0:
146,160,44487,1,0,0:0:0:0:
121,68,44672,5,0,0:0:0:0:
258,28,44858,1,0,0:0:0:0:
258,28,45043,2,0,P|292:83|322:109,1,95
435,28,45413,2,0,B|430:96|434:162|466:215,1,190
322,224,45969,1,0,0:0:0:0:
289,362,46154,2,0,P|189:340|177:325,1,95
204,206,46524,2,0,P|102:188|39:117,1,190
44,128,47265,1,0,0:0:0:0:
312,32,47635,5,0,0:0:0:0:
439,96,47820,1,0,0:0:0:0:
439,96,48005,2,0,P|459:158|459:213,1,95
319,202,48376,2,0,B|308:139|275:88|239:77|179:75,1,190
98,178,48931,1,0,0:0:0:0:
90,35,49116,1,0,0:0:0:0:
216,99,49302,1,0,0:0:0:0:
236,239,49487,2,0,P|325:287|430:307,1,190
428,207,50042,1,0,0:0:0:0:
398,109,50227,1,0,0:0:0:0:
311,62,50412,1,0,0:0:0:0:
197,72,50598,6,0,P|147:120|118:145,1,95
296,166,50968,2,0,L|401:123,1,95
306,282,51338,2,0,L|211:332,1,95
290,169,51709,2,0,P|342:82|421:23,1,190
384,369,52449,2,0,P|299:275|212:242,1,190
71,236,53005,1,0,0:0:0:0:
71,236,53190,2,0,P|69:146|74:109,1,95
206,242,53560,5,0,0:0:0:0:
343,177,53745,1,0,0:0:0:0:
227,77,53931,2,0,P|298:97|328:109,1,95
437,197,54301,2,0,P|393:264|361:289,1,95
231,259,54671,2,0,P|233:183|247:139,1,95
257,298,55042,1,0,0:0:0:0:
407,36,55412,1,0,0:0:0:0:
103,38,55782,1,0,0:0:0:0:
258,299,56153,6,0,P|255:233|256:188,1,95
251,22,56523,2,0,P|256:86|260:135,1,95
260,269,56893,1,0,0:0:0:0:
252,22,57263,1,0,0:0:0:0:
69,264,57634,2,0,L|129:182,1,95
259,286,58004,2,0,L|259:181,1,95
430,263,58374,2,0,L|377:178,1,95
255,43,58745,1,0,0:0:0:0:
254,357,59300,1,0,0:0:0:0:
254,357,59485,6,0,B|255:271|258:180|252:141,1,190
30,35,60226,2,0,P|129:109|205:128,1,190
191,126,60782,1,0,0:0:0:0:
191,126,60967,1,0,0:0:0:0:
439,302,61337,2,0,P|407:240|390:200,1,95
329,39,61707,2,0,P|315:111|313:148,1,95
118,325,62263,1,0,0:0:0:0:
118,325,62448,1,0,0:0:0:0:
257,42,62818,6,0,L|355:73,1,95
256,238,63189,2,0,L|177:167,1,95
260,348,63559,2,0,L|319:260,1,95
206,110,63929,1,0,0:0:0:0:
260,349,64300,1,0,0:0:0:0:
312,113,64670,1,0,0:0:0:0:
123,339,65040,2,0,L|86:235,1,95
123,62,65411,2,0,L|164:167,1,95
309,264,65781,6,0,B|287:173|294:90|316:53,1,190
77,247,66522,1,0,0:0:0:0:
316,93,66892,1,0,0:0:0:0:
77,247,67262,1,0,0:0:0:0:
360,272,67633,2,0,P|378:188|383:158,1,95
227,277,68003,2,0,L|204:376,1,95
128,203,68373,2,0,L|154:106,1,95
257,258,68744,6,0,L|328:333,1,95
256,157,69114,2,0,L|172:223,1,95
256,51,69484,2,0,L|337:113,1,95
259,273,69855,1,0,0:0:0:0:
187,43,70225,1,0,0:0:0:0:
259,273,70595,1,0,0:0:0:0:
317,44,70966,2,0,P|346:97|384:142,1,95
195,44,71336,2,0,P|166:97|128:142,1,95
13,248,71706,5,0,0:0:0:0:
256,98,72076,1,0,0:0:0:0:
499,248,72447,1,0,0:0:0:0:
257,97,72817,1,0,0:0:0:0:
256,98,73187,1,0,0:0:0:0:
256,192,73465,12,0,74484,0:0:0:0:
459,254,74669,6,0,P|445:150|406:57,1,190
413,71,75224,1,0,0:0:0:0:
413,71,75409,1,0,0:0:0:0:
243,78,75780,2,0,P|241:145|244:180,1,95
243,172,76150,1,0,0:0:0:0:
94,89,76520,2,0,P|74:202|99:284,1,190
248,33,77261,5,0,0:0:0:0:
250,279,77631,1,0,0:0:0:0:
267,32,78002,1,0,0:0:0:0:
198,269,78372,1,0,0:0:0:0:
320,54,78742,2,0,P|319:109|325:155,1,95
224,223,79113,2,0,P|168:176|140:158,1,95
271,185,79483,2,0,P|298:236|314:284,1,95
428,306,79853,2,0,P|473:235|492:215,1,95
413,122,80224,1,0,0:0:0:0:
413,122,80409,1,0,0:0:0:0:
254,50,80594,6,0,P|189:77|141:80,1,95
131,218,80964,2,0,P|165:267|202:307,1,95
272,177,81335,2,0,P|334:230|360:268,1,95
256,52,81705,1,0,0:0:0:0:
253,317,82075,1,0,0:0:0:0:
256,52,82446,1,0,0:0:0:0:
252,317,82816,2,0,P|223:239|220:206,1,95
259,51,83186,2,0,P|288:129|291:162,1,95
289,268,83557,5,0,0:0:0:0:
204,16,83927,1,0,0:0:0:0:
355,234,84297,1,0,0:0:0:0:
156,57,84668,2,0,P|233:110|337:148,1,190
352,312,85408,1,0,0:0:0:0:
242,206,85778,6,0,L|231:153,2,47.5,0|0|0,0:0|0:0|0:0,0:0:0:0:
132,221,86149,2,0,L|139:170,2,47.5,0|0|0,0:0|0:0|0:0,0:0:0:0:
24,265,86519,6,0,P|31:206|57:153,1,95
140,44,86889,1,0,0:0:0:0:
164,212,87075,1,0,0:0:0:0:
252,64,87260,2,0,P|288:112|324:144,1,95
40,340,87815,1,0,0:0:0:0:
192,260,88000,2,0,L|256:356,1,95
416,328,88371,2,0,L|480:256,1,95
392,108,88741,2,0,L|280:108,1,95
296,280,89111,2,0,L|396:280,1,95
224,240,89482,5,0,0:0:0:0:
224,240,89852,2,0,P|192:188|160:152,1,95
24,72,90222,1,0,0:0:0:0:
52,240,90408,1,0,0:0:0:0:
184,132,90593,1,0,0:0:0:0:
228,296,90778,1,0,0:0:0:0:
356,184,90963,2,0,P|312:84|312:76,1,95
156,200,91333,2,0,P|200:300|200:308,1,95
356,200,91704,2,0,P|312:300|312:308,1,95
256,124,92074,1,0,0:0:0:0:
256,124,92259,1,0,0:0:0:0:
256,124,92444,6,0,P|272:196|288:228,1,95
428,128,92815,1,0,0:0:0:0:
364,288,93000,1,0,0:0:0:0:
428,128,93185,2,0,P|372:100|320:64,1,95
112,332,93740,1,0,0:0:0:0:
124,160,93926,2,0,L|144:272,1,95
276,360,94296,2,0,L|256:252,1,95
224,100,94666,2,0,L|244:208,1,95
376,300,95037,1,0,0:0:0:0:
380,128,95222,1,0,0:0:0:0:
376,300,95407,5,0,0:0:0:0:
376,300,95777,2,0,P|324:220|324:200,1,95
336,52,96148,1,0,0:0:0:0:
76,44,96518,2,0,P|104:108|112:144,1,95
104,168,96796,1,0,0:0:0:0:
96,204,96888,2,0,P|120:260|144:292,1,95
256,132,97259,1,0,0:0:0:0:
256,344,97629,1,0,0:0:0:0:
216,160,97814,2,0,L|316:96,1,95
464,20,98184,1,0,0:0:0:0:
488,119,98370,6,0,P|481:178|455:231,1,95
372,340,98740,1,0,0:0:0:0:
348,172,98925,1,0,0:0:0:0:
260,320,99110,2,0,P|224:272|188:240,1,95
472,44,99666,1,0,0:0:0:0:
320,124,99851,2,0,L|256:28,1,95
96,56,100221,2,0,L|32:128,1,95
120,276,100591,2,0,L|232:276,1,95
216,104,100962,2,0,L|116:104,1,95
288,144,101332,5,0,0:0:0:0:
288,144,101702,2,0,P|320:196|352:232,1,95
488,312,102073,1,0,0:0:0:0:
460,144,102258,1,0,0:0:0:0:
328,252,102443,1,0,0:0:0:0:
284,88,102628,1,0,0:0:0:0:
156,200,102813,2,0,P|200:300|200:308,1,95
356,184,103184,2,0,P|312:84|312:76,1,95
156,184,103554,2,0,P|200:84|200:76,1,95
256,260,103924,1,0,0:0:0:0:
256,260,104110,1,0,0:0:0:0:
256,260,104295,6,0,P|240:188|224:156,1,95
84,256,104665,1,0,0:0:0:0:
148,96,104850,1,0,0:0:0:0:
84,256,105035,2,0,P|140:284|192:320,1,95
400,52,105591,1,0,0:0:0:0:
388,224,105776,2,0,L|368:112,1,95
236,24,106146,2,0,L|256:132,1,95
288,284,106517,2,0,L|268:176,1,95
136,84,106887,1,0,0:0:0:0:
132,256,107072,1,0,0:0:0:0:
136,84,107257,5,0,0:0:0:0:
136,84,107628,2,0,P|188:164|188:184,1,95
176,332,107998,1,0,0:0:0:0:
436,340,108368,2,0,P|408:276|400:240,1,95
408,216,108646,1,0,0:0:0:0:
416,180,108739,2,0,P|392:124|368:92,1,95
256,252,109109,1,0,0:0:0:0:
256,40,109479,1,0,0:0:0:0:
256,252,109664,2,0,L|256:384,1,95
260,156,110035,1,0,0:0:0:0:
256,12,110220,5,0,0:0:0:0:
160,332,122070,5,0,0:0:0:0:
140,200,122255,1,0,0:0:0:0:
232,292,122441,2,0,P|284:236|320:220,1,95
404,312,122811,1,0,0:0:0:0:
328,40,123181,2,0,P|364:100|392:136,1,95
264,188,123552,1,0,0:0:0:0:
188,80,123737,1,0,0:0:0:0:
80,156,123922,2,0,P|180:260|236:260,1,190
172,298,124663,1,0,0:0:0:0:
332,16,125033,6,0,P|312:60|296:120,1,95
332,232,125403,2,0,P|368:148|376:128,1,95
236,96,125774,2,0,B|120:40|172:188|64:128,1,190
74,133,126514,1,0,0:0:0:0:
152,216,126699,1,0,0:0:0:0:
264,228,126885,1,0,0:0:0:0:
356,164,127070,1,0,0:0:0:0:
392,56,127255,1,0,0:0:0:0:
356,164,127440,1,0,0:0:0:0:
260,228,127625,1,0,0:0:0:0:
148,216,127810,1,0,0:0:0:0:
160,112,127996,6,0,P|232:144|256:168,1,95
404,88,128366,2,0,P|400:168|404:200,1,95
276,304,128736,2,0,P|280:224|284:184,1,95
216,32,129106,2,0,P|336:88|392:144,1,190
48,320,129847,1,0,0:0:0:0:
216,36,130217,1,0,0:0:0:0:
48,320,130588,2,0,P|112:296|160:280,1,95
287,313,130958,5,0,0:0:0:0:
287,313,131328,2,0,P|271:229|251:201,1,95
208,80,131699,2,0,P|196:164|200:200,1,95
286,313,132069,1,0,0:0:0:0:
286,313,132254,1,0,0:0:0:0:
357,161,132439,2,0,P|357:97|365:57,1,95
212,48,132810,2,0,P|216:124|224:160,1,95
75,49,133180,1,0,0:0:0:0:
436,60,133550,2,0,P|264:40|244:40,1,190
142,139,134106,1,0,0:0:0:0:
248,44,134291,1,0,0:0:0:0:
142,139,134476,1,0,0:0:0:0:
248,44,134661,6,0,B|280:144|316:172|316:172|320:216,1,190
129,257,135402,1,0,0:0:0:0:
204,164,135587,1,0,0:0:0:0:
317,243,135772,1,0,0:0:0:0:
204,164,135957,1,0,0:0:0:0:
304,52,136143,1,0,0:0:0:0:
422,146,136328,1,0,0:0:0:0:
319,245,136513,1,0,0:0:0:0:
204,164,136698,1,0,0:0:0:0:
248,20,136883,2,0,P|228:88|224:132,1,95
112,264,137254,2,0,P|96:180|100:152,1,95
220,28,137624,2,0,P|228:96|224:132,1,95
244,312,137994,2,0,P|276:200|324:124,1,190
244,312,138735,6,0,P|212:200|164:124,1,190
344,52,139290,1,0,0:0:0:0:
344,52,139476,2,0,P|380:112|400:148,1,95
324,312,139846,1,0,0:0:0:0:
320,124,140031,1,0,0:0:0:0:
180,252,140216,2,0,P|176:168|192:124,1,95
100,332,140587,2,0,P|80:248|88:200,1,95
264,200,140957,2,0,P|268:124|280:84,1,95
444,188,141327,1,0,0:0:0:0:
72,112,141698,1,0,0:0:0:0:
448,44,142068,1,0,0:0:0:0:
72,112,142438,1,0,0:0:0:0:
252,296,142808,2,0,P|296:236|320:212,1,95
356,216,143086,1,0,0:0:0:0:
404,212,143179,2,0,P|436:144|440:112,1,95
243,165,143549,6,0,P|253:119|260:72,1,95
156,232,143919,2,0,L|108:304|92:328,1,95
164,132,144290,2,0,P|160:68|168:24,1,95
348,88,144660,1,0,0:0:0:0:
127,298,145030,2,0,P|131:154|141:95,1,190
385,298,145771,2,0,P|381:154|371:95,1,190
256,233,146327,1,0,0:0:0:0:
192,74,146512,2,0,P|256:116|304:129,1,95
238,290,146882,5,0,0:0:0:0:
264,33,147252,2,0,P|316:76|385:189,1,190
55,284,147993,2,0,P|100:202|109:182,1,95
145,36,148363,2,0,P|185:111|198:151,1,95
186,291,148734,1,0,0:0:0:0:
256,55,149104,6,0,P|337:101|369:99,1,95
253,250,149474,2,0,P|218:218|173:204,1,95
257,353,149845,2,0,P|300:315|344:299,1,95
257,148,150215,1,0,0:0:0:0:
257,148,150585,1,0,0:0:0:0:
93,158,150956,2,0,P|132:228|146:246,1,95
371,239,151326,2,0,P|397:200|419:158,1,95
254,113,151696,2,0,L|256:219,1,95
148,74,152067,6,0,P|308:46|366:63,1,190
383,213,152622,1,0,0:0:0:0:
334,49,152807,2,0,P|332:162|303:240,1,190
135,245,153363,1,0,0:0:0:0:
304,227,153548,2,0,P|246:156|153:109,1,190
386,213,154289,1,0,0:0:0:0:
135,245,154659,1,0,0:0:0:0:
254,342,155029,6,0,L|296:234,1,95
256,85,155400,2,0,L|216:195,1,95
286,333,155770,2,0,L|252:218,1,95
226,73,156140,2,0,L|262:185,1,95
86,191,156511,1,0,0:0:0:0:
427,193,156881,1,0,0:0:0:0:
86,191,157251,2,0,P|157:151|183:137,1,95
261,288,157621,2,0,L|352:239,1,95
345,71,157992,5,0,0:0:0:0:
121,329,158362,2,0,P|157:197|148:132,1,190
301,64,158918,1,0,0:0:0:0:
148,143,159103,2,0,P|231:176|331:176,1,190
173,340,159843,1,0,0:0:0:0:
330,176,160214,1,0,0:0:0:0:
323,150,160306,1,0,0:0:0:0:
309,126,160399,1,0,0:0:0:0:
289,108,160491,1,0,0:0:0:0:
265,96,160584,1,0,0:0:0:0:
238,90,160677,1,0,0:0:0:0:
211,93,160769,1,0,0:0:0:0:
186,102,160862,1,0,0:0:0:0:
170,121,160954,6,0,P|151:177|175:231,1,95
281,263,161325,2,0,P|324:221|328:174,1,95
238,90,161695,2,0,P|280:54|340:51,1,95
258,166,162065,1,0,0:0:0:0:
258,166,162436,1,0,0:0:0:0:
258,166,162806,2,0,P|379:146|448:176,1,190
388,293,163362,1,0,0:0:0:0:
436,169,163547,2,0,P|398:113|297:44,1,190
180,283,164287,5,0,0:0:0:0:
298,44,164658,1,0,0:0:0:0:
96,118,165028,2,0,P|156:191|180:283,1,190
376,104,165769,2,0,L|398:219,1,95
261,178,166139,2,0,L|236:67,1,95
129,158,166509,2,0,L|152:264,1,95
174,120,166880,6,0,L|253:54,1,95
235,192,167250,2,0,L|305:278,1,95
169,222,167620,2,0,L|57:197,1,95
191,135,167991,1,0,0:0:0:0:
401,298,168361,2,0,L|382:93,1,190
252,83,168916,1,0,0:0:0:0:
382,109,169102,2,0,P|285:168|233:229,1,190,0|0,0:0|0:0,0:0:0:0:
350,291,169657,5,0,0:0:0:0:
481,312,169842,1,0,0:0:0:0:
338,86,170213,1,0,0:0:0:0:
72,68,170583,1,0,0:0:0:0:
338,86,170953,2,0,B|252:76|252:76|210:119|132:121,1,190
362,291,171694,2,0,P|366:206|385:172,1,95
420,118,172064,1,0,0:0:0:0:
379,124,172157,1,0,0:0:0:0:
339,132,172249,1,0,0:0:0:0:
300,143,172342,1,0,0:0:0:0:
262,156,172434,1,0,0:0:0:0:
224,171,172527,1,0,0:0:0:0:
187,189,172620,1,0,0:0:0:0:
152,208,172712,1,0,0:0:0:0:
117,241,172805,6,0,P|77:291|62:326,1,95
208,267,173175,1,0,0:0:0:0:
150,126,173360,1,0,0:0:0:0:
300,143,173545,2,0,P|363:197|387:234,1,95
98,70,174101,1,0,0:0:0:0:
249,64,174286,2,0,L|189:155,1,95
253,284,174656,2,0,L|369:280,1,95
383,133,175027,2,0,L|427:228,1,95
275,180,175397,2,0,L|328:79,1,95
356,243,175767,5,0,0:0:0:0:
52,216,176138,2,0,P|184:93|220:81,1,190
203,206,176693,1,0,0:0:0:0:
208,325,176878,1,0,0:0:0:0:
189,90,177249,1,0,0:0:0:0:
208,325,177619,2,0,P|301:280|324:285,1,95
395,172,177989,2,0,P|420:245|424:280,1,95
447,111,178360,1,0,0:0:0:0:
447,111,178545,1,0,0:0:0:0:
304,162,178730,6,0,P|292:99|283:43,1,95
158,150,179100,1,0,0:0:0:0:
64,270,179285,1,0,0:0:0:0:
193,318,179471,2,0,P|255:250|268:224,1,95
256,247,180026,1,0,0:0:0:0:
256,61,180211,2,0,P|200:84|157:92,1,95
256,61,180582,2,0,P|312:84|355:92,1,95
255,249,180952,1,0,0:0:0:0:
255,32,181322,1,0,0:0:0:0:
91,288,181693,6,0,P|112:198|114:161,1,95
264,199,182063,2,0,P|273:283|277:315,1,95
426,294,182433,2,0,P|436:222|439:183,1,95
322,101,182804,1,0,0:0:0:0:
437,199,182989,1,0,0:0:0:0:
322,101,183174,2,0,P|216:95|126:111,1,190
133,275,183915,2,0,P|227:289|322:283,1,190
432,58,184655,6,0,P|369:107|347:133,1,95
277,246,185026,1,0,0:0:0:0:
239,98,185211,1,0,0:0:0:0:
145,218,185396,2,0,P|124:139|110:109,1,95
404,230,185951,2,0,P|393:172|398:110,1,95
277,246,186322,1,0,0:0:0:0:
239,98,186507,1,0,0:0:0:0:
175,235,186692,1,0,0:0:0:0:
239,98,186877,1,0,0:0:0:0:
277,246,187062,2,0,P|317:181|350:145,1,95
370,313,187433,1,0,0:0:0:0:
370,313,187618,1,0,0:0:0:0:
360,161,187803,6,0,P|335:96|331:42,1,95
179,65,188173,1,0,0:0:0:0:
331,71,188358,2,0,B|272:127|212:192|131:161,1,190
211,316,188914,1,0,0:0:0:0:
358,278,189099,2,0,B|370:187|410:100|455:109,1,190
137,176,189840,1,0,0:0:0:0:
137,176,190210,1,0,0:0:0:0:
440,197,190580,6,0,P|419:130|417:78,1,95
372,250,190951,1,0,0:0:0:0:
246,334,191136,1,0,0:0:0:0:
94,351,191321,2,0,P|156:318|186:276,1,95
242,4,191877,1,0,0:0:0:0:
365,92,192062,1,0,0:0:0:0:
224,149,192247,1,0,0:0:0:0:
346,239,192432,1,0,0:0:0:0:
365,92,192617,1,0,0:0:0:0:
242,4,192802,2,0,P|224:80|196:134,1,95
299,223,193173,2,0,P|300:143|307:100,1,95
392,5,193543,5,0,0:0:0:0:
125,149,193913,1,0,0:0:0:0:
186,10,194098,1,0,0:0:0:0:
213,159,194284,2,0,P|195:254|129:344,1,190
69,225,195024,2,0,P|87:130|153:40,1,190
284,96,195580,1,0,0:0:0:0:
207,242,195765,1,0,0:0:0:0:
229,235,195857,1,0,0:0:0:0:
251,228,195950,1,0,0:0:0:0:
273,221,196043,1,0,0:0:0:0:
295,214,196135,1,0,0:0:0:0:
317,206,196228,1,0,0:0:0:0:
338,196,196320,1,0,0:0:0:0:
359,185,196413,1,0,0:0:0:0:
379,173,196506,6,0,P|438:148|494:151,1,95
359,265,196876,1,0,0:0:0:0:
284,121,197061,1,0,0:0:0:0:
276,282,197246,2,0,P|243:223|213:184,1,95
280,281,197802,1,0,0:0:0:0:
119,300,197987,2,0,P|119:211|126:177,1,95
197,41,198357,2,0,P|218:115|227:157,1,95
303,293,198728,2,0,P|337:213|346:171,1,95
383,30,199098,1,0,0:0:0:0:
475,184,199283,1,0,0:0:0:0:
402,349,199468,6,0,P|346:271|255:204,1,190
81,215,200024,1,0,0:0:0:0:
272,213,200209,2,0,P|258:141|200:34,1,190
377,115,200764,1,0,0:0:0:0:
204,39,200949,2,0,P|148:138|76:188,1,190
204,344,201690,2,0,P|148:246|76:196,1,190
204,346,202431,6,0,P|244:273|276:240,1,95
369,115,202801,1,0,0:0:0:0:
254,266,202986,1,0,0:0:0:0:
369,115,203171,2,0,P|304:106|246:79,1,95
202,346,203727,1,0,0:0:0:0:
389,314,203912,1,0,0:0:0:0:
265,169,204097,1,0,0:0:0:0:
200,347,204282,1,0,0:0:0:0:
266,168,204468,1,0,0:0:0:0:
389,314,204653,2,0,P|395:243|382:184,1,95
323,42,205023,2,0,P|312:116|315:155,1,95
389,314,205393,5,0,0:0:0:0:
389,314,205579,1,0,0:0:0:0:
214,238,205764,2,0,L|202:124,1,95
14,157,206134,1,0,0:0:0:0:
385,80,206504,2,0,P|373:155|350:207,1,95
478,17,206875,1,0,0:0:0:0:
373,175,207060,1,0,0:0:0:0:
213,237,207245,2,0,P|262:188|295:168,1,95
168,325,207615,1,0,0:0:0:0:
257,35,207986,1,0,0:0:0:0:
257,352,208356,5,0,0:0:0:0:
94,191,208726,1,0,0:0:0:0:
257,35,209097,1,0,0:0:0:0:
421,192,209467,1,0,0:0:0:0:
256,320,209837,5,0,0:0:0:0:
94,191,210208,1,0,0:0:0:0:
257,60,210578,1,0,0:0:0:0:
421,192,210948,1,0,0:0:0:0:
256,288,211319,5,0,0:0:0:0:
94,191,211689,1,0,0:0:0:0:
257,94,212059,1,0,0:0:0:0:
421,192,212430,1,0,0:0:0:0:
258,246,212800,5,0,0:0:0:0:
96,189,213170,1,0,0:0:0:0:
257,134,213540,1,0,0:0:0:0:
421,192,213818,1,0,0:0:0:0:
421,192,213911,5,0,0:0:0:0:
256,196,214281,5,0,0:0:0:0:
256,192,214466,12,0,215762,0:0:0:0:
