osu file format v13

[General]
AudioFilename: 04 - Kgb.mp3
AudioLeadIn: 0
PreviewTime: 86519
Countdown: 0
SampleSet: Soft
StackLeniency: 0.7
Mode: 0
LetterboxInBreaks: 1
WidescreenStoryboard: 1

[Editor]
DistanceSpacing: 0.7
BeatDivisor: 4
GridSize: 4
TimelineZoom: 1.500006

[Metadata]
Title:Kgb
TitleUnicode:Kgb
Artist:Titas
ArtistUnicode:Titãs
Creator:Davidsoneca
Version:Hard
Source:
Tags:
BeatmapID:442982
BeatmapSetID:185163

[Difficulty]
HPDrainRate:5
CircleSize:4
OverallDifficulty:5.7
ApproachRate:8
SliderMultiplier:1.4
SliderTickRate:1

[Events]
//Background and Video events
0,0,"soldiers-with-guitars-instead-of-guns-funny-hd-wallpaper-1920x1080-1515.jpg",0,0
//Break Periods
2,110420,121320
//Storyboard Layer 0 (Background)
//Storyboard Layer 1 (Fail)
//Storyboard Layer 2 (Pass)
//Storyboard Layer 3 (Foreground)
//Storyboard Sound Samples
//Background Colour Transformations
3,100,163,162,255

[TimingPoints]
234,370.32465127762,4,2,0,70,1,0
86519,-100,4,2,0,70,0,1
110220,-100,4,2,0,70,0,0
122070,-100,4,2,0,70,0,0
172805,-100,4,2,0,70,0,1
208356,-100,4,2,0,70,0,0

[Colours]
Combo1 : 251,255,89
Combo2 : 0,102,240
Combo3 : 134,211,227
Combo4 : 64,186,64

[HitObjects]
143,159,234,6,0,P|185:94|197:85,1,70
255,75,604,1,0,0:0:0:0:
391,127,974,1,0,0:0:0:0:
447,259,1344,2,0,L|470:354,2,70,0|0|0,0:0|0:0|0:0,0:0:0:0:
391,127,2085,2,0,P|407:63|415:35,1,70
391,127,2455,1,0,0:0:0:0:
251,163,2826,1,0,0:0:0:0:
111,271,3196,6,0,P|183:303|196:314,1,70
222,348,3566,1,0,0:0:0:0:
111,271,3937,1,0,0:0:0:0:
171,123,4307,2,0,P|223:79|248:66,1,70
293,66,4677,1,0,0:0:0:0:
356,97,4863,1,0,0:0:0:0:
375,164,5048,2,0,P|403:212|433:233,1,70
482,234,5418,1,0,0:0:0:0:
491,255,5788,1,0,0:0:0:0:
269,266,6159,6,0,P|229:217|222:188,1,70
228,117,6529,1,0,0:0:0:0:
228,117,6899,1,0,0:0:0:0:
143,268,7270,2,0,L|149:187,1,70
195,131,7640,2,0,L|270:70,1,70
338,66,8010,1,0,0:0:0:0:
416,112,8195,1,0,0:0:0:0:
433,201,8381,2,0,P|387:275|347:335,1,140
287,251,9121,6,0,P|358:220|382:216,1,70
447,235,9492,1,0,0:0:0:0:
348,89,9862,2,0,B|279:58|231:91|191:42,1,140
123,38,10417,1,0,0:0:0:0:
67,115,10603,2,0,P|85:174|112:199,1,70
170,220,10973,1,0,0:0:0:0:
226,148,11158,1,0,0:0:0:0:
257,233,11343,2,0,P|277:281|281:321,1,70
310,165,11714,2,0,P|366:134|397:127,1,70
390,217,12084,5,0,0:0:0:0:
327,274,12269,2,0,P|242:308|239:312,1,70
170,266,12639,1,0,0:0:0:0:
170,266,12825,2,0,B|134:214|126:142|151:111,1,140
233,95,13380,1,0,0:0:0:0:
320,82,13565,2,0,P|339:128|365:153,1,70
435,194,13936,2,0,P|404:232|361:262,1,70
307,201,14306,2,0,B|266:244|245:304|263:354,1,140
249,171,15046,6,0,L|202:82,1,70
160,28,15417,1,0,0:0:0:0:
206,102,15602,1,0,0:0:0:0:
118,102,15787,2,0,B|72:150|81:208|123:241|136:259,1,175
298,272,16528,1,0,0:0:0:0:
356,206,16713,1,0,0:0:0:0:
397,128,16898,2,0,B|369:88|292:69|317:0,1,140
397,126,17639,1,0,0:0:0:0:
255,229,18009,5,0,0:0:0:0:
85,275,18379,2,0,P|131:168|171:136,1,140
254,290,19120,2,0,B|304:332|383:323|408:304,1,140
366,130,19861,1,0,0:0:0:0:
366,130,20231,2,0,P|297:111|274:96,1,70
228,45,20601,1,0,0:0:0:0:
119,163,20972,6,0,P|155:219|184:234,1,70
247,227,21342,1,0,0:0:0:0:
325,180,21527,1,0,0:0:0:0:
369,100,21712,2,0,B|393:48|425:8|465:4|497:16,1,140
359,115,22453,2,0,L|359:213,1,70
376,274,22823,2,0,L|309:331,1,70
243,279,23194,2,0,P|139:207|99:207,1,140
251,283,23934,5,0,0:0:0:0:
246,192,24119,1,0,0:0:0:0:
250,100,24305,2,0,P|273:37|281:18,1,70
364,26,24675,1,0,0:0:0:0:
364,26,25045,1,0,0:0:0:0:
322,167,25416,2,0,L|234:158,1,70
174,113,25786,1,0,0:0:0:0:
20,14,26156,2,0,P|68:135|83:151,1,140
230,78,26897,5,0,0:0:0:0:
219,245,27267,2,0,P|267:155|297:120,1,140
410,244,28008,2,0,P|362:154|332:119,1,140
284,284,28748,2,0,L|196:303,1,70
152,232,29119,2,0,L|230:213,1,70
309,209,29489,1,0,0:0:0:0:
151,118,29859,6,0,P|223:89|237:90,1,70
302,111,30230,1,0,0:0:0:0:
136,35,30600,1,0,0:0:0:0:
135,216,30970,2,0,L|205:259,1,70
288,223,31341,2,0,L|216:174,1,70
225,85,31711,2,0,L|298:137,1,70
376,151,32081,2,0,P|417:257|420:301,1,140
223,280,32822,6,0,L|188:212,1,70
197,120,33192,1,0,0:0:0:0:
156,312,33563,1,0,0:0:0:0:
276,157,33933,2,0,P|309:110|326:94,1,70
414,88,34303,1,0,0:0:0:0:
414,88,34489,1,0,0:0:0:0:
378,179,34674,2,0,P|359:258|376:321,1,140
275,300,35229,1,0,0:0:0:0:
275,300,35414,1,0,0:0:0:0:
255,104,35785,5,0,0:0:0:0:
260,6,35970,1,0,0:0:0:0:
169,56,36155,2,0,P|148:104|145:132,1,70
219,184,36525,2,0,P|175:251|117:298,1,140
130,289,37081,1,0,0:0:0:0:
221,261,37266,2,0,L|231:340,1,70
327,329,37636,2,0,B|318:231|318:231|321:207|336:186,1,140
326,329,38377,1,0,0:0:0:0:
360,136,38747,5,0,0:0:0:0:
284,73,38932,1,0,0:0:0:0:
269,170,39118,2,0,P|259:220|243:248,1,70
172,178,39488,2,0,P|182:138|204:102,1,70
313,269,40043,1,0,0:0:0:0:
216,288,40229,2,0,P|165:273|133:277,1,70
74,337,40599,1,0,0:0:0:0:
78,141,40969,2,0,P|104:178|181:245,1,140
100,58,41710,5,0,0:0:0:0:
294,36,42080,2,0,P|229:69|167:126,1,140
316,251,42821,2,0,P|376:154|405:127,1,140
482,94,43376,1,0,0:0:0:0:
482,94,43561,2,0,P|412:68|402:69,1,70
328,108,43932,2,0,P|297:141|253:167,1,70
181,135,44302,1,0,0:0:0:0:
181,135,44487,1,0,0:0:0:0:
100,79,44672,5,0,0:0:0:0:
26,144,44858,1,0,0:0:0:0:
79,225,45043,2,0,L|153:256,1,70
230,206,45413,2,0,P|303:189|373:226,1,140
417,294,45969,1,0,0:0:0:0:
411,196,46154,2,0,P|427:125|438:112,1,70
483,50,46524,1,0,0:0:0:0:
483,50,46894,2,0,P|396:49|338:43,1,140
151,86,47635,6,0,P|179:128|192:158,1,70
132,226,48005,1,0,0:0:0:0:
132,226,48191,1,0,0:0:0:0:
226,251,48376,2,0,P|278:283|303:293,1,70
349,101,48931,1,0,0:0:0:0:
386,191,49116,2,0,L|424:127,1,70
463,219,49487,1,0,0:0:0:0:
463,219,49672,1,0,0:0:0:0:
400,294,49857,2,0,B|353:320|299:345|261:335,1,140
144,184,50598,5,0,0:0:0:0:
273,37,50968,1,0,0:0:0:0:
418,167,51338,1,0,0:0:0:0:
295,320,51709,2,0,P|231:275|160:248,1,140
199,57,52449,1,0,0:0:0:0:
393,80,52820,1,0,0:0:0:0:
375,275,53190,1,0,0:0:0:0:
279,294,53375,1,0,0:0:0:0:
196,240,53560,2,0,P|213:177|228:159,1,70
121,203,53931,1,0,0:0:0:0:
28,375,54301,1,0,0:0:0:0:
121,203,54671,1,0,0:0:0:0:
217,32,55042,6,0,P|245:99|291:166,1,140
155,304,55782,1,0,0:0:0:0:
281,155,56153,2,0,P|393:176|419:202,1,140
255,311,56893,1,0,0:0:0:0:
257,115,57263,1,0,0:0:0:0:
186,298,57634,2,0,P|214:243|233:229,1,70
140,180,58004,2,0,P|181:157|221:154,1,70
181,57,58374,6,0,P|252:55|328:91,1,140
285,275,59115,1,0,0:0:0:0:
314,80,59485,2,0,P|277:163|287:220,1,140
476,173,60226,1,0,0:0:0:0:
283,209,60596,2,0,P|217:261|145:259,1,140
320,381,61337,1,0,0:0:0:0:
163,263,61707,2,0,P|149:202|80:132,1,140
69,50,62263,2,0,L|148:65,1,70
257,217,62818,5,0,0:0:0:0:
335,36,63189,2,0,P|362:135|399:176,1,140
257,311,63929,1,0,0:0:0:0:
177,131,64300,2,0,P|150:230|113:271,1,140
257,111,65040,1,0,0:0:0:0:
342,287,65411,2,0,P|369:188|406:147,1,140
203,105,66151,5,0,0:0:0:0:
356,227,66522,1,0,0:0:0:0:
275,48,66892,2,0,P|301:118|309:193,1,140
175,326,67633,2,0,P|126:244|111:194,1,140
200,26,68373,2,0,P|239:63|278:82,1,70
255,169,68744,5,0,0:0:0:0:
336,346,69114,2,0,P|351:278|372:201,1,140
255,50,69855,1,0,0:0:0:0:
142,210,70225,2,0,P|160:277|176:346,1,140
256,166,70966,1,0,0:0:0:0:
449,133,71336,2,0,P|406:187|400:205,1,70
316,244,71706,2,0,P|249:279|178:296,1,140
170,100,72447,1,0,0:0:0:0:
187,296,72817,1,0,0:0:0:0:
170,100,73187,1,0,0:0:0:0:
256,192,73373,12,0,74298,0:0:0:0:
254,305,74669,6,0,P|276:198|307:180,1,140
446,61,75409,1,0,0:0:0:0:
258,79,75780,2,0,P|236:186|205:204,1,140
66,323,76520,1,0,0:0:0:0:
256,274,76891,2,0,L|256:131,1,140
68,189,77631,5,0,0:0:0:0:
257,136,78002,1,0,0:0:0:0:
444,191,78372,1,0,0:0:0:0:
257,251,78742,2,0,L|256:160,1,70
351,155,79113,1,0,0:0:0:0:
155,138,79483,2,0,L|175:209,1,70
259,252,79853,1,0,0:0:0:0:
259,252,80224,1,0,0:0:0:0:
215,61,80594,5,0,0:0:0:0:
405,106,80964,2,0,P|301:138|269:133,1,140
113,19,81705,1,0,0:0:0:0:
102,214,82075,2,0,L|143:150,1,70
221,210,82446,2,0,L|259:143,1,70
338,200,82816,2,0,L|425:79,1,140
257,197,83557,1,0,0:0:0:0:
257,99,83927,1,0,0:0:0:0:
255,294,84297,1,0,0:0:0:0:
257,197,84668,1,0,0:0:0:0:
256,192,84853,12,0,86149,0:0:0:0:
144,116,86519,6,0,L|236:96,1,70
256,196,86889,1,0,0:0:0:0:
236,92,87075,1,0,0:0:0:0:
256,196,87260,2,0,L|356:168,1,70
147,292,87815,1,0,0:0:0:0:
126,189,88000,2,0,L|116:107,1,70
192,193,88371,2,0,L|215:127,1,70
251,225,88741,2,0,L|325:185,1,70
275,289,89111,1,0,0:0:0:0:
275,289,89297,1,0,0:0:0:0:
373,324,89482,6,0,P|364:201|369:177,1,140
418,94,90037,1,0,0:0:0:0:
418,94,90222,2,0,P|342:123|274:114,1,140
149,278,90963,2,0,P|186:201|197:124,1,140
267,224,91519,1,0,0:0:0:0:
267,224,91704,2,0,P|295:145|299:78,1,140
291,299,92444,6,0,L|207:305,1,70
205,199,92815,1,0,0:0:0:0:
199,303,93000,1,0,0:0:0:0:
205,199,93185,2,0,L|113:201,1,70
279,48,93740,1,0,0:0:0:0:
366,107,93926,2,0,L|438:148,1,70
323,157,94296,2,0,L|349:237,1,70
256,166,94666,2,0,L|230:244,1,70
198,133,95037,1,0,0:0:0:0:
198,133,95222,1,0,0:0:0:0:
108,77,95407,6,0,P|87:188|70:216,1,140
162,266,95962,1,0,0:0:0:0:
250,324,96148,2,0,P|306:245|348:224,1,140
394,317,96703,1,0,0:0:0:0:
439,222,96888,2,0,P|405:120|384:90,1,140
192,172,97629,1,0,0:0:0:0:
192,172,97814,1,0,0:0:0:0:
250,259,97999,2,0,L|236:177,1,70
144,268,98370,6,0,L|236:288,1,70
256,188,98740,1,0,0:0:0:0:
236,292,98926,1,0,0:0:0:0:
256,188,99111,2,0,L|356:216,1,70
147,92,99666,1,0,0:0:0:0:
126,195,99851,2,0,L|116:277,1,70
192,191,100222,2,0,L|215:257,1,70
251,159,100592,2,0,L|325:199,1,70
275,95,100962,1,0,0:0:0:0:
275,95,101148,1,0,0:0:0:0:
373,60,101333,6,0,P|364:183|369:207,1,140
418,290,101888,1,0,0:0:0:0:
418,290,102073,2,0,P|342:261|274:270,1,140
149,106,102814,2,0,P|186:183|197:260,1,140
267,160,103370,1,0,0:0:0:0:
267,160,103555,2,0,P|295:239|299:306,1,140
291,85,104295,6,0,L|207:79,1,70
205,185,104666,1,0,0:0:0:0:
199,81,104851,1,0,0:0:0:0:
205,185,105036,2,0,L|113:183,1,70
279,336,105591,1,0,0:0:0:0:
366,277,105777,2,0,L|438:236,1,70
323,227,106147,2,0,L|349:147,1,70
256,218,106517,2,0,L|230:140,1,70
198,251,106888,1,0,0:0:0:0:
198,251,107073,1,0,0:0:0:0:
108,307,107258,6,0,P|87:196|70:168,1,140
162,118,107813,1,0,0:0:0:0:
250,60,107999,2,0,P|306:139|348:160,1,140
394,67,108554,1,0,0:0:0:0:
439,162,108739,2,0,P|405:264|384:294,1,140
255,126,109479,1,0,0:0:0:0:
255,126,109664,1,0,0:0:0:0:
307,145,109850,1,0,0:0:0:0:
311,149,110035,1,0,0:0:0:0:
274,198,110220,5,0,0:0:0:0:
415,199,122070,6,0,L|433:289,1,70
363,321,122441,1,0,0:0:0:0:
363,321,122626,1,0,0:0:0:0:
279,314,122811,2,0,P|168:277|145:276,1,140
68,309,123366,1,0,0:0:0:0:
56,225,123552,2,0,P|59:170|71:137,1,70
135,110,123922,1,0,0:0:0:0:
198,265,124292,2,0,P|182:144|186:125,1,140
219,293,125033,1,0,0:0:0:0:
259,219,125218,1,0,0:0:0:0:
265,131,125403,6,0,P|285:72|299:60,1,70
340,135,125774,2,0,P|345:198|335:228,1,70
259,219,126144,2,0,P|280:271|299:284,1,70
373,280,126514,1,0,0:0:0:0:
373,280,126699,1,0,0:0:0:0:
400,359,126885,2,0,P|299:338|251:336,1,140
205,178,127625,1,0,0:0:0:0:
313,49,127996,5,0,0:0:0:0:
450,146,128366,1,0,0:0:0:0:
351,281,128736,1,0,0:0:0:0:
205,178,129106,2,0,P|157:110|94:75,1,140
97,248,129847,1,0,0:0:0:0:
261,279,130217,2,0,L|259:191,1,70
332,251,130588,1,0,0:0:0:0:
223,123,130958,6,0,L|152:70,1,70
86,106,131328,1,0,0:0:0:0:
86,106,131514,1,0,0:0:0:0:
130,177,131699,2,0,P|139:286|127:314,1,140
288,262,132439,1,0,0:0:0:0:
349,319,132625,1,0,0:0:0:0:
370,237,132810,2,0,P|398:128|414:104,1,140
375,270,133550,1,0,0:0:0:0:
268,139,133921,6,0,L|294:63,1,70
225,126,134291,2,0,L|170:80,1,70
254,67,134661,1,0,0:0:0:0:
254,67,135032,1,0,0:0:0:0:
186,116,135217,1,0,0:0:0:0:
114,160,135402,2,0,P|129:227|123:249,1,70
211,210,135772,2,0,P|219:265|217:286,1,70
295,245,136143,2,0,P|302:317|284:388,1,140
387,248,136883,5,0,0:0:0:0:
375,80,137254,1,0,0:0:0:0:
387,247,137624,1,0,0:0:0:0:
375,80,137994,2,0,P|272:34|233:25,1,140
117,135,138735,2,0,L|179:179,1,70
92,195,139105,2,0,P|90:263|111:338,1,140
108,332,139661,5,0,0:0:0:0:
183,293,139846,2,0,P|225:256|241:250,1,70
280,322,140216,2,0,P|325:291|345:263,1,70
311,198,140586,2,0,P|381:161|439:168,1,140
297,258,141327,6,0,P|230:180|224:141,1,140
59,181,142068,2,0,P|85:93|124:47,1,140
79,220,142808,1,0,0:0:0:0:
257,300,143179,1,0,0:0:0:0:
433,220,143549,1,0,0:0:0:0:
334,167,143919,6,0,L|348:93,1,70
258,152,144290,2,0,L|258:81,1,70
178,167,144660,2,0,L|144:28,1,140
256,116,145401,1,0,0:0:0:0:
306,244,145771,2,0,P|379:275|447:270,1,140
362,154,146512,2,0,P|308:89|300:29,1,140
223,153,147252,2,0,P|174:218|119:257,1,140
257,304,147993,1,0,0:0:0:0:
253,136,148363,1,0,0:0:0:0:
245,51,148549,2,0,L|282:114,1,70
257,277,149104,5,0,0:0:0:0:
257,109,149474,1,0,0:0:0:0:
109,191,149845,1,0,0:0:0:0:
257,277,150215,1,0,0:0:0:0:
401,192,150585,1,0,0:0:0:0:
257,109,150956,2,0,L|257:18,1,70
258,122,151326,1,0,0:0:0:0:
258,289,151696,2,0,L|257:363,1,70
257,274,152067,6,0,P|307:152|324:129,1,140
257,304,152807,2,0,P|140:261|127:248,1,140
292,301,153548,2,0,B|216:233|351:231|277:156,1,140
127,159,154289,2,0,L|181:103,1,70
107,58,154659,1,0,0:0:0:0:
113,225,155029,5,0,0:0:0:0:
256,312,155400,2,0,L|256:237,1,70
399,225,155770,1,0,0:0:0:0:
256,135,156140,2,0,L|256:209,1,70
113,225,156511,1,0,0:0:0:0:
119,58,156881,2,0,L|266:33,1,140
395,59,157621,2,0,L|248:34,1,140
257,203,158362,5,0,0:0:0:0:
257,119,158732,1,0,0:0:0:0:
257,287,159103,1,0,0:0:0:0:
257,203,159473,2,0,L|320:172,1,70
257,203,159843,2,0,L|184:166,1,70
257,119,160214,1,0,0:0:0:0:
257,119,160399,1,0,0:0:0:0:
258,202,160584,2,0,P|299:281|341:305,1,140
254,182,161325,6,0,P|213:103|171:79,1,140
255,223,162065,1,0,0:0:0:0:
110,308,162436,2,0,L|90:213,1,70
133,164,162806,1,0,0:0:0:0:
257,51,163176,1,0,0:0:0:0:
379,164,163547,2,0,L|414:232,1,70
402,309,163917,5,0,0:0:0:0:
257,222,164287,1,0,0:0:0:0:
255,305,164658,1,0,0:0:0:0:
227,138,165029,1,0,0:0:0:0:
333,267,165398,2,0,P|336:138|327:121,1,140
179,267,166139,2,0,P|176:138|185:121,1,140
256,100,166694,1,0,0:0:0:0:
256,184,166880,6,0,L|321:223,1,70
256,184,167250,2,0,L|192:226,1,70
256,184,167620,2,0,L|257:106,1,70
256,184,167991,2,0,P|265:257|320:307,1,140
256,184,168731,2,0,P|247:257|192:307,1,140
172,223,169287,1,0,0:0:0:0:
177,139,169472,1,0,0:0:0:0:
229,73,169657,1,0,0:0:0:0:
296,122,169842,6,0,P|383:132|395:127,1,70
412,204,170213,2,0,P|342:221|330:216,1,70
271,257,170583,2,0,P|380:303|412:297,1,140
251,217,171323,2,0,L|184:174,1,70
109,196,171694,2,0,L|140:106,1,70
101,51,172064,2,0,L|194:50,1,70
216,45,172342,1,0,0:0:0:0:
254,38,172434,2,0,L|236:113,1,70
224,149,172712,1,0,0:0:0:0:
206,191,172805,6,0,P|176:237|168:270,1,70
256,283,173175,1,0,0:0:0:0:
256,283,173360,1,0,0:0:0:0:
306,191,173545,2,0,P|336:237|344:270,1,70
256,89,174101,1,0,0:0:0:0:
169,62,174286,2,0,L|114:121,1,70
184,178,174656,2,0,L|233:121,1,70
257,37,175027,2,0,P|305:101|359:133,1,140
446,136,175582,1,0,0:0:0:0:
446,226,175767,6,0,P|405:333|386:353,1,140
335,276,176323,1,0,0:0:0:0:
307,362,176508,2,0,P|202:319|166:320,1,140
191,137,177249,2,0,L|255:90,1,70
304,175,177619,2,0,L|264:111,1,70
208,202,177989,2,0,L|247:145,1,70
271,246,178360,1,0,0:0:0:0:
271,246,178545,1,0,0:0:0:0:
348,199,178730,6,0,P|361:260|356:293,1,70
255,272,179100,1,0,0:0:0:0:
255,272,179285,1,0,0:0:0:0:
164,199,179471,2,0,P|151:260|156:293,1,70
255,84,180026,1,0,0:0:0:0:
255,188,180211,2,0,P|336:178|391:194,1,140
320,272,180767,1,0,0:0:0:0:
228,322,180952,2,0,L|183:248,1,70
172,159,181322,2,0,L|208:82,1,70
257,6,181693,2,0,P|179:42|124:51,1,140
22,35,182248,1,0,0:0:0:0:
100,104,182433,6,0,P|95:174|110:247,1,140
79,343,182989,1,0,0:0:0:0:
153,269,183174,2,0,P|238:257|291:268,1,140
318,196,183729,1,0,0:0:0:0:
391,170,183915,1,0,0:0:0:0:
455,211,184100,1,0,0:0:0:0:
458,287,184285,1,0,0:0:0:0:
396,333,184470,1,0,0:0:0:0:
325,301,184655,6,0,P|291:254|268:226,1,70
220,199,185026,2,0,L|213:110,1,70
153,82,185396,2,0,L|82:33,1,70
247,68,185951,1,0,0:0:0:0:
323,65,186136,2,0,L|403:60,1,70
409,136,186507,1,0,0:0:0:0:
396,60,186692,1,0,0:0:0:0:
409,136,186877,2,0,P|359:227|356:264,1,140
284,317,187433,1,0,0:0:0:0:
355,261,187618,6,0,P|271:182|232:159,1,140
186,232,188173,1,0,0:0:0:0:
251,169,188358,2,0,P|225:91|228:33,1,140
265,213,189099,2,0,P|231:280|187:337,1,140
162,151,189840,2,0,L|211:78,1,70
261,26,190210,1,0,0:0:0:0:
261,26,190395,1,0,0:0:0:0:
310,92,190580,6,0,L|350:151,1,70,0|0,0:0|0:0,0:0:0:0:
332,239,190951,1,0,0:0:0:0:
422,233,191136,1,0,0:0:0:0:
380,313,191321,2,0,L|374:224,1,70
192,245,191877,1,0,0:0:0:0:
178,155,192062,1,0,0:0:0:0:
103,206,192247,1,0,0:0:0:0:
192,245,192432,1,0,0:0:0:0:
178,155,192617,1,0,0:0:0:0:
103,206,192802,2,0,P|90:111|114:45,1,140
189,45,193358,1,0,0:0:0:0:
274,76,193543,6,0,P|287:159|269:229,1,140
189,242,194098,1,0,0:0:0:0:
275,213,194284,2,0,P|336:110|365:89,1,140
438,120,194839,1,0,0:0:0:0:
473,203,195024,2,0,P|419:272|351:299,1,140
282,304,195580,1,0,0:0:0:0:
278,213,195765,2,0,L|337:135,1,70
321,66,196135,2,0,L|408:60,1,70
390,166,196506,6,0,L|378:252,1,70
278,258,196876,2,0,L|244:181,1,70
146,213,197246,2,0,L|113:282,1,70
82,68,197802,1,0,0:0:0:0:
177,49,197987,2,0,L|173:119,1,70
298,98,198357,2,0,L|280:31,1,70
384,48,198728,2,0,P|432:145|448:180,1,140
353,224,199283,1,0,0:0:0:0:
249,238,199468,2,0,L|237:379,1,140
137,343,200024,1,0,0:0:0:0:
45,292,200209,6,0,P|146:270|144:232,1,140
73,183,200764,1,0,0:0:0:0:
105,83,200949,1,0,0:0:0:0:
315,77,201320,1,0,0:0:0:0:
320,286,201690,1,0,0:0:0:0:
216,271,201875,1,0,0:0:0:0:
320,286,202060,2,0,L|407:264,1,70
321,186,202431,6,0,L|232:180,1,70
150,150,202801,1,0,0:0:0:0:
150,150,202986,1,0,0:0:0:0:
71,220,203171,2,0,L|82:313,1,70
153,92,203727,1,0,0:0:0:0:
257,78,203912,2,0,L|270:153,1,70
243,146,204282,2,0,L|255:78,1,70
355,108,204653,2,0,B|380:158|410:177|343:206|364:260,1,140
255,233,205208,1,0,0:0:0:0:
318,316,205393,6,0,P|311:197|324:164,1,140
308,74,205949,1,0,0:0:0:0:
325,177,206134,2,0,P|371:263|407:291,1,140
493,236,206689,1,0,0:0:0:0:
411,303,206875,2,0,P|420:189|409:155,1,140
458,71,207430,1,0,0:0:0:0:
353,82,207615,2,0,P|243:71|207:80,1,140
116,262,208356,5,0,0:0:0:0:
324,288,208726,1,0,0:0:0:0:
408,95,209097,1,0,0:0:0:0:
211,20,209467,1,0,0:0:0:0:
133,199,209837,5,0,0:0:0:0:
310,283,210208,1,0,0:0:0:0:
399,108,210578,1,0,0:0:0:0:
220,28,210948,1,0,0:0:0:0:
175,175,211319,5,0,0:0:0:0:
315,238,211689,1,0,0:0:0:0:
372,95,212059,1,0,0:0:0:0:
236,21,212430,1,0,0:0:0:0:
212,144,212800,5,0,0:0:0:0:
327,194,213170,1,0,0:0:0:0:
357,71,213540,1,0,0:0:0:0:
240,21,213911,1,0,0:0:0:0:
266,115,214281,5,0,0:0:0:0:
