osu file format v9

[General]
AudioFilename: Written In The Stars.mp3
AudioLeadIn: 0
PreviewTime: 64965
Countdown: 1
SampleSet: Normal
StackLeniency: 0.7
Mode: 0
LetterboxInBreaks: 1

[Editor]
Bookmarks: 54505,135463
DistanceSpacing: 0.8
BeatDivisor: 8
GridSize: 8

[Metadata]
Title:Written In The Stars
Artist:Tinie Tempah Ft. Eric Turner
Creator:GladiOol
Version:Standard
Source:
Tags:Gladi Tiny Tempo feat featuring feat.

[Difficulty]
HPDrainRate:1
CircleSize:3
OverallDifficulty:1
ApproachRate:3
SliderMultiplier:2
SliderTickRate:4

[Events]
//Background and Video events
0,0,"WRITTEN IN THE STARS.jpg"
//Break Periods
2,86044,94850
2,169613,177113
//Storyboard Layer 0 (Background)
//Storyboard Layer 1 (Fail)
//Storyboard Layer 2 (Pass)
//Storyboard Layer 3 (Foreground)
//Storyboard Sound Samples
//Background Colour Transformations
3,100,163,162,255

[TimingPoints]
2275,652.883569096844,4,1,0,40,1,0
31328,-133.333333333333,4,1,0,0,0,0
31654,-100,4,1,0,40,0,0
63646,-100,4,2,0,30,0,0
64951,-100,4,1,0,40,0,1
75316,-100,4,1,0,40,0,0
75397,-100,4,1,0,40,0,1
85844,-100,4,1,0,40,0,0
100860,-166.666666666667,4,1,0,40,0,0
100963,-166.666666666667,4,1,0,0,0,0
101861,-100,4,1,0,40,0,0
136769,-100,4,2,0,30,0,0
138074,-100,4,1,0,40,0,1
148439,-100,4,1,0,40,0,0
148520,-100,4,1,0,40,0,1
158967,-100,4,1,0,40,0,0
161578,-100,4,1,0,40,0,1
161660,-100,4,1,0,40,0,0
164190,-100,4,1,0,40,0,1
164271,-100,4,1,0,40,0,0
166801,-100,4,1,0,40,0,1
166883,-100,4,1,0,40,0,0
169413,-100,4,2,0,40,0,0
178553,-100,4,1,0,40,0,0
179859,-100,4,1,0,40,0,1
190223,-100,4,1,0,40,0,0
190305,-100,4,1,0,40,0,1
200751,-100,4,2,0,0,0,0

[Colours]
Combo1 : 241,185,54
Combo2 : 15,154,230
Combo3 : 214,230,15
Combo4 : 207,39,243

[HitObjects]
80,128,23167,2,0,B|136:128|136:128|192:72|192:72|288:72,2,200,4|8|0
32,192,24799,2,2,B|24:240|24:240|32:304,1,100,2|8
168,376,25778,5,4
208,224,26431,1,8
360,280,27084,1,0
384,200,27411,2,2,B|408:200|408:200|448:224|448:224|480:224,1,100,2|8
416,80,28390,5,4
256,48,29043,1,8
200,200,29696,1,0
200,200,30022,2,2,B|144:176|144:176|80:176,1,100,2|8
152,328,31001,5,4
152,328,31328,2,0,B|184:320|184:320|200:320|200:320|224:328,1,74.9999977648259,0|8
336,376,32144,2,0,B|376:376|376:376|432:336|432:336|472:336,1,150,0|2
344,128,33613,6,0,B|288:128|288:128|232:72|232:72|136:72,2,200,4|8|0
376,200,35245,2,2,B|352:248|352:248|352:296,1,100,2|8
200,336,36224,5,4
144,184,36877,1,8
224,88,37367,2,0,B|256:112|256:112|328:112|328:112|360:80,1,150,0|2
392,320,38836,6,0,B|344:320|344:320|296:240|296:240|232:240,1,200,4|8
128,296,39979,2,0,B|96:240|96:240|96:152,1,150,0|2
152,96,40795,1,8
280,192,41448,5,4
352,48,42100,1,8
432,136,42590,2,0,B|400:192|400:192|400:280,1,150,0|2
344,336,43406,1,8
264,352,43733,1,0
208,296,44059,6,0,B|192:248|192:248|208:192,3,100,6|0|10|0
264,56,45691,1,2
344,48,46018,1,10
424,40,46344,1,2
424,40,46507,1,2
272,176,47323,6,0,B|224:176|224:176|176:208|176:208|96:208,1,150,8|2
216,296,48303,2,2,B|256:320|256:320|336:320,1,100,2|8
432,224,49282,5,4
440,144,49609,1,0
448,64,49935,2,0,B|376:48|376:48|296:80,1,150,8|0
240,176,50914,2,2,B|192:176|192:176|144:152,1,100,2|8
232,288,51894,6,0,B|280:288|280:288|360:232|360:232|416:232,2,200,6|10|0
168,240,53526,2,2,B|152:192|152:192|168:136,1,100,2|8
328,144,54505,6,0,B|344:96|344:96|328:40,4,100,6|0|10|0|0
288,216,56137,1,2
208,240,56464,1,10
128,264,56790,1,2
128,264,56953,1,2
129,143,57443,6,2,B|129:111|129:111|177:95|177:95|225:111|225:111|225:143|225:143|257:159|257:159|289:143|289:143|289:111|289:111|337:95|337:95|385:111|385:111|385:143|385:143|385:143,1,400
256,240,59402,1,2
160,16,60381,6,2,B|216:16|216:16|288:48|288:48|352:48,1,200,10|0
432,48,61360,2,2,B|448:96|448:96|432:152,1,100,2|8
368,288,62340,6,0,B|312:288|312:288|240:256|240:256|176:256,1,200,4|8
24,208,63646,2,0,B|8:256|8:256|24:312,2,100,0|0|6
161,126,64951,6,2,B|217:102|217:102|289:102|289:102|361:142,1,200,6|10
256,264,66257,1,2
256,264,66910,1,10
160,128,67563,6,2,B|160:192|160:192|128:256|128:256|128:320,1,200,6|10
256,216,68869,2,2,B|256:8,1,200,2|10
352,128,70174,6,2,B|352:192|352:192|384:256|384:256|384:320,2,200,6|10|2
224,24,72133,1,8
152,152,72786,5,6
296,88,73439,1,8
360,232,74092,1,2
216,296,74745,1,8
256,192,75397,5,6
256,192,76050,1,8
158,64,76703,2,2,B|206:64|206:64|254:80|254:80|294:64|294:64|366:64,1,200,2|10
336,224,78009,6,2,B|392:224|392:224|464:160|464:160|536:160,2,200,6|10|2
256,360,79968,1,10
176,224,80621,6,2,B|120:224|120:224|48:160|48:160|-24:160,2,200,6|10|2
176,64,82579,1,10
336,64,83232,1,4
256,192,83395,12,4,85844
104,240,96290,6,0,B|104:192|104:192|88:144|88:144|104:104|104:104|104:32,2,200,4|8|0
128,320,97922,2,2,B|184:320|184:320|232:288,1,100,2|8
328,176,98901,6,0,B|384:176|384:176|456:240|456:240|528:240,2,200,4|8|0
256,360,100860,6,0,B|272:360|272:360|280:344|280:344|272:328|272:328|256:328|256:328|248:312|248:312|256:296|256:296|272:296,1,120.000002861023,8|0
128,232,102166,1,8
120,152,102492,1,0
112,72,102819,1,0
112,72,103145,2,2,B|160:72|160:72|216:48,1,100,2|8
352,128,104124,6,0,B|352:176|352:176|368:224|368:224|352:264|352:264|352:336,2,200,4|8|0
312,56,105757,2,2,B|264:48|264:48|208:56,1,100,2|8
144,96,106409,1,0
216,136,106736,6,0,B|224:184|224:184|216:240,2,100,6|0|10
320,192,107878,2,0,B|360:192|360:192|416:232|416:232|464:232,1,150,0|2
296,56,109347,6,0,B|248:48|248:48|192:56,2,100,6|0|10
216,152,110489,2,0,B|176:152|176:152|120:192|120:192|72:192,1,150,0|2
56,272,111306,1,8
192,360,111959,6,0,B|224:328|224:328|224:224|224:224|264:176,1,200,4|8
360,240,113101,2,0,B|392:192|392:192|392:96,1,150,0|2
344,32,113918,1,8
192,88,114570,5,4
312,192,115223,2,0,B|360:192|360:192|400:160|400:160|464:160,2,150,8|0|2
232,192,116529,1,8
192,264,116856,1,2
152,336,117182,6,0,B|152:280|152:280|120:208|120:208|120:120,2,200,6|10|0
232,360,118814,1,2
312,336,119141,1,10
392,312,119467,1,2
392,312,119630,1,2
240,184,120446,6,0,B|256:136|256:136|240:80,1,100,8|0
160,88,121099,2,0,B|144:136|144:136|160:192,1,100,0|2
136,264,121752,1,8
272,344,122405,6,0,B|328:344|328:344|400:304|400:304|472:304,2,200,6|10|0
200,304,124037,2,2,B|184:256|184:256|200:192,1,100,2|8
256,56,125017,6,0,B|288:88|288:88|288:192|288:192|328:240,1,200,6|10
440,248,126159,2,0,B|472:200|472:200|472:96,1,150,0|2
472,24,126975,1,8
328,88,127628,6,0,B|272:88|272:88|200:48|200:48|128:48,2,200,6|10|0
336,168,129260,1,2
344,248,129587,1,10
352,328,129913,1,2
352,328,130076,1,2
152,288,130893,6,0,B|144:240|144:240|152:184,1,100,8|0
104,120,131545,2,0,B|200:72,1,100,0|2
264,40,132198,1,8
312,192,132851,6,0,B|360:192|360:192|408:208|408:208|448:192|448:192|520:192,2,200,6|10|0
232,216,134483,2,2,B|184:224|184:224|128:216,1,100,2|8
96,64,135463,6,0,B|152:64|152:64|224:96|224:96|288:96,1,200,4|8
440,144,136769,2,0,B|456:96|456:96|440:40,2,100,0|0|6
161,126,138074,6,2,B|217:102|217:102|289:102|289:102|361:142,1,200,6|10
256,264,139380,1,2
256,264,140033,1,10
160,128,140686,6,2,B|160:192|160:192|128:256|128:256|128:320,1,200,6|10
256,216,141992,2,2,B|256:8,1,200,2|10
352,128,143297,6,2,B|352:192|352:192|384:256|384:256|384:320,2,200,6|10|2
224,24,145256,1,8
152,152,145909,5,6
296,88,146562,1,8
360,232,147215,1,2
216,296,147868,1,8
256,192,148520,5,6
256,192,149173,1,8
158,64,149826,2,2,B|206:64|206:64|254:80|254:80|294:64|294:64|366:64,1,200,2|10
336,224,151132,6,2,B|392:224|392:224|464:160|464:160|536:160,2,200,6|10|2
256,360,153091,1,10
176,224,153744,6,2,B|120:224|120:224|48:160|48:160|-24:160,2,200,6|10|2
176,64,155702,1,10
336,64,156355,1,4
256,192,156518,12,4,158967
208,80,159619,6,2,B|256:80|256:80|296:112|296:112|368:112,3,150,10|2|2|2
256,192,161578,5,6
208,304,162231,6,2,B|256:304|256:304|296:272|296:272|368:272,3,150,10|2|2|2
256,192,164190,5,6
368,240,164843,6,2,B|368:192|368:192|336:152|336:152|336:80,3,150,10|2|2|2
256,192,166801,5,6
144,240,167454,6,2,B|144:192|144:192|176:152|176:152|176:80,3,150,10|2|2|2
256,192,169413,5,6
300,77,178553,5,8
420,195,179206,1,10
256,240,179859,6,2,B|208:240|208:240|160:256|160:256|120:240|120:240|48:240,1,200,6|10
160,112,181165,2,2,B|256:88|256:88|384:120,1,200,2|10
256,240,182470,6,2,B|304:240|304:240|352:256|352:256|392:240|392:240|464:240,1,200,6|10
320,144,183776,2,2,B|296:104|296:104|296:40,1,100
216,50,184429,2,0,B|216:103|216:103|192:143,1,100,10|0
256,192,185082,6,2,B|192:192|192:192|128:136|128:136|64:136,2,200,6|10|2
376,88,187041,1,8
376,88,187693,5,6
184,40,188346,1,8
136,232,188999,1,2
328,280,189652,1,8
256,192,190305,6,2,B|320:192|320:192|384:136|384:136|448:136,2,200,6|10|2
128,96,192264,1,10
128,96,192917,6,2,B|128:144|128:144|112:192|112:192|128:232|128:232|128:304,1,200,6|10
256,192,194222,1,2
256,192,194549,1,0
256,192,194875,1,10
384,96,195528,6,2,B|384:144|384:144|400:192|400:192|384:232|384:232|384:304,1,200,6|10
356,132,196834,2,2,B|132:132,2,200,2|10|4
256,192,198303,12,0,200751
