osu file format v13

[General]
AudioFilename: witchcrvft =.mp3
AudioLeadIn: 0
PreviewTime: -1
Countdown: 0
SampleSet: None
StackLeniency: 0.6
Mode: 2
LetterboxInBreaks: 1
WidescreenStoryboard: 1

[Editor]
Bookmarks: 14434,27047,43263,58128,72092,86506,99119,144164,158578,173443,187407
DistanceSpacing: 1.2
BeatDivisor: 4
GridSize: 16
TimelineZoom: 2.1

[Metadata]
Title:Witchcrvft
TitleUnicode:Witchcrvft
Artist:Tincup
ArtistUnicode:Tincup
Creator:Tincup-
Version:Information
Source:
Tags:Trap
BeatmapID:499776
BeatmapSetID:198960

[Difficulty]
HPDrainRate:6
CircleSize:4
OverallDifficulty:8
ApproachRate:8
SliderMultiplier:1.8
SliderTickRate:1

[Events]
//Background and Video events
0,0,"Witchcrvft.jpg",0,0
//Break Periods
2,72122,85080
2,115761,126972
//Storyboard Layer 0 (Background)
//Storyboard Layer 1 (Fail)
//Storyboard Layer 2 (Pass)
//Storyboard Layer 3 (Foreground)
//Storyboard Sound Samples
//Background Colour Transformations
3,100,163,162,255

[TimingPoints]
20,450.45045045045,4,2,0,80,1,0
36506,-100,4,3,0,80,0,0
41123,-100,4,2,0,80,0,0
70177,-100,4,3,0,80,0,0
71979,-100,4,2,0,80,0,0
143375,-100,4,3,0,80,0,0
143826,-100,4,2,0,80,0,0
151821,-100,4,3,0,80,0,0
156438,-100,4,2,0,80,0,0
185605,-100,4,3,0,80,0,0
187294,-100,4,2,0,80,0,0

[Colours]
Combo1 : 255,0,0
Combo2 : 204,255,0
Combo3 : 255,0,153
Combo4 : 0,0,0
Combo5 : 64,0,64
Combo6 : 255,128,0
Combo7 : 0,255,255
Combo8 : 0,0,255

[HitObjects]
256,192,20,5,2,0:0:0:0:
96,192,470,1,2,0:0:0:0:
192,128,695,1,8,0:0:0:0:
192,64,920,1,8,0:0:0:0:
416,192,1371,1,2,0:0:0:0:
320,128,1596,1,8,0:0:0:0:
320,64,1821,1,8,0:0:0:0:
160,320,2272,1,2,0:0:0:0:
64,256,2497,1,0,0:0:0:0:
160,192,2722,2,0,L|250:192,1,90
480,192,3173,6,0,L|390:192,1,90,2|0,0:0|0:0,0:0:0:0:
288,128,3623,2,0,L|351:64,1,90
224,128,4074,2,0,L|160:64,1,90,2|0,0:0|0:0,0:0:0:0:
64,128,4524,2,0,L|127:191,1,90
288,352,4974,2,0,L|224:288,1,90,2|0,0:0|0:0,0:0:0:0:
352,320,5425,2,0,L|352:230,1,90
160,224,5875,2,0,L|70:224,1,90,2|0,0:0|0:0,0:0:0:0:
256,192,6551,5,2,0:0:0:0:
256,128,6776,1,2,0:0:0:0:
352,224,7227,6,0,L|442:224,1,90,8|0,0:0|0:0,0:0:0:0:
352,160,7677,1,2,0:0:0:0:
128,160,8128,2,0,L|32:160,1,90,8|0,0:0|0:0,0:0:0:0:
128,96,8578,1,2,0:0:0:0:
320,32,9029,2,0,L|320:122,1,90,8|0,0:0|0:0,0:0:0:0:
224,160,9479,1,2,0:0:0:0:
32,224,9929,2,0,L|32:314,1,90,8|0,0:0|0:0,0:0:0:0:
128,352,10379,1,2,0:0:0:0:
224,320,10605,1,4,0:0:0:0:
320,320,10830,6,0,B|480:320|480:320|480:256|480:256|288:256|288:256|224:192|224:192|448:192|448:192|416:128|416:128|318:128,1,900,2|2,0:0|0:0,0:0:0:0:
96,128,13758,1,2,0:0:0:0:
96,192,13983,1,2,0:0:0:0:
224,352,14434,6,0,L|44:352,1,180,2|8,0:0|0:0,0:0:0:0:
128,288,15110,1,8,0:0:0:0:
224,288,15335,1,8,0:0:0:0:
352,192,15785,1,8,0:0:0:0:
480,32,16236,2,0,L|300:32,1,180,2|8,0:0|0:0,0:0:0:0:
384,96,16911,1,8,0:0:0:0:
480,96,17137,1,8,0:0:0:0:
256,32,17587,1,8,0:0:0:0:
320,96,18038,6,0,L|447:223,1,180,2|8,0:0|0:0,0:0:0:0:
384,256,18713,1,8,0:0:0:0:
320,256,18938,1,8,0:0:0:0:
256,192,19389,1,8,0:0:0:0:
192,96,19839,2,0,L|64:223,1,180,2|8,0:0|0:0,0:0:0:0:
128,256,20514,1,8,0:0:0:0:
192,256,20739,1,8,0:0:0:0:
256,192,21191,1,8,0:0:0:0:
320,352,21641,6,0,B|412:352|412:352|304:352,1,180,2|8,0:0|0:0,0:0:0:0:
256,320,22317,1,8,0:0:0:0:
320,288,22542,1,8,0:0:0:0:
256,96,22992,1,8,0:0:0:0:
192,256,23443,2,0,B|100:256|100:256|208:256,1,180,2|8,0:0|0:0,0:0:0:0:
256,224,24119,1,8,0:0:0:0:
192,192,24344,1,8,0:0:0:0:
336,320,24794,5,8,0:0:0:0:
480,256,25245,2,0,L|480:76,1,180,2|8,0:0|0:0,0:0:0:0:
416,64,25920,1,8,0:0:0:0:
352,96,26146,1,8,0:0:0:0:
208,96,26596,1,8,0:0:0:0:
64,96,27047,6,0,L|109:96,7,45,0|0|0|0|0|0|0|0,0:0|0:0|0:0|0:0|0:0|0:0|0:0|0:0,0:0:0:0:
160,256,27947,2,0,L|250:256,1,90
288,256,28285,1,0,0:0:0:0:
320,256,28398,1,0,0:0:0:0:
32,192,28848,5,4,0:0:0:0:
192,32,29298,2,0,L|287:127,1,135,8|0,0:0|0:0,0:0:0:0:
416,160,29749,2,0,L|381:290,1,135,8|0,0:0|0:0,0:0:0:0:
256,320,30199,2,0,L|391:320,1,135,8|0,0:0|0:0,0:0:0:0:
192,224,30650,1,2,0:0:0:0:
112,352,31100,6,0,L|16:256,1,135,8|0,0:0|0:0,0:0:0:0:
112,224,31550,2,0,L|179:107,1,135,8|0,0:0|0:0,0:0:0:0:
288,32,32001,2,0,L|383:128,1,135,8|0,0:0|0:0,0:0:0:0:
192,192,32451,1,2,0:0:0:0:
112,352,32902,6,0,L|247:352,1,135,8|0,0:0|0:0,0:0:0:0:
283,279,33353,2,0,L|148:279,1,135,8|0,0:0|0:0,0:0:0:0:
111,279,33803,2,0,L|206:183,1,135,8|0,0:0|0:0,0:0:0:0:
32,96,34253,1,2,0:0:0:0:
180,40,34704,6,0,L|45:40,1,135,8|0,0:0|0:0,0:0:0:0:
70,65,35154,2,0,L|93:197,1,135,8|0,0:0|0:0,0:0:0:0:
118,223,35604,2,0,L|266:223,1,135,8|0,0:0|0:0,0:0:0:0:
448,224,36055,1,2,0:0:0:0:
288,224,36506,5,2,0:0:0:0:
256,224,36619,2,0,L|352:128,1,135,2|8,0:0|0:0,0:0:0:0:
448,96,37182,1,0,0:0:0:0:
352,64,37407,1,2,0:0:0:0:
256,64,37632,2,0,L|211:64,2,45,0|0|8,0:0|0:0|0:0,0:0:0:0:
160,64,38083,1,0,0:0:0:0:
64,64,38308,1,2,0:0:0:0:
160,128,38533,1,0,0:0:0:0:
256,128,38758,1,8,0:0:0:0:
352,128,38983,1,0,0:0:0:0:
448,128,39209,1,2,0:0:0:0:
352,192,39434,1,0,0:0:0:0:
160,32,39659,5,8,0:0:0:0:
352,32,40110,1,8,0:0:0:0:
96,96,40560,1,8,0:0:0:0:
416,96,41010,1,8,0:0:0:0:
256,192,41461,12,0,43038,0:0:0:0:
256,192,43263,5,2,0:0:0:0:
32,192,43713,5,0,0:0:0:0:
56,184,43769,1,0,0:0:0:0:
72,164,43826,1,0,0:0:0:0:
64,136,43882,1,0,0:0:0:0:
76,112,43938,1,0,0:0:0:0:
192,320,44164,5,8,0:0:0:0:
320,320,44389,1,0,0:0:0:0:
128,320,44614,1,2,0:0:0:0:
384,320,44839,2,0,B|480:320,1,90
474,265,45177,1,0,0:0:0:0:
474,210,45290,1,0,0:0:0:0:
256,192,45515,1,8,0:0:0:0:
32,192,45965,5,8,0:0:0:0:
160,192,46191,1,0,0:0:0:0:
288,128,46416,1,2,0:0:0:0:
236,112,46529,1,0,0:0:0:0:
212,64,46641,1,0,0:0:0:0:
248,24,46754,1,0,0:0:0:0:
301,24,46866,2,0,L|386:51,1,90,8|0,0:0|0:0,0:0:0:0:
188,312,47317,1,0,0:0:0:0:
168,292,47374,1,0,0:0:0:0:
168,265,47430,1,0,0:0:0:0:
352,352,47767,5,8,0:0:0:0:
480,320,47992,1,0,0:0:0:0:
352,288,48218,1,2,0:0:0:0:
224,224,48443,2,0,B|366:113,1,180,0|0,0:0|0:0,0:0:0:0:
224,64,49119,1,8,0:0:0:0:
0,64,49569,5,8,0:0:0:0:
128,96,49794,1,0,0:0:0:0:
256,128,50019,2,0,L|352:128,1,90,2|0,0:0|0:0,0:0:0:0:
96,304,50470,2,0,L|96:214,1,90,8|0,0:0|0:0,0:0:0:0:
320,288,50920,1,2,0:0:0:0:
340,268,50977,1,0,0:0:0:0:
340,241,51033,1,0,0:0:0:0:
256,192,51146,1,0,0:0:0:0:
384,64,51371,5,8,0:0:0:0:
256,64,51596,1,0,0:0:0:0:
128,64,51821,1,2,0:0:0:0:
480,160,52047,2,0,L|300:160,1,180
192,160,52722,1,8,0:0:0:0:
416,320,53173,5,8,0:0:0:0:
288,320,53398,1,0,0:0:0:0:
160,320,53624,2,0,L|224:256,1,90,2|0,0:0|0:0,0:0:0:0:
160,192,54074,1,8,0:0:0:0:
448,224,54524,6,0,L|384:160,1,90,2|0,0:0|0:0,0:0:0:0:
256,160,54975,2,0,L|383:32,1,180,8|8,0:0|0:0,0:0:0:0:
192,160,55876,2,0,L|57:40,1,180,2|8,0:0|0:0,0:0:0:0:
256,224,56776,1,8,0:0:0:0:
256,192,57001,12,8,57902,0:0:0:0:
256,32,58128,5,0,0:0:0:0:
232,48,58184,1,0,0:0:0:0:
220,72,58240,1,0,0:0:0:0:
212,100,58297,1,0,0:0:0:0:
220,124,58353,1,0,0:0:0:0:
232,148,58409,1,0,0:0:0:0:
252,168,58465,1,0,0:0:0:0:
272,188,58522,1,0,0:0:0:0:
292,204,58578,1,8,0:0:0:0:
184,204,58803,5,0,0:0:0:0:
352,256,59029,1,2,0:0:0:0:
128,256,59254,1,0,0:0:0:0:
144,276,59310,1,0,0:0:0:0:
156,300,59366,1,0,0:0:0:0:
152,328,59423,1,0,0:0:0:0:
140,352,59479,1,2,0:0:0:0:
32,352,59704,1,0,0:0:0:0:
32,244,59929,1,8,0:0:0:0:
140,52,60155,5,0,0:0:0:0:
193,52,60267,1,0,0:0:0:0:
247,52,60380,1,8,0:0:0:0:
354,52,60605,1,0,0:0:0:0:
462,52,60831,1,2,0:0:0:0:
354,129,61056,1,0,0:0:0:0:
246,129,61281,5,8,0:0:0:0:
212,168,61393,1,0,0:0:0:0:
196,220,61506,1,0,0:0:0:0:
212,272,61619,1,0,0:0:0:0:
240,316,61731,1,2,0:0:0:0:
288,340,61844,1,0,0:0:0:0:
340,324,61956,1,0,0:0:0:0:
380,288,62069,1,0,0:0:0:0:
388,236,62182,1,8,0:0:0:0:
280,236,62407,1,0,0:0:0:0:
448,224,62632,5,8,0:0:0:0:
468,204,62688,1,0,0:0:0:0:
476,176,62745,1,0,0:0:0:0:
468,152,62801,1,0,0:0:0:0:
452,132,62857,1,0,0:0:0:0:
436,112,62914,1,0,0:0:0:0:
444,88,62970,1,0,0:0:0:0:
460,64,63026,1,0,0:0:0:0:
476,44,63083,1,2,0:0:0:0:
368,44,63308,1,0,0:0:0:0:
260,44,63533,5,8,0:0:0:0:
221,82,63646,1,0,0:0:0:0:
258,119,63758,1,0,0:0:0:0:
296,157,63871,1,0,0:0:0:0:
258,194,63983,5,8,0:0:0:0:
258,221,64040,1,0,0:0:0:0:
258,247,64096,1,0,0:0:0:0:
258,273,64152,1,0,0:0:0:0:
200,312,64209,5,0,0:0:0:0:
200,287,64265,1,0,0:0:0:0:
200,262,64321,1,0,0:0:0:0:
200,236,64378,1,0,0:0:0:0:
200,212,64434,2,0,L|110:212,1,90,2|0,0:0|0:0,0:0:0:0:
36,144,64884,2,0,L|126:144,1,90,2|0,0:0|0:0,0:0:0:0:
225,144,65335,5,8,0:0:0:0:
208,124,65391,1,0,0:0:0:0:
224,104,65447,1,0,0:0:0:0:
264,76,65560,1,0,0:0:0:0:
308,52,65673,1,0,0:0:0:0:
264,32,65785,1,8,0:0:0:0:
156,32,66010,1,0,0:0:0:0:
320,352,66236,1,2,0:0:0:0:
96,352,66461,5,0,0:0:0:0:
76,332,66517,1,0,0:0:0:0:
60,312,66574,1,0,0:0:0:0:
64,284,66630,1,0,0:0:0:0:
76,260,66686,2,0,L|153:214,1,90,2|0,0:0|0:0,0:0:0:0:
261,214,67137,5,8,0:0:0:0:
368,214,67362,1,0,0:0:0:0:
405,176,67474,1,0,0:0:0:0:
366,137,67587,1,8,0:0:0:0:
258,137,67812,1,0,0:0:0:0:
416,96,68038,1,2,0:0:0:0:
192,96,68263,1,0,0:0:0:0:
154,58,68375,1,0,0:0:0:0:
192,19,68488,1,8,0:0:0:0:
299,19,68713,1,0,0:0:0:0:
465,284,68938,5,2,0:0:0:0:
481,304,68994,1,0,0:0:0:0:
464,324,69050,1,0,0:0:0:0:
416,348,69164,1,0,0:0:0:0:
362,348,69276,1,0,0:0:0:0:
308,352,69389,2,0,L|263:273,1,90,8|0,0:0|0:0,0:0:0:0:
155,273,69839,2,0,L|100:272,2,45,8|0|0,0:0|0:0|0:0,0:0:0:0:
256,192,70290,5,8,0:0:0:0:
384,128,70515,1,0,0:0:0:0:
384,128,70628,1,0,0:0:0:0:
384,128,70740,1,0,0:0:0:0:
256,56,70965,1,0,0:0:0:0:
240,71,71021,1,0,0:0:0:0:
224,87,71077,1,0,0:0:0:0:
208,103,71133,1,0,0:0:0:0:
192,119,71190,1,0,0:0:0:0:
83,119,71416,5,0,0:0:0:0:
192,272,71641,1,0,0:0:0:0:
192,272,71697,1,0,0:0:0:0:
320,272,71866,1,0,0:0:0:0:
320,272,71922,1,0,0:0:0:0:
256,352,85830,5,8,0:0:0:0:
256,288,85943,1,8,0:0:0:0:
256,224,86056,1,8,0:0:0:0:
128,192,86506,6,0,L|12:192,1,90,8|0,0:0|0:0,0:0:0:0:
384,192,87182,2,0,L|500:192,1,90,2|8,0:0|0:0,0:0:0:0:
256,36,87857,2,0,L|256:126,1,90,8|0,0:0|0:0,0:0:0:0:
64,192,88758,2,0,L|127:128,1,90,8|0,0:0|0:0,0:0:0:0:
448,192,89209,2,0,L|384:128,1,90,8|0,0:0|0:0,0:0:0:0:
96,352,90110,2,0,L|96:256,1,90,8|0,0:0|0:0,0:0:0:0:
416,352,90785,6,0,L|416:256,1,90,2|8,0:0|0:0,0:0:0:0:
256,224,91461,2,0,L|256:128,1,90,8|0,0:0|0:0,0:0:0:0:
160,192,92362,2,0,L|44:192,1,90,8|0,0:0|0:0,0:0:0:0:
352,192,92812,2,0,L|468:192,1,90,8|0,0:0|0:0,0:0:0:0:
256,64,93488,2,0,L|166:64,2,90,2|8|0,0:0|0:0|0:0,0:0:0:0:
96,192,94389,2,0,L|67:277,1,90,2|8,0:0|0:0,0:0:0:0:
416,192,95065,2,0,L|444:277,1,90,8|0,0:0|0:0,0:0:0:0:
96,128,95965,2,0,L|125:42,1,90,8|0,0:0|0:0,0:0:0:0:
416,128,96416,2,0,L|388:42,1,90,8|0,0:0|0:0,0:0:0:0:
256,192,97317,12,0,98893,0:0:0:0:
256,192,99119,5,2,0:0:0:0:
256,192,99344,12,0,100695,0:0:0:0:
256,192,100920,5,2,0:0:0:0:
39,192,101371,2,0,L|64:160,4,22.5,0|0|0|0|0,0:0|0:0|0:0|0:0|0:0,0:0:0:0:
146,192,101821,1,8,0:0:0:0:
352,352,102272,2,0,L|262:352,1,90,2|0,0:0|0:0,0:0:0:0:
128,288,102722,2,0,L|218:288,1,90,2|0,0:0|0:0,0:0:0:0:
352,288,103173,1,8,0:0:0:0:
160,288,103623,1,8,0:0:0:0:
384,224,103848,6,0,L|429:224,1,45
320,224,104074,2,0,L|275:224,1,45,2|0,0:0|0:0,0:0:0:0:
480,224,104299,2,0,L|448:192,1,45
320,160,104524,2,0,L|384:96,1,90,8|0,0:0|0:0,0:0:0:0:
192,160,104974,2,0,L|256:96,1,90,2|0,0:0|0:0,0:0:0:0:
366,192,105425,1,8,0:0:0:0:
160,352,105876,2,0,L|300:239,1,180,8|2,0:0|0:0,0:0:0:0:
160,288,106777,1,8,0:0:0:0:
352,288,107227,1,8,0:0:0:0:
128,224,107452,6,0,L|83:224,1,45
256,224,107677,2,0,L|301:224,1,45,2|0,0:0|0:0,0:0:0:0:
32,224,107903,2,0,L|64:192,1,45
256,160,108128,2,0,L|192:96,1,90,8|0,0:0|0:0,0:0:0:0:
64,96,108578,6,0,L|128:160,1,90,2|0,0:0|0:0,0:0:0:0:
64,352,109029,1,8,0:0:0:0:
192,352,109480,2,0,B|276:323|276:323|200:274,1,180,2|2,0:0|0:0,0:0:0:0:
320,256,110381,1,8,0:0:0:0:
448,256,110831,1,8,0:0:0:0:
192,32,111056,6,0,L|147:32,1,45
320,32,111282,2,0,L|365:32,1,45,2|0,0:0|0:0,0:0:0:0:
96,96,111507,2,0,L|128:128,1,45
416,96,111732,2,0,L|352:160,1,90,8|0,0:0|0:0,0:0:0:0:
448,96,112182,6,0,L|384:160,1,90,2|0,0:0|0:0,0:0:0:0:
448,352,112633,1,8,0:0:0:0:
224,352,113083,2,0,L|320:352,1,90,8|0,0:0|0:0,0:0:0:0:
160,352,113533,2,0,L|64:352,1,90,2|0,0:0|0:0,0:0:0:0:
192,256,113985,1,8,0:0:0:0:
64,256,114435,1,8,0:0:0:0:
320,32,114660,6,0,L|365:32,1,45
192,32,114886,2,0,L|147:32,1,45,2|0,0:0|0:0,0:0:0:0:
416,96,115111,2,0,L|384:128,1,45
96,96,115336,2,0,L|160:160,1,90,8|0,0:0|0:0,0:0:0:0:
256,192,127722,12,0,129524,0:0:0:0:
288,352,129749,6,0,L|468:352,1,180,2|8,0:0|0:0,0:0:0:0:
384,288,130425,1,8,0:0:0:0:
288,288,130650,1,8,0:0:0:0:
160,192,131101,1,8,0:0:0:0:
32,32,131551,2,0,L|212:32,1,180,2|8,0:0|0:0,0:0:0:0:
128,96,132226,1,8,0:0:0:0:
32,96,132452,1,8,0:0:0:0:
256,32,132903,1,8,0:0:0:0:
192,96,133353,6,0,L|65:223,1,180,2|8,0:0|0:0,0:0:0:0:
128,256,134028,1,8,0:0:0:0:
192,256,134253,1,8,0:0:0:0:
256,192,134705,1,8,0:0:0:0:
320,96,135154,2,0,L|448:223,1,180,2|8,0:0|0:0,0:0:0:0:
384,256,135829,1,8,0:0:0:0:
320,256,136054,1,8,0:0:0:0:
256,192,136507,1,8,0:0:0:0:
192,352,136956,6,0,B|100:352|100:352|208:352,1,180,2|8,0:0|0:0,0:0:0:0:
256,320,137632,1,8,0:0:0:0:
192,288,137857,1,8,0:0:0:0:
256,96,138308,1,8,0:0:0:0:
320,256,138758,2,0,B|412:256|412:256|304:256,1,180,2|8,0:0|0:0,0:0:0:0:
256,224,139434,1,8,0:0:0:0:
320,192,139659,1,8,0:0:0:0:
176,320,140110,5,8,0:0:0:0:
32,256,140560,2,0,L|32:76,1,180,2|8,0:0|0:0,0:0:0:0:
96,64,141235,1,8,0:0:0:0:
160,96,141461,1,8,0:0:0:0:
304,96,141911,1,8,0:0:0:0:
448,96,142362,6,0,L|403:96,7,45,0|0|0|0|0|0|0|0,0:0|0:0|0:0|0:0|0:0|0:0|0:0|0:0,0:0:0:0:
352,256,143262,2,0,L|262:256,1,90,2|8,0:0|0:0,0:0:0:0:
224,256,143600,1,8,0:0:0:0:
192,256,143713,1,8,0:0:0:0:
480,192,144163,5,4,0:0:0:0:
320,32,144613,2,0,L|225:127,1,135,8|0,0:0|0:0,0:0:0:0:
96,160,145064,2,0,L|131:290,1,135,8|0,0:0|0:0,0:0:0:0:
256,320,145514,2,0,L|121:320,1,135,8|0,0:0|0:0,0:0:0:0:
320,224,145965,1,2,0:0:0:0:
400,352,146415,6,0,L|496:256,1,135,8|0,0:0|0:0,0:0:0:0:
400,224,146865,2,0,L|333:107,1,135,8|0,0:0|0:0,0:0:0:0:
224,32,147316,2,0,L|129:128,1,135,8|0,0:0|0:0,0:0:0:0:
320,192,147766,1,2,0:0:0:0:
400,352,148217,6,0,L|265:352,1,135,8|0,0:0|0:0,0:0:0:0:
229,279,148668,2,0,L|364:279,1,135,8|0,0:0|0:0,0:0:0:0:
401,279,149118,2,0,L|306:183,1,135,8|0,0:0|0:0,0:0:0:0:
480,96,149568,1,2,0:0:0:0:
332,40,150019,6,0,L|467:40,1,135,8|0,0:0|0:0,0:0:0:0:
442,65,150469,2,0,L|419:197,1,135,8|0,0:0|0:0,0:0:0:0:
394,223,150919,2,0,L|246:223,1,135,8|0,0:0|0:0,0:0:0:0:
64,224,151370,1,2,0:0:0:0:
224,224,151821,5,2,0:0:0:0:
256,224,151934,2,0,L|160:128,1,135,2|8,0:0|0:0,0:0:0:0:
64,96,152497,1,0,0:0:0:0:
160,64,152722,1,2,0:0:0:0:
256,64,152947,2,0,L|301:64,2,45,0|0|8,0:0|0:0|0:0,0:0:0:0:
352,64,153398,1,0,0:0:0:0:
448,64,153623,1,2,0:0:0:0:
352,128,153848,1,0,0:0:0:0:
256,128,154073,1,8,0:0:0:0:
160,128,154298,1,0,0:0:0:0:
64,128,154524,1,2,0:0:0:0:
160,192,154749,1,0,0:0:0:0:
352,32,154974,5,8,0:0:0:0:
160,32,155425,1,8,0:0:0:0:
416,96,155875,1,8,0:0:0:0:
96,96,156325,1,8,0:0:0:0:
256,192,156776,12,0,158353,0:0:0:0:
256,192,158578,5,2,0:0:0:0:
480,192,159028,5,0,0:0:0:0:
456,184,159084,1,0,0:0:0:0:
440,164,159141,1,0,0:0:0:0:
448,136,159197,1,0,0:0:0:0:
436,112,159253,1,0,0:0:0:0:
320,320,159479,5,8,0:0:0:0:
192,320,159704,1,0,0:0:0:0:
384,320,159929,1,2,0:0:0:0:
128,320,160154,2,0,B|32:320,1,90,0|2,0:0|0:0,0:0:0:0:
38,265,160492,1,0,0:0:0:0:
38,210,160605,1,0,0:0:0:0:
256,192,160830,1,8,0:0:0:0:
480,192,161280,5,8,0:0:0:0:
352,192,161506,1,0,0:0:0:0:
224,128,161731,1,2,0:0:0:0:
276,112,161844,1,0,0:0:0:0:
300,64,161956,1,0,0:0:0:0:
264,24,162069,1,0,0:0:0:0:
211,24,162181,2,0,L|126:51,1,90,8|0,0:0|0:0,0:0:0:0:
324,312,162632,1,2,0:0:0:0:
344,292,162689,1,0,0:0:0:0:
344,265,162745,1,0,0:0:0:0:
160,352,163082,5,8,0:0:0:0:
32,320,163307,1,0,0:0:0:0:
160,288,163533,1,8,0:0:0:0:
288,224,163758,2,0,B|146:113,1,180,0|0,0:0|0:0,0:0:0:0:
288,64,164434,1,8,0:0:0:0:
512,64,164884,5,8,0:0:0:0:
384,96,165109,1,0,0:0:0:0:
256,128,165334,2,0,L|160:128,1,90,2|0,0:0|0:0,0:0:0:0:
416,304,165785,2,0,L|416:214,1,90,8|0,0:0|0:0,0:0:0:0:
192,288,166235,1,2,0:0:0:0:
172,268,166292,1,0,0:0:0:0:
172,241,166348,1,0,0:0:0:0:
256,192,166461,1,0,0:0:0:0:
128,64,166686,5,8,0:0:0:0:
256,64,166911,1,0,0:0:0:0:
384,64,167136,1,2,0:0:0:0:
32,160,167362,2,0,L|212:160,1,180
320,160,168038,1,8,0:0:0:0:
96,320,168488,5,8,0:0:0:0:
224,320,168713,1,0,0:0:0:0:
352,320,168939,2,0,L|288:256,1,90,2|0,0:0|0:0,0:0:0:0:
352,192,169389,1,8,0:0:0:0:
64,224,169839,6,0,L|128:160,1,90,2|0,0:0|0:0,0:0:0:0:
256,160,170290,2,0,L|129:32,1,180,8|8,0:0|0:0,0:0:0:0:
320,160,171191,2,0,L|455:40,1,180,2|8,0:0|0:0,0:0:0:0:
256,224,172091,1,8,0:0:0:0:
256,192,172316,12,8,173217,0:0:0:0:
256,32,173443,5,0,0:0:0:0:
280,48,173499,1,0,0:0:0:0:
292,72,173555,1,0,0:0:0:0:
300,100,173612,1,0,0:0:0:0:
292,124,173668,1,0,0:0:0:0:
280,148,173724,1,0,0:0:0:0:
260,168,173780,1,0,0:0:0:0:
240,188,173837,1,0,0:0:0:0:
220,204,173893,1,8,0:0:0:0:
328,204,174118,5,0,0:0:0:0:
160,256,174344,1,2,0:0:0:0:
384,256,174569,1,0,0:0:0:0:
368,276,174625,1,0,0:0:0:0:
356,300,174681,1,0,0:0:0:0:
360,328,174738,1,0,0:0:0:0:
372,352,174794,1,2,0:0:0:0:
480,352,175019,1,0,0:0:0:0:
480,244,175244,1,8,0:0:0:0:
372,52,175470,5,0,0:0:0:0:
319,52,175582,1,0,0:0:0:0:
265,52,175695,1,8,0:0:0:0:
158,52,175920,1,0,0:0:0:0:
50,52,176146,1,2,0:0:0:0:
158,129,176371,1,0,0:0:0:0:
266,129,176596,5,8,0:0:0:0:
300,168,176708,1,0,0:0:0:0:
316,220,176821,1,0,0:0:0:0:
300,272,176934,1,0,0:0:0:0:
272,316,177046,1,2,0:0:0:0:
224,340,177159,1,0,0:0:0:0:
172,324,177271,1,0,0:0:0:0:
132,288,177384,1,0,0:0:0:0:
124,236,177497,1,8,0:0:0:0:
232,236,177722,1,0,0:0:0:0:
64,224,177947,5,8,0:0:0:0:
44,204,178003,1,0,0:0:0:0:
36,176,178060,1,0,0:0:0:0:
44,152,178116,1,0,0:0:0:0:
60,132,178172,1,0,0:0:0:0:
76,112,178229,1,0,0:0:0:0:
68,88,178285,1,0,0:0:0:0:
52,64,178341,1,0,0:0:0:0:
36,44,178398,1,2,0:0:0:0:
144,44,178623,1,0,0:0:0:0:
252,44,178848,5,8,0:0:0:0:
291,82,178961,1,0,0:0:0:0:
254,119,179073,1,0,0:0:0:0:
216,157,179186,1,0,0:0:0:0:
254,194,179298,5,8,0:0:0:0:
254,221,179355,1,0,0:0:0:0:
254,247,179411,1,0,0:0:0:0:
254,273,179467,1,0,0:0:0:0:
312,312,179524,5,0,0:0:0:0:
312,287,179580,1,0,0:0:0:0:
312,262,179636,1,0,0:0:0:0:
312,236,179693,1,0,0:0:0:0:
312,212,179749,2,0,L|402:212,1,90,2|0,0:0|0:0,0:0:0:0:
476,144,180199,2,0,L|386:144,1,90,2|0,0:0|0:0,0:0:0:0:
287,144,180650,5,8,0:0:0:0:
304,124,180706,1,0,0:0:0:0:
288,104,180762,1,0,0:0:0:0:
248,76,180875,1,0,0:0:0:0:
204,52,180988,1,0,0:0:0:0:
248,32,181100,1,8,0:0:0:0:
356,32,181325,1,0,0:0:0:0:
192,352,181551,1,2,0:0:0:0:
416,352,181776,5,0,0:0:0:0:
436,332,181832,1,0,0:0:0:0:
452,312,181889,1,0,0:0:0:0:
448,284,181945,1,0,0:0:0:0:
436,260,182001,2,0,L|359:214,1,90,8|0,0:0|0:0,0:0:0:0:
251,214,182452,5,0,0:0:0:0:
144,214,182677,1,0,0:0:0:0:
107,176,182789,1,0,0:0:0:0:
146,137,182902,1,8,0:0:0:0:
254,137,183127,1,0,0:0:0:0:
96,96,183353,1,2,0:0:0:0:
320,96,183578,1,0,0:0:0:0:
358,58,183690,1,0,0:0:0:0:
320,19,183803,1,8,0:0:0:0:
213,19,184028,1,0,0:0:0:0:
47,284,184253,5,2,0:0:0:0:
31,304,184309,1,0,0:0:0:0:
48,324,184365,1,0,0:0:0:0:
96,348,184479,1,0,0:0:0:0:
150,348,184591,1,0,0:0:0:0:
204,352,184704,2,0,L|249:273,1,90,8|0,0:0|0:0,0:0:0:0:
357,273,185154,2,0,L|412:272,2,45,8|0|0,0:0|0:0|0:0,0:0:0:0:
256,192,185605,5,0,0:0:0:0:
128,128,185830,1,0,0:0:0:0:
128,128,185943,1,0,0:0:0:0:
128,128,186055,1,0,0:0:0:0:
256,56,186280,1,0,0:0:0:0:
272,71,186336,1,0,0:0:0:0:
288,87,186392,1,0,0:0:0:0:
304,103,186448,1,0,0:0:0:0:
320,119,186505,1,0,0:0:0:0:
429,119,186731,5,0,0:0:0:0:
320,272,186956,1,0,0:0:0:0:
320,272,187012,1,0,0:0:0:0:
192,272,187181,1,0,0:0:0:0:
192,272,187237,1,0,0:0:0:0:
64,352,187407,6,0,L|160:352,1,90,2|0,0:0|0:0,0:0:0:0:
288,352,187857,2,0,L|313:320,4,22.5,0|0|0|0|0,0:0|0:0|0:0|0:0|0:0,0:0:0:0:
416,352,188308,2,0,B|500:320|500:320|416:288,1,180,8|2,0:0|0:0,0:0:0:0:
256,140,189209,6,0,L|166:140,1,90,2|0,0:0|0:0,0:0:0:0:
60,220,189659,2,0,L|240:220,1,180,8|8,0:0|0:0,0:0:0:0:
456,220,190560,2,0,L|416:176,3,45,0|0|0|0,0:0|0:0|0:0|0:0,0:0:0:0:
387,225,191010,2,0,L|297:225,1,90,8|0,0:0|0:0,0:0:0:0:
188,228,191461,2,0,B|100:200|100:200|183:173,1,180,2|8,0:0|0:0,0:0:0:0:
256,52,192362,1,8,0:0:0:0:
410,64,192812,6,0,L|320:64,1,90,2|0,0:0|0:0,0:0:0:0:
480,64,193263,2,0,B|480:128|480:128|364:128,1,180,8|8,0:0|0:0,0:0:0:0:
102,64,194164,2,0,L|192:64,1,90,2|0,0:0|0:0,0:0:0:0:
32,64,194615,2,0,B|32:128|32:128|148:128,2,180,8|2|8,0:0|0:0|0:0,0:0:0:0:
448,320,196416,6,0,L|416:224,1,90,2|0,0:0|0:0,0:0:0:0:
320,160,196866,2,0,L|384:352,1,180,8|8,0:0|0:0,0:0:0:0:
64,320,197767,2,0,L|96:224,1,90,2|0,0:0|0:0,0:0:0:0:
192,160,198217,2,0,L|128:352,2,180,8|2|8,0:0|0:0|0:0,0:0:0:0:
416,160,199569,1,8,0:0:0:0:
192,96,200019,6,0,L|96:96,1,90,2|0,0:0|0:0,0:0:0:0:
256,160,200470,2,0,L|76:160,1,180,8|8,0:0|0:0,0:0:0:0:
320,96,201821,2,0,L|416:96,1,90,2|0,0:0|0:0,0:0:0:0:
256,160,202272,2,0,L|436:160,1,180,2|8,0:0|0:0,0:0:0:0:
32,256,203623,6,0,L|128:256,1,90,2|0,0:0|0:0,0:0:0:0:
256,320,204074,2,0,L|64:320,1,180,8|8,0:0|0:0,0:0:0:0:
480,256,205425,2,0,L|384:256,1,90,8|0,0:0|0:0,0:0:0:0:
256,320,205876,2,0,L|448:320,1,180,2|8,0:0|0:0,0:0:0:0:
256,32,206776,1,8,0:0:0:0:
64,160,207227,6,0,B|32:192|32:192|64:224,1,90,2|0,0:0|0:0,0:0:0:0:
160,224,207677,2,0,B|252:224|252:224|144:224,1,180,10|0,0:0|0:0,0:0:0:0:
448,160,209029,2,0,B|480:192|480:192|448:224,1,90,2|0,0:0|0:0,0:0:0:0:
352,224,209479,2,0,B|260:224|260:224|368:224,1,180,2|8,0:0|0:0,0:0:0:0:
64,128,210830,6,0,L|64:224,1,90,2|0,0:0|0:0,0:0:0:0:
192,320,211281,2,0,L|192:128,1,180,8|8,0:0|0:0,0:0:0:0:
448,128,212182,2,0,L|448:224,1,90,2|0,0:0|0:0,0:0:0:0:
384,32,212632,2,0,B|384:128|384:128|320:128|320:128|320:224|320:224|256:224|256:224|256:288|256:288|160:288|160:288|160:352|160:352|74:352,1,630,8|2,0:0|0:0,0:0:0:0:
256,192,214434,12,0,216236,0:0:0:0:
