osu file format v5

[General]
AudioFilename: Tina Turner - 18 - Goldeneye (from Goldeneye).mp3
AudioLeadIn: 0
PreviewTime: -1
Countdown: 1
SampleSet: Normal
StackLeniency: 0.7
Mode: 1
LetterboxInBreaks: 1
EditorBookmarks: 239,11563,23768,29651,42445,59503,65385,72150,81709,90385,123472,142737,169207,182001,185971,204206

[Metadata]
Title:Goldeneye
Artist:Tina Turner
Creator:i am nobody
Version:Normal
Source:
Tags:

[Difficulty]
HPDrainRate:4
CircleSize:5
OverallDifficulty:4
SliderMultiplier:1.4
SliderTickRate:1

[Events]
//Background and Video events
0,0,"Goldeneye 5.jpg"
//Break Periods
2,100291,102864
//Storyboard Layer 0 (Background)
//Storyboard Layer 1 (Failing)
//Storyboard Layer 2 (Passing)
//Storyboard Layer 3 (Foreground)
//Storyboard Sound Samples
//Background Colour Transformations
3,100,0,0,0

[TimingPoints]
11857.3786407767,588.224271844662,4,1,0,100,1

[Colours]
Combo1 : 255,150,0
Combo2 : 5,240,5
Combo3 : 5,5,240
Combo4 : 240,5,5

[HitObjects]
224,80,11857,1,0
272,80,12151,2,0,B|368:112|384:240|304:336|176:336|96:240|112:112|224:80,1,560,0|0
304,64,14798,5,0
368,64,15092,1,0
432,64,15386,1,0
464,192,16269,5,0
464,288,16857,1,0
352,320,17445,1,0
240,320,18033,1,0
128,288,18621,1,0
128,192,19210,1,0
112,96,19504,5,0
176,96,19798,1,0
240,96,20092,1,0
400,96,20974,2,0,B|496:96,1,70,0|0
464,160,21563,2,0,B|368:160,1,70,0|0
400,224,22151,2,0,B|496:224,1,70
464,288,22739,2,0,B|368:288,1,70
336,288,23327,1,0
272,288,23621,1,0
192,304,23915,5,0
128,304,24210,1,0
128,240,24504,2,0,B|128:144,1,70
128,112,25092,1,0
192,112,25386,1,0
256,112,25680,2,0,B|400:112,1,140
448,160,26562,2,0,B|448:336,1,140
368,320,27445,1,0
288,320,27739,1,4
208,240,28621,5,0
208,144,28915,5,0
304,144,29209,5,0
304,240,29504,5,4
256,96,30092,5,0
160,144,30680,1,0
336,144,31268,1,0
256,208,31857,1,0
256,288,32151,1,0
256,208,32445,1,0
208,144,33327,6,4,L|304:144,3,70
352,144,34504,1,0
432,144,34798,1,0
352,144,35092,1,0
208,64,35680,1,0
128,96,35974,1,0
208,144,36268,1,0
128,176,36562,1,0
208,224,36856,1,0
128,256,37151,1,0
224,304,38033,6,4,L|224:224,2,70
304,304,38915,6,0,L|304:224,2,70
400,304,40092,1,0
416,224,40680,1,0
416,128,41268,2,4,B|272:128,1,140
256,192,43327,12,0,44797
160,192,45386,5,0
256,192,45974,1,0
336,192,46268,2,4,L|416:192,1,70
256,64,47444,5,0
256,64,47739,1,0
256,64,48033,1,0
256,144,48327,2,0,B|256:320,2,140
336,160,49797,5,0
336,240,50091,1,0
256,240,50386,1,0
256,320,50680,1,0
176,320,50974,2,0,B|176:32,1,280
240,48,52444,5,0
320,48,52738,1,0
400,48,53033,2,0,B|400:336,1,280
320,320,54503,1,0
240,320,54797,2,0,B|96:320,1,140
96,240,55680,1,0
96,320,55974,1,4
176,176,56856,5,0
240,240,57150,1,0
320,240,57444,1,0
384,176,57738,1,0
384,96,58032,1,0
256,96,58621,2,0,B|176:96,2,70
256,192,59797,12,4,61856
160,112,63032,5,0
240,112,63400,1,0
304,112,63768,2,0,B|400:160|368:288|272:352|160:288|144:160|240:112,1,455
416,112,66268,2,0,B|496:112,2,70
304,112,67297,1,0
256,112,67518,1,0
192,128,67738,2,0,B|64:192|208:256,1,175
256,288,68694,1,0
304,352,68915,2,0,B|416:288|416:288|304:208|304:208|256:112|256:112|208:208|208:208|80:288|80:288|224:352,1,770
224,288,72444,5,0
240,224,72812,1,0
304,176,73179,2,0,B|304:352|448:336|448:160,1,315
432,112,75091,1,0
368,144,75385,1,0
304,176,75679,2,0,B|112:176,1,175
144,112,76709,2,0,B|368:112,1,210
256,192,78326,12,4,81267
272,192,81856,5,0
352,192,82150,1,0
352,272,82444,2,0,B|208:272,1,140
144,272,83620,1,0
144,208,83914,1,0
144,48,85091,1,0
144,112,85385,1,0
240,112,86267,1,0
240,48,86561,1,0
224,176,87444,1,0
224,256,87738,1,0
304,272,88032,1,0
352,224,88326,1,0
352,160,88620,2,4,B|416:128|384:48|240:48|192:144|208:272|400:256,1,420
368,320,90973,5,0
304,320,91267,1,0
240,320,91561,1,0
160,320,92002,2,0,B|32:320,1,105
48,256,92738,1,0
112,256,93179,1,0
288,240,94502,5,0
352,240,94797,1,0
432,160,95679,1,0
352,112,96267,2,0,B|272:112,1,70
256,192,97149,12,4,100091
256,48,103914,5,0
256,112,104208,2,0,B|256:192,2,70,0|0|0
368,48,105385,2,0,B|64:48,1,280,0|0
96,144,107149,1,0
176,144,107443,2,4,B|272:144,1,70
272,144,109208,6,0,B|432:144,1,140
416,208,110090,1,0
368,336,111267,1,0
256,336,111855,1,0
192,336,112149,2,0,B|96:336,1,70
256,192,113326,5,0
256,192,113620,1,4
256,192,113914,1,0
256,192,114208,1,4
256,192,115384,1,0
304,256,115678,2,0,B|208:256,1,70
144,192,116267,2,0,B|240:192,1,70
304,128,116855,2,0,B|208:128,1,70
208,128,118620,5,0
256,192,118914,1,0
304,128,119208,1,0
256,192,119502,1,0
336,192,119796,1,0
256,192,120090,1,0
304,256,120384,1,0
256,192,120678,1,0
208,256,120972,1,0
256,192,121267,1,0
176,192,121561,1,0
256,192,122002,12,4,123031
256,112,123619,5,0
176,112,123914,2,0,B|368:112|368:112|192:368,1,490
256,352,126266,1,0
288,352,126414,1,4
384,304,128325,5,0
384,240,128619,1,0
384,176,128914,1,0
304,176,129502,2,0,B|224:176,1,70
240,240,130090,2,0,B|320:240,1,70
416,240,130972,1,4
320,96,133031,5,0
240,96,133325,1,0
160,96,133619,2,0,B|64:112|64:208|160:240,1,210
208,256,134796,1,0
304,256,135090,1,0
304,176,135384,1,0
208,176,135678,1,0
256,112,135972,1,4
112,80,136855,5,0
176,80,137149,1,0
240,80,137443,1,0
304,80,137737,1,0
368,80,138031,1,0
272,128,138325,1,0
272,192,138619,1,0
272,256,138913,1,0
272,320,139207,1,0
208,352,139502,1,0
144,336,139796,1,0
96,288,140384,1,0
256,192,140678,12,4,142443
256,192,143031,5,0
336,192,143472,1,0
368,128,143693,1,0
320,80,143913,2,0,B|224:32|144:48|96:128|96:224|192:304,1,420
272,320,146266,1,0
320,320,146560,1,0
352,304,147001,1,0
400,272,147296,2,0,B|480:176,2,105
432,224,148619,1,0
464,128,149060,2,4,B|432:48|368:0|256:0|128:0|48:48|16:160,1,525
32,240,152442,5,0
64,288,152737,2,0,B|176:352|320:352|448:256,1,385
464,192,155089,1,0
432,128,155384,1,0
384,80,155678,1,0
288,64,156413,1,0
240,64,156707,1,0
176,80,157148,2,0,B|112:128|112:192|144:240,1,175
176,272,158031,1,0
224,272,158178,1,0
288,272,158472,2,0,B|384:208|368:128|336:80|256:32|160:96|144:144|144:208|192:240|240:256|304:256|320:208|320:144|272:128|240:176,1,560
192,224,161560,5,0
192,288,161854,1,0
240,320,162736,1,0
320,320,163031,2,0,B|416:320,1,70
464,320,163913,1,0
352,128,165089,5,0
352,192,165383,1,0
256,192,166266,5,0
256,128,166560,1,0
144,128,167148,5,0
144,208,167442,2,4,B|144:288|208:352|336:352|432:320|432:192,1,420
400,112,169795,5,4
304,112,171119,1,4
208,112,172148,1,0
112,112,172442,1,0
112,208,172736,1,0
208,208,173030,1,0
160,160,173619,1,4
224,48,174795,1,0
304,96,175383,1,0
304,208,175971,1,0
224,160,176560,1,0
224,256,177148,1,0
304,288,177442,1,0
256,192,178030,12,4,181560
256,80,182589,5,0
256,112,182736,1,0
256,144,182883,2,0,B|256:288,1,140
256,192,183912,12,4,185971
160,288,186559,6,0,B|160:64,1,210
192,64,187736,2,0,B|352:64|352:144|208:176|208:176|352:192|352:256|208:304,1,490
224,192,190677,1,0
304,192,190971,2,0,B|448:192,3,140
448,272,193030,1,0
352,272,193471,2,0,B|208:272,3,140
128,320,195677,2,0,B|128:32,1,280
224,112,197442,1,0
288,112,197736,1,0
256,192,198177,12,4,200383
224,160,202736,5,4
288,160,203030,5,4
224,224,203324,5,4
288,224,203618,5,4
