osu file format v5

[General]
AudioFilename: Tina Turner - 18 - Goldeneye (from Goldeneye).mp3
AudioLeadIn: 0
PreviewTime: -1
Countdown: 1
SampleSet: Normal
StackLeniency: 0.7
Mode: 1
LetterboxInBreaks: 1
EditorBookmarks: 239,11563,23768,29651,42445,59503,65385,72150,81709,90385,123472,142737,169207,182001,185971,189501,204206

[Metadata]
Title:Goldeneye
Artist:Tina Turner
Creator:i am nobody
Version:Hard
Source:
Tags:

[Difficulty]
HPDrainRate:5
CircleSize:5
OverallDifficulty:7
SliderMultiplier:2
SliderTickRate:1

[Events]
//Background and Video events
0,0,"Goldeneye 5.jpg"
//Break Periods
2,100291,103014
//Storyboard Layer 0 (Background)
//Storyboard Layer 1 (Failing)
//Storyboard Layer 2 (Passing)
//Storyboard Layer 3 (Foreground)
//Storyboard Sound Samples
//Background Colour Transformations
3,100,0,0,0

[TimingPoints]
11857.3786407767,588.224271844662,4,1,0,100,1

[Colours]
Combo1 : 255,150,0
Combo2 : 5,240,5
Combo3 : 5,5,240
Combo4 : 240,5,5

[HitObjects]
256,64,11857,1,0
256,64,12151,2,0,B|128:96|112:256|176:352|336:352|384:240|352:96|272:64,1,600,0|0
256,64,14504,1,0
176,112,14798,5,0
256,112,15092,1,0
336,112,15386,1,0
464,192,16269,5,0
368,160,16857,1,0
368,240,17445,1,0
272,240,18033,1,0
272,160,18621,1,0
176,208,19210,1,0
128,144,19504,5,0
80,208,19798,1,0
128,272,20092,1,4
272,304,20974,2,0,B|384:304,1,100
384,224,21563,2,0,B|384:112,1,100
368,48,22151,2,0,B|240:48,1,100
256,128,22739,2,0,B|256:240,1,100
176,240,23327,1,0
176,320,23621,1,0
80,320,23915,5,0
80,240,24210,1,0
80,160,24504,2,4,B|80:48,1,100
160,64,25092,1,0
208,128,25386,1,0
272,80,25680,2,0,B|480:80,1,200
464,160,26562,2,0,B|256:160,1,200
176,160,27445,1,0
112,208,27739,1,4
208,240,28621,5,0
320,144,28915,5,0
208,144,29209,5,0
320,240,29504,5,4
256,192,30092,5,0
160,192,30680,1,0
352,192,31268,1,0
256,192,31857,1,0
256,272,32151,1,0
256,192,32445,1,0
208,128,33327,6,4,L|320:128,3,100
368,128,34504,1,0
432,128,34798,1,0
368,128,35092,1,0
208,64,35680,1,0
128,96,35974,1,0
208,144,36268,1,0
128,192,36562,1,0
208,240,36856,1,0
128,288,37151,1,0
224,320,38033,6,4,L|224:208,2,100
224,224,38915,6,0,L|224:112,2,100
304,80,40092,1,0
416,128,40680,1,0
416,224,41268,2,4,B|208:224,1,200
256,192,42739,12,0,44209
256,320,45386,5,0
304,256,45974,1,0
208,256,46268,2,4,L|208:144,1,100
256,80,47444,5,0
256,160,47739,1,0
256,80,48033,1,0
256,160,48327,2,0,B|256:368,2,200
336,160,49797,5,0
256,112,50091,1,0
176,160,50386,1,0
160,256,50680,1,0
160,352,50974,2,0,B|160:48,1,300
160,48,52150,1,0
240,48,52444,5,0
320,48,52738,1,0
400,32,53033,2,0,B|400:336,1,300
400,336,54209,1,0
320,336,54503,1,0
240,336,54797,2,0,B|32:336,1,200
48,256,55680,1,0
48,176,55974,1,4
176,192,56856,5,0
256,144,57150,1,0
336,192,57444,1,0
256,240,57738,1,0
256,320,58032,1,0
256,240,58621,2,0,B|256:128,2,100
256,192,59797,12,4,61856
256,128,63032,5,0
256,80,63474,2,0,B|384:128|384:304|256:368|128:304|128:128|256:80,1,550
304,112,65679,1,0
400,112,66268,2,0,B|496:112,4,50
304,112,67297,1,0
240,112,67518,1,0
176,112,67738,2,0,B|16:176|192:240,1,200
240,256,68621,1,0
272,304,68768,1,0
304,352,68915,2,4,B|432:288|432:288|432:128|432:128|256:192|256:192|80:128|80:128|80:304|80:304|224:352,1,1000
256,320,72444,5,0
240,240,72812,1,0
272,240,72959,1,0
320,192,73179,2,0,B|320:16|176:32|176:208,1,300
432,112,75091,1,0
368,144,75385,1,0
304,176,75679,2,0,B|192:176,1,100
144,176,76267,1,0
144,128,76414,1,0
144,176,76562,1,0
144,128,76709,1,0
144,128,77444,1,0
224,128,77738,1,0
144,128,78032,1,0
256,192,78326,12,4,81267
256,80,81856,5,0
176,112,82297,1,0
128,112,82444,1,0
128,160,82591,2,0,B|272:304,1,200
352,320,83620,1,0
384,256,83914,1,0
384,160,85091,1,0
384,80,85385,1,0
288,80,86267,1,0
208,80,86561,1,0
160,160,87444,1,0
176,240,87738,1,0
224,288,88032,1,0
288,256,88326,1,0
304,192,88620,2,4,B|352:256|432:160|416:64|288:48|160:80|208:240,1,400
320,208,90973,5,0
400,208,91267,1,0
400,288,91561,1,0
320,288,92002,2,0,B|192:176,1,150
176,272,92738,1,0
96,240,93179,1,0
272,240,94502,5,0
320,176,94797,1,0
432,176,95679,1,0
432,272,96267,2,0,B|320:272,1,100
256,192,97149,12,4,100091
256,48,103914,5,0
256,128,104208,2,0,B|256:208,2,50
256,48,104796,1,0
416,48,105385,2,0,B|48:48,1,350
144,128,107149,1,0
80,176,107443,2,4,B|80:288,1,100
192,272,109208,6,0,B|384:272,1,150
448,224,110090,1,0
448,224,110237,1,0
384,336,111267,1,0
256,336,111855,1,0
256,256,112149,2,0,B|256:48,1,200
256,64,113326,5,0
192,112,113620,1,4
256,160,113914,1,0
336,208,114208,1,4
256,256,114502,1,0
192,304,114796,1,0
256,352,115090,1,0
256,256,115384,1,0
256,176,115678,2,0,B|256:32,1,100
192,96,116267,2,0,B|80:176,1,100
80,224,116855,2,0,B|192:320,1,100
240,304,118620,5,0
320,272,118914,1,0
240,208,119208,1,0
320,192,119502,1,0
320,272,119796,1,0
240,208,120090,1,0
240,304,120384,1,0
320,272,120678,1,0
400,208,120972,1,0
400,304,121267,1,0
320,272,121561,1,0
256,192,122002,12,4,123031
192,128,123619,5,0
128,64,123914,2,0,B|368:64|368:64|144:352,1,600
256,352,126266,1,0
288,352,126414,1,4
176,288,128325,5,0
256,288,128619,1,0
336,288,128914,1,0
256,208,129502,2,0,B|256:96,1,100
256,112,130090,2,0,B|256:224,1,100
256,288,130972,1,4
320,96,133031,5,0
240,96,133325,1,0
160,96,133619,2,0,B|0:128|0:240|160:256,1,300
224,256,134796,1,0
224,176,135090,1,0
304,176,135384,1,0
304,256,135678,1,0
368,256,135825,1,4
112,96,136855,5,0
176,96,137149,1,0
240,96,137443,1,0
304,96,137737,1,0
368,96,137884,1,0
304,96,138031,1,0
240,96,138325,1,0
240,176,138619,1,0
240,240,138913,1,0
224,304,139207,1,0
160,336,139502,1,0
96,320,139796,1,0
48,272,140384,1,0
256,192,140678,12,4,142443
256,224,143031,5,0
336,240,143472,1,0
336,176,143693,1,0
368,112,143913,2,0,B|480:128|512:224|464:320|368:352|240:320,1,400
160,304,145678,1,0
160,240,146266,1,0
160,176,146560,1,0
160,240,147001,1,0
160,304,147296,1,0
160,240,147443,1,0
160,176,147737,1,0
160,176,148031,1,0
160,112,148472,1,0
160,48,148619,1,0
224,48,149060,2,4,B|416:48|416:112|416:176|224:176|224:176|416:176|416:240|416:304|208:304,1,750
160,288,152442,5,0
96,288,152737,1,0
48,256,153031,1,0
48,176,153325,2,0,B|128:96|336:96|464:160,1,400
464,192,155089,1,0
448,256,155384,1,0
416,304,155678,1,0
336,304,156266,1,0
256,304,156560,1,0
176,304,156854,1,0
176,304,157148,2,0,B|112:256|112:192|144:144,1,150
176,128,158031,1,0
240,112,158178,1,0
320,112,158472,2,4,B|416:192|400:272|352:336|256:384|96:336|80:224|112:144|192:96|272:96|336:128|368:192|336:256|256:272|224:208,1,750
224,144,161413,5,0
224,144,161560,1,0
224,64,161854,1,0
320,64,162736,1,0
320,144,163031,2,0,B|432:144,1,100
416,64,163839,1,0
352,128,165089,5,0
352,208,165383,1,0
256,208,166266,5,0
256,128,166560,1,0
144,128,167148,5,0
112,192,167442,2,4,B|0:304|80:384|448:384|512:288|416:192,1,600
368,112,169648,5,0
368,112,169869,1,0
304,112,170677,1,0
368,112,170824,1,0
304,112,171119,1,0
304,208,172148,1,0
304,304,172442,1,0
400,304,172736,1,0
400,208,173030,1,0
352,256,173619,1,0
240,304,174795,5,0
144,272,175383,1,0
112,192,175971,1,0
112,96,176560,1,0
208,96,177148,1,0
336,96,177442,1,0
272,96,177736,1,0
256,192,178030,12,4,181560
288,192,182589,5,0
336,192,182736,1,0
288,192,182883,2,0,B|64:192,1,200
256,192,183912,12,4,185971
128,352,186265,6,0,B|128:48,1,300
224,64,187736,2,0,B|304:96|304:96|208:128|208:128|304:160|304:160|208:192|208:192|304:224|304:224|208:256|208:256|320:304,1,700
384,272,190677,1,0
384,272,190971,2,0,B|384:32,3,200
384,80,193030,1,0
384,80,193324,1,0
384,80,193471,2,0,B|160:80,3,200
192,80,195383,1,0
192,80,195677,2,0,B|192:288|192:288|384:288|384:288|384:64,1,600
304,80,197736,1,0
256,192,198177,12,4,200383
192,128,202736,5,4
320,128,203030,5,4
192,240,203324,5,4
320,240,203618,5,4
