osu file format v5

[General]
AudioFilename: Trance - Hymn.mp3
AudioLeadIn: 0
PreviewTime: -1
Countdown: 1
SampleSet: Normal
StackLeniency: 0.7
Mode: 0
LetterboxInBreaks: 1

[Metadata]
Title:Hymn (Gammer & G-Spencer Remix)
Artist:Tina Cousins
Creator:xxheroxx
Version:Normal
Source:
Tags:Trance Hymn tina cousins remix

[Difficulty]
HPDrainRate:5
CircleSize:3
OverallDifficulty:5
SliderMultiplier:1.4
SliderTickRate:2

[Events]
//Background and Video events
0,0,"DarkAngel.jpg"
//Break Periods
2,68635,78168
2,102511,112042
2,170259,179791
//Storyboard Layer 0 (Background)
//Storyboard Layer 1 (Failing)
//Storyboard Layer 2 (Passing)
//Storyboard Layer 3 (Foreground)
//Storyboard Sound Samples
//Background Colour Transformations
3,100,163,162,255

[TimingPoints]
630,705.882352941176,4,1,0,100,1

[Colours]
Combo1 : 37,37,37
Combo2 : 192,192,192

[HitObjects]
288,272,23218,1,4
288,160,23924,1,0
288,48,24629,1,4
176,48,25335,1,0
120,48,25688,1,8
64,48,26041,2,4,L|64:336,2,280
176,48,29571,5,0
176,160,30277,1,4
176,272,30982,1,0
232,272,31335,1,8
288,272,31688,2,4,L|416:272|416:272|416:112,2,280
176,272,35218,5,0
176,160,35924,1,2
176,48,36629,1,0
120,48,36982,1,8
64,48,37335,2,2,L|64:336,2,280
176,48,40865,5,4
288,48,41571,1,2
400,48,42277,1,4
400,160,42982,1,2
368,160,43159,1,8
336,160,43335,1,2
304,160,43512,1,8
272,160,43688,1,2
240,160,43865,1,8
208,160,44041,1,2
176,160,44218,1,8
256,192,44394,12,4,45806
136,128,46512,1,0
216,208,47218,1,4
288,296,47924,1,0
344,296,48277,1,8
400,296,48629,2,4,L|400:8,2,280
288,296,52159,5,0
216,208,52865,1,4
136,128,53571,1,0
80,128,53924,1,8
80,184,54277,2,4,L|80:312|80:312|240:312,2,280
80,72,57806,5,0
192,72,58512,1,2
304,72,59218,1,0
360,72,59571,1,8
416,72,59924,2,2,L|416:360,2,280
304,72,63453,5,0
232,160,64159,1,2
160,248,64865,1,0
104,248,65218,1,8
64,208,65571,2,2,L|64:80|64:80|224:80,2,280
448,320,79688,5,0
448,208,80394,1,4
448,96,81100,1,0
392,96,81453,1,8
336,96,81806,2,4,L|48:96,2,280
448,96,85335,5,0
448,208,86041,1,4
336,208,86747,1,0
336,264,87100,1,8
336,320,87453,2,4,L|464:320|464:320|464:160,2,280
224,320,90982,5,2
168,320,91335,1,8
112,320,91688,1,4
72,272,92041,1,8
72,216,92394,1,2
72,160,92747,1,8
72,104,93100,1,4
120,72,93453,1,8
176,72,93806,6,2,L|332:72,1,140
368,72,94865,1,8
424,72,95218,2,4,L|424:228,1,140
424,264,96277,1,8
424,320,96630,5,2
368,320,96982,1,8
312,320,97335,1,4
256,320,97688,1,8
200,320,98041,1,2
144,320,98394,1,8
88,320,98747,1,4
64,272,99100,1,8
64,216,99453,6,2,L|64:62,1,140
120,80,100512,1,8
176,80,100865,2,4,L|331:80,1,140
256,192,101747,12,14,102277
440,280,113571,1,2
384,280,113924,1,8
328,280,114277,1,4
272,280,114630,1,8
216,280,114982,1,2
160,280,115335,1,8
104,280,115688,1,4
56,248,116041,1,8
48,192,116394,2,2,L|468:192,1,420
448,80,119218,5,4
392,80,119571,1,8
336,80,119924,1,2
280,80,120277,1,8
224,80,120630,1,4
168,80,120982,1,8
112,80,121335,1,2
80,128,121688,1,8
48,176,122041,2,4,L|483:176,1,420
472,288,124865,5,2
416,288,125218,1,8
360,288,125571,1,4
304,288,125924,1,8
248,288,126277,2,2,B|120:288|120:64,1,280
232,72,128394,5,4
288,72,128747,1,8
344,72,129100,2,2,B|344:296|216:296,1,280
224,184,131218,5,4
280,184,131571,1,8
336,184,131924,2,2,B|464:184|464:56|336:56|290:56,1,280
240,56,133688,1,8
184,56,134041,2,4,B|136:56|8:56|8:184|136:184,1,280
240,184,136159,5,0
240,72,136865,1,4
352,72,137571,1,0
408,72,137924,1,8
464,72,138277,2,4,B|464:360,2,280
352,72,141806,5,0
240,72,142512,1,4
128,72,143218,1,0
128,128,143571,1,8
128,184,143924,2,4,B|128:312|128:312|288:312,2,280
128,72,147453,5,0
240,72,148159,1,2
352,72,148865,1,0
408,72,149218,1,8
464,72,149571,2,2,B|464:360,2,280
352,72,153100,5,0
256,128,153806,1,2
352,192,154512,1,0
352,248,154865,1,8
352,304,155218,2,2,B|480:304|480:304|480:144,2,280
240,304,158747,5,4
184,304,159100,1,8
128,304,159453,1,2
88,256,159806,1,8
88,200,160159,1,4
88,88,160865,1,2
144,88,161218,1,8
200,88,161571,1,4
312,88,162277,2,2,B|456:88,1,140
456,200,163688,2,4,B|456:343,1,140
344,344,165100,5,2
288,344,165453,1,8
232,344,165806,1,4
176,344,166159,1,8
120,344,166512,1,4
80,240,167218,1,2
104,240,167394,1,8
128,240,167571,1,2
152,240,167747,1,8
176,240,167924,1,2
200,240,168100,1,8
224,240,168277,1,2
248,240,168453,1,8
256,192,168630,12,4,170041
64,64,181335,1,2
64,120,181688,1,8
64,176,182041,1,4
64,232,182394,1,8
64,288,182747,1,2
176,288,183453,1,4
288,288,184159,2,2,B|432:288,4,140
176,288,187688,5,4
120,288,188041,1,8
64,288,188394,1,2
64,232,188747,1,8
64,176,189100,1,4
64,64,189806,1,2
176,64,190512,2,4,B|333:64,3,140
424,64,193335,5,2
424,120,193688,1,8
424,176,194041,2,4,B|312:176,1,105
320,176,194747,1,2
264,176,195100,1,8
208,176,195453,1,4
208,120,195806,1,8
208,64,196159,2,2,B|112:64|48:128|48:256,1,280
160,256,198277,5,4
216,256,198630,1,8
272,256,198982,2,2,B|379:256,1,105
376,256,199688,1,4
376,200,200041,1,8
376,144,200394,1,2
320,144,200747,1,8
264,144,201100,2,4,B|109:144,3,140
128,256,203924,5,2
184,256,204277,1,8
240,256,204630,1,4
296,256,204982,1,8
352,256,205335,1,2
408,256,205688,1,8
464,256,206041,2,4,B|464:128|400:64|304:64,2,280
352,256,209571,5,2
296,256,209924,1,8
240,256,210277,1,4
240,256,210453,1,12
208,256,210630,1,8
208,256,210806,1,10
176,256,210982,2,2,B|112:192|112:128|112:64|176:32|208:32,2,280
256,192,213982,12,4,215218
