osu file format v5

[General]
AudioFilename: Trance - Hymn.mp3
AudioLeadIn: 0
PreviewTime: -1
Countdown: 1
SampleSet: Normal
StackLeniency: 0.7
Mode: 0
LetterboxInBreaks: 1

[Metadata]
Title:Hymn (Gammer & G-Spencer Remix)
Artist:Tina Cousins
Creator:xxheroxx
Version:Hard
Source:
Tags:Trance Hymn tina cousins remix

[Difficulty]
HPDrainRate:6
CircleSize:5
OverallDifficulty:7
SliderMultiplier:1.6
SliderTickRate:2

[Events]
//Background and Video events
0,0,"DarkAngel.jpg"
//Break Periods
2,68635,78168
2,102511,112042
2,170259,179791
//Storyboard Layer 0 (Background)
//Storyboard Layer 1 (Failing)
//Storyboard Layer 2 (Passing)
//Storyboard Layer 3 (Foreground)
//Storyboard Sound Samples
//Background Colour Transformations
3,100,163,162,255

[TimingPoints]
630,705.882352941176,4,1,0,100,1

[Colours]
Combo1 : 37,37,37
Combo2 : 192,192,192

[HitObjects]
320,320,23218,1,4
368,272,23571,1,0
320,232,23924,1,4
368,184,24277,1,0
320,136,24629,1,4
272,88,24982,1,0
240,88,25159,1,0
208,88,25335,1,4
184,64,25512,1,4
152,64,25688,1,8
128,48,25865,1,8
96,48,26041,2,4,B|96:376,2,320
160,48,29218,1,8
224,48,29571,5,4
288,48,29924,1,0
288,112,30277,1,4
224,112,30629,1,0
224,176,30982,1,4
192,176,31159,1,4
160,176,31335,1,12
128,176,31512,1,8
96,176,31688,2,4,B|96:352|96:352|248:352,2,320
96,112,34865,1,8
96,48,35218,5,2
160,48,35571,1,0
224,48,35924,1,2
224,112,36277,1,0
288,112,36629,1,2
312,88,36806,1,2
336,64,36982,1,8
360,40,37159,1,8
392,40,37335,2,2,B|392:368,2,320
328,40,40512,1,8
264,40,40865,5,2
264,104,41218,1,8
200,104,41571,1,4
200,40,41924,1,8
136,40,42277,1,2
136,104,42629,1,8
72,104,42982,1,4
56,128,43159,1,2
56,160,43335,1,4
72,184,43512,1,2
96,208,43688,1,4
112,240,43865,1,2
104,272,44041,1,4
88,296,44218,1,2
256,192,44394,12,8,45806
344,192,46159,1,0
408,192,46512,1,4
472,192,46865,1,0
440,136,47218,1,4
400,80,47571,1,0
336,80,47924,1,4
304,80,48100,1,4
272,64,48277,1,8
240,48,48453,1,8
208,32,48629,2,4,B|208:368,2,320
272,32,51806,1,8
272,96,52159,5,4
224,144,52512,1,0
224,208,52865,1,4
288,208,53218,1,0
352,208,53571,1,4
384,208,53747,1,4
416,208,53924,1,8
448,208,54100,1,8
480,208,54277,2,4,B|480:376|480:376|312:376,2,320
480,144,57453,1,8
480,80,57806,5,2
416,80,58159,1,0
352,80,58512,1,2
288,80,58865,1,0
224,80,59218,1,2
192,80,59394,1,2
192,48,59571,1,8
160,48,59747,1,8
128,48,59924,2,2,B|128:376,2,320
64,48,63100,1,8
64,112,63453,5,2
128,112,63806,1,0
64,112,64159,1,2
128,112,64512,1,0
128,176,64865,1,2
96,176,65041,1,2
64,176,65218,1,8
32,176,65394,1,8
32,208,65571,2,2,B|32:384|32:384|208:384,2,320
448,320,79688,5,4
448,256,80041,1,0
448,192,80394,1,4
448,128,80747,1,0
448,64,81100,1,4
416,64,81277,1,4
384,64,81453,1,8
352,64,81630,1,8
320,64,81806,2,4,B|-8:64,2,320
384,64,84982,1,8
448,64,85335,5,4
448,128,85688,1,0
448,192,86041,1,4
384,192,86394,1,0
320,192,86747,1,4
320,224,86924,1,4
320,256,87100,1,8
320,288,87277,1,8
320,320,87453,2,4,B|488:320|488:320|488:160,2,320
256,320,90630,1,8
192,320,90982,5,4
160,320,91159,1,4
128,320,91335,1,8
96,320,91512,1,8
64,320,91688,1,4
64,288,91865,1,4
64,256,92041,1,8
64,224,92218,1,8
64,192,92394,1,4
64,160,92571,1,4
64,128,92747,1,8
64,96,92924,1,8
64,64,93100,1,4
96,64,93277,1,4
128,64,93453,1,8
160,64,93630,1,8
192,64,93806,6,2,B|368:64,1,160
368,88,94688,1,8
400,88,94865,1,8
400,56,95041,1,8
432,56,95218,2,2,B|432:248,1,160
432,248,96100,1,8
448,272,96277,1,8
464,296,96453,1,8
440,320,96630,5,4
416,320,96806,1,4
384,320,96982,1,8
352,320,97159,1,8
320,320,97335,1,4
288,320,97512,1,4
256,320,97688,1,8
224,320,97865,1,8
192,320,98041,1,4
160,320,98218,1,4
128,320,98394,1,8
96,320,98571,1,8
64,320,98747,1,4
64,288,98924,1,4
64,256,99100,1,8
64,224,99277,1,8
64,192,99453,6,2,B|64:24,1,160
96,32,100335,1,8
120,56,100512,1,8
144,32,100688,1,8
176,32,100865,2,2,B|352:32,1,160
256,192,101747,12,8,102277
448,320,113571,1,8
416,320,113747,1,8
384,320,113924,1,8
320,320,114277,1,4
256,320,114630,1,4
192,320,114982,1,8
160,320,115159,1,8
128,320,115335,1,8
64,320,115688,1,4
24,264,116041,1,4
24,200,116394,2,2,B|512:200,1,480
456,80,119218,5,8
424,80,119394,1,8
392,80,119571,1,8
328,80,119924,1,4
264,80,120277,1,4
200,80,120630,1,8
168,80,120806,1,8
136,80,120982,1,8
72,80,121335,1,4
16,120,121688,1,4
16,192,122041,2,2,L|496:192,1,480
456,312,124865,5,4
432,288,125041,1,4
408,264,125218,1,8
384,240,125394,1,8
360,216,125571,1,4
336,240,125747,1,4
312,264,125924,1,8
296,288,126100,1,8
264,288,126277,2,2,B|120:288|120:16,1,320
208,136,128394,5,4
240,136,128571,1,4
272,136,128747,1,8
272,104,128924,1,8
304,104,129100,2,2,B|304:328|128:328,1,320
120,200,131218,5,4
152,200,131394,1,4
184,200,131571,1,8
216,200,131747,1,8
248,200,131924,2,2,B|376:200|376:72|248:72|152:72,1,320
160,104,133512,1,8
160,136,133688,1,4
160,168,133865,1,8
160,200,134041,2,2,B|112:200|-16:200|-16:328|176:328,1,320
296,328,136159,5,4
360,328,136512,1,0
424,328,136865,1,4
488,328,137218,1,0
488,264,137571,1,4
488,232,137747,1,4
488,200,137924,1,8
488,168,138100,1,8
488,136,138277,2,4,B|128:136,2,320
488,72,141453,1,8
424,72,141806,5,4
360,72,142159,1,0
296,72,142512,1,4
232,72,142865,1,0
232,136,143218,1,4
232,168,143394,1,4
232,200,143571,1,8
232,232,143747,1,8
232,264,143924,2,4,B|48:264|48:264|48:112,2,320
296,264,147100,1,8
296,200,147453,5,2
232,200,147806,1,0
232,136,148159,1,2
232,72,148512,1,0
296,72,148865,1,2
320,48,149041,1,2
344,72,149218,1,8
368,48,149394,1,8
400,48,149571,2,2,B|400:376,2,320
464,56,152747,1,8
464,120,153100,5,2
400,120,153453,1,0
336,120,153806,1,2
272,120,154159,1,0
240,176,154512,1,2
240,208,154688,1,2
240,240,154865,1,8
240,272,155041,1,8
240,304,155218,2,2,B|416:304|416:304|416:144,2,320
176,304,158394,1,8
112,304,158747,5,4
80,304,158924,1,4
48,304,159100,1,8
48,272,159277,1,8
48,240,159453,1,4
48,208,159630,1,4
48,176,159806,1,8
48,144,159982,1,8
48,112,160159,1,4
48,48,160512,1,8
112,48,160865,1,4
144,48,161041,1,4
176,48,161218,1,8
208,48,161394,1,8
240,48,161571,1,4
304,48,161924,1,8
368,48,162277,2,2,B|536:48,1,160
488,96,163335,1,8
488,160,163688,2,2,B|488:336,1,160
424,320,164747,1,8
360,320,165100,5,4
328,320,165277,1,4
296,320,165453,1,8
264,320,165630,1,8
232,320,165806,1,4
200,320,165982,1,4
168,320,166159,1,8
136,320,166335,1,8
104,320,166512,1,4
104,256,166865,1,8
104,192,167218,1,4
120,168,167394,1,2
128,136,167571,1,4
112,104,167747,1,2
88,80,167924,1,4
80,48,168100,1,2
96,16,168277,1,4
128,0,168453,1,2
256,192,168630,12,4,170041
64,64,181335,1,4
64,96,181512,1,4
64,128,181688,1,8
64,160,181865,1,8
64,192,182041,1,4
64,224,182218,1,4
64,256,182394,1,8
64,288,182571,1,8
64,320,182747,1,4
128,320,183100,1,8
192,320,183453,1,4
256,320,183806,1,8
320,320,184159,2,2,B|488:320,4,160
256,320,187335,1,8
192,320,187688,5,4
160,320,187865,1,4
128,320,188041,1,8
96,320,188218,1,8
64,320,188394,1,4
64,288,188571,1,4
64,256,188747,1,8
64,224,188924,1,8
64,192,189100,1,4
64,128,189453,1,8
64,64,189806,1,4
128,64,190159,1,8
192,64,190512,2,2,B|360:64,3,160
416,64,192982,1,8
480,64,193335,5,4
480,96,193512,1,4
480,128,193688,1,8
480,160,193865,1,8
480,192,194041,2,2,B|352:192,1,120
360,192,194747,1,4
328,192,194924,1,4
296,192,195100,1,8
264,192,195277,1,8
232,192,195453,1,4
208,168,195630,1,4
208,136,195806,1,8
208,104,195982,1,8
208,72,196159,2,2,B|112:72|48:136|48:312,1,320
112,304,197924,1,8
176,304,198277,5,4
200,280,198453,1,4
224,256,198630,1,8
256,256,198806,1,8
288,256,198982,2,4,B|416:256,1,120
408,256,199688,1,4
440,256,199865,1,4
440,224,200041,1,8
440,192,200218,1,8
440,160,200394,1,4
440,128,200571,1,4
408,128,200747,1,8
376,128,200924,1,8
344,128,201100,2,2,B|168:128,3,160
184,192,203571,1,8
184,256,203924,5,4
216,256,204100,1,4
248,256,204277,1,8
280,256,204453,1,8
312,256,204630,1,4
344,256,204806,1,4
376,256,204982,1,8
408,256,205159,1,8
440,256,205335,1,4
472,256,205512,1,4
472,224,205688,1,8
472,192,205865,1,8
472,160,206041,2,2,B|472:32|208:40,2,320
408,168,209218,1,8
344,168,209571,5,4
312,168,209747,1,4
288,192,209924,1,8
264,216,210100,1,8
240,240,210277,1,4
216,264,210453,1,4
184,264,210630,1,8
152,264,210806,1,8
120,264,210982,2,2,B|16:216|16:160|16:96|136:24,2,320
256,192,213982,12,4,215218
