osu file format v5

[General]
AudioFilename: Trance - Hymn.mp3
AudioLeadIn: 0
PreviewTime: -1
Countdown: 1
SampleSet: Normal
StackLeniency: 0.7
Mode: 0
LetterboxInBreaks: 1

[Metadata]
Title:Hymn (Gammer & G-Spencer Remix)
Artist:Tina Cousins
Creator:xxheroxx
Version:Easy
Source:
Tags:Trance Hymn tina cousis remix

[Difficulty]
HPDrainRate:1
CircleSize:1
OverallDifficulty:1
SliderMultiplier:1.4
SliderTickRate:2

[Events]
//Background and Video events
0,0,"DarkAngel.jpg"
//Break Periods
2,68635,78168
2,102511,112042
2,170259,179791
//Storyboard Layer 0 (Background)
//Storyboard Layer 1 (Failing)
//Storyboard Layer 2 (Passing)
//Storyboard Layer 3 (Foreground)
//Storyboard Sound Samples
//Background Colour Transformations
3,100,163,162,255

[TimingPoints]
630,705.882352941176,4,1,0,100,1

[Colours]
Combo1 : 37,37,37
Combo2 : 192,192,192

[HitObjects]
416,312,23218,1,4
416,200,23924,1,0
416,88,24629,1,4
304,88,25335,1,0
192,88,26041,2,4,L|192:376,2,280
304,88,29571,5,0
304,200,30277,1,4
232,288,30982,1,0
344,288,31688,2,4,L|472:288|472:288|472:128,2,280
232,288,35218,5,0
232,176,35924,1,2
232,64,36629,1,0
120,64,37335,2,2,L|120:352,2,280
232,64,40865,5,0
344,64,41571,1,4
456,64,42277,1,0
456,176,42982,1,2
400,176,43335,1,4
344,176,43688,1,2
288,176,44041,1,4
256,192,44394,12,4,45806
448,64,46512,1,0
448,176,47218,1,4
448,288,47924,1,0
336,288,48629,2,4,L|336:0,2,280
224,288,52159,5,0
224,176,52865,1,4
112,176,53571,1,0
0,176,54277,2,4,L|0:304|0:304|160:304,2,280
0,64,57806,5,0
112,64,58512,1,2
224,64,59218,1,0
336,64,59924,2,2,L|336:352,2,280
224,72,63453,5,0
224,184,64159,1,2
112,184,64865,1,0
0,184,65571,2,2,L|0:56|0:56|160:56,2,280
96,96,79688,5,0
208,96,80394,1,4
320,96,81100,1,0
320,208,81806,2,4,L|32:208,2,280
320,320,85335,5,0
208,320,86041,1,4
208,208,86747,1,0
320,208,87453,2,4,B|456:208|456:208|456:360,2,280
208,208,90982,5,2
208,320,91688,1,4
96,320,92394,1,2
96,208,93100,1,4
96,96,93806,6,6,L|252:96,1,140
344,96,95218,2,6,L|344:252,1,140
232,232,96630,5,4
232,344,97335,1,2
344,344,98041,1,4
344,232,98747,1,2
344,120,99453,6,6,L|176:120,1,140
88,120,100865,2,6,L|88:272,1,140
256,192,101747,12,8,102277
440,320,113571,1,4
328,320,114277,1,4
216,320,114982,1,4
104,320,115688,1,4
56,216,116394,2,2,L|476:216,1,420
440,112,119218,5,4
328,112,119924,1,4
216,112,120630,1,4
104,112,121335,1,4
56,216,122041,2,2,L|491:216,1,420
448,320,124865,5,4
336,320,125571,1,4
224,320,126277,2,8,B|96:320|96:96,1,280
208,104,128394,5,2
320,104,129100,2,8,B|320:328|192:328,1,280
200,216,131218,5,2
312,216,131924,2,8,B|440:216|440:88|312:88|266:88,1,280
160,88,134041,2,8,B|112:88|-16:88|-16:216|112:216,1,280
216,216,136159,5,0
216,104,136865,1,4
328,104,137571,1,0
432,56,138277,2,4,B|432:344,2,280
320,56,141806,5,0
208,56,142512,1,4
96,56,143218,1,0
96,168,143924,2,4,B|96:296|96:296|256:296,2,280
96,56,147453,5,0
208,56,148159,1,2
320,56,148865,1,0
432,56,149571,2,2,B|432:344,2,280
320,56,153100,5,0
320,168,153806,1,2
240,248,154512,1,0
320,328,155218,2,2,B|456:328|456:328|456:168,2,280
208,328,158747,5,4
96,328,159453,1,0
96,216,160159,1,0
96,104,160865,1,4
208,104,161571,1,0
320,104,162277,2,4,B|464:104,1,140
464,216,163688,2,4,B|464:359,1,140,0|0
360,320,165100,5,4
248,320,165806,1,2
136,320,166512,1,4
136,208,167218,1,2
192,208,167571,1,4
248,208,167924,1,2
304,208,168277,1,4
256,192,168630,12,4,170041
64,64,181335,1,2
64,176,182041,1,8
64,288,182747,1,2
176,288,183453,1,8
288,288,184159,2,2,B|432:288,4,140
168,288,187688,5,4
48,288,188394,1,8
48,168,189100,1,4
48,56,189806,1,8
160,56,190512,2,4,B|317:56,3,140
416,56,193335,5,0
416,168,194041,2,2,B|272:168,1,140
160,168,195453,1,8
192,56,196159,2,6,B|96:56|32:120|32:248,1,280
144,248,198277,5,0
256,248,198982,2,2,B|400:248,1,140
360,136,200394,1,8
240,136,201100,2,6,B|85:136,3,140
96,248,203924,5,12
208,248,204630,1,10
320,248,205335,1,10
432,248,206041,2,12,B|432:120|368:56|272:56,2,280
312,248,209571,5,10
192,248,210277,1,4
136,248,210630,1,2
80,248,210982,2,8,B|16:184|16:120|16:56|80:24|112:24,2,280
256,192,213982,12,4,215218
