osu file format v5

[General]
AudioFilename: Timbaland - Apologize.mp3
AudioLeadIn: 0
PreviewTime: -1
Countdown: 1
SampleSet: Normal
StackLeniency: 0.7
Mode: 0
LetterboxInBreaks: 1

[Editor]
Bookmarks: 15762,48305,64070,73222,105256,121019,140341,149493,151273
DistanceSpacing: 1
BeatDivisor: 4
GridSize: 8

[Metadata]
Title:Apologize
Artist:Timbaland ft. One Republic
Creator:Film11
Version:Normal
Source:
Tags:

[Difficulty]
HPDrainRate:4
CircleSize:5
OverallDifficulty:4
SliderMultiplier:1.4
SliderTickRate:2

[Events]
//Background and Video events
Video,-19500,"Timbaland - Apologize.avi"
0,0,"onerepublic.jpg"
//Break Periods
2,20284,23086
2,53338,55631
2,61473,71902
2,121218,136479
2,144863,146394
//Storyboard Layer 0 (Background)
//Storyboard Layer 1 (Fail)
//Storyboard Layer 2 (Pass)
//Storyboard Layer 3 (Foreground)
//Storyboard Sound Samples
//Background Colour Transformations
3,100,163,162,255

[TimingPoints]
0,1016.94915254237,4,2,0,64,1,0
48816,-50,4,1,0,50,0,0
61527,-50,4,2,0,100,0,0
105256,-50,4,1,0,70,0,0
140341,-50,4,1,0,70,0,1

[Colours]
Combo1 : 187,147,130
Combo2 : 157,191,149
Combo3 : 153,167,223
Combo4 : 218,170,27

[HitObjects]
256,64,16271,1,0
320,192,17288,1,2
416,288,18305,1,0
352,288,18813,1,0
288,288,19322,1,2
224,288,19830,1,0
192,288,20084,1,0
64,64,24406,6,0,C|128:224,1,140,0|2
160,128,25932,1,0
192,192,26440,1,0
256,160,26949,1,0
320,192,27457,1,2
352,128,27966,1,0
416,96,28474,2,0,C|416:320|320:352,1,280
128,96,32542,5,0
256,96,33559,1,2
384,96,34576,1,0
384,224,35593,1,4
320,224,36101,1,0
288,224,36355,1,4
69,112,38135,5,0
52,142,38389,2,0,B|148:206|276:142,1,210
160,96,40677,5,0
256,192,41694,2,0,C|320:256,1,70,2|0
320,320,42711,1,4
384,192,43728,1,2
320,64,44745,1,4
256,192,46271,12,0,47796
224,96,48813,5,0
288,96,49067,1,8
96,128,49830,2,0,C|0:224|96:352,2,280,0|0|2
352,32,52881,1,4
352,96,53135,1,12
64,64,56949,6,0,C|160:64,1,70,8|0
352,64,57966,2,0,B|416:64|448:96|448:128|448:160,1,140
448,224,58728,1,8
384,224,58983,1,8
320,224,59237,1,8
256,224,59491,2,0,B|256:192|224:160|192:160|160:192|128:224,1,140,2|8
416,96,61016,2,4,C|352:160,1,70,0|0
96,96,73220,5,0
224,64,73728,1,0
352,96,74237,1,8
352,224,74745,1,0
224,256,75254,1,0
96,224,75762,1,2
96,103,76271,1,8
376,104,77288,2,0,B|288:192|178:93,1,210
189,172,78305,1,8
189,311,78813,1,0
329,311,79322,1,0
329,171,79830,1,0
258,292,80338,1,8
96,56,81355,6,0,C|192:56,1,70
224,56,81864,1,0
352,56,82372,1,8
352,184,82881,2,0,C|352:280,1,70
352,312,83389,1,0
224,312,83898,1,0
96,312,84406,2,0,C|96:152,1,140,8|0
96,32,85423,2,0,B|256:32|256:32|256:96|256:96|160:96,1,280,0|8
96,312,87203,6,0,C|96:24,2,280
160,288,89491,5,0
224,288,89745,1,0
288,288,90000,1,0
352,288,90254,1,0
384,224,90508,1,8
320,96,91016,1,2
192,96,91525,1,2
32,256,92288,1,0
96,288,92542,1,8
160,288,92796,2,0,C|320:288|320:128,1,280
64,64,94830,1,2
128,96,95084,1,2
192,96,95338,2,4,B|320:96|384:192|384:288|320:352|192:352|128:256,1,490
96,128,97627,6,0,B|160:192,1,70
224,192,98135,1,0
352,192,98644,1,8
480,192,99152,1,0
480,320,99661,1,0
416,192,100169,1,0
352,64,100677,1,8
224,128,101186,1,0
160,128,101440,2,0,B|160:288|288:288|416:96,1,350,0|8
256,192,103220,12,0,105000
160,96,105762,5,0
224,64,106016,1,0
352,64,106525,1,0
416,64,106779,1,8
416,128,107033,1,8
416,192,107288,2,8,L|416:320|320:320,2,210,8|8|8
320,256,109830,5,0
256,256,110084,2,0,B|192:320|64:352|32:224|32:64|160:0|320:32|448:96|448:192|352:288,1,770
352,96,113898,5,0
288,64,114152,1,0
160,64,114661,1,0
96,64,114915,1,8
96,128,115169,1,8
96,192,115423,2,8,L|96:320|192:320,2,210
192,256,117966,1,0
160,192,118220,2,0,L|128:32|416:32|320:320,1,700,0|8
256,288,121016,1,4
256,192,137288,12,0,139322
416,64,140338,5,2
416,128,140593,1,2
416,256,141101,1,0
352,256,141355,2,0,C|256:256,4,70,0|0|0|0|0
256,64,143135,1,0
256,128,143389,1,0
96,224,144406,2,8,C|160:288,1,70,8|8
128,192,147711,5,0
192,192,147966,1,0
320,192,148474,1,4
384,192,148728,1,4
352,64,149237,1,0
352,64,149491,2,4,B|224:64|256:352|256:352|416:352,1,490
412,351,151525,1,8
128,256,152542,5,0
64,192,152796,2,0,C|224:32|256:256|480:96,1,700,0|4
444,124,155593,1,8
