osu file format v5

[General]
AudioFilename: Timbaland (remix) - Its Too Late to apolagize.mp3
AudioLeadIn: 0
AudioHash: 2208d1dc49cc63d5c93f8df0f5653857
PreviewTime: -1
Countdown: 3
SampleSet: Normal

[Metadata]
Title:Timbaland (remix) - Its Too Late to apolagize
Artist:Timbaland
Creator:gaara
Version:Hard

[Difficulty]
HPDrainRate:5
CircleSize:3
OverallDifficulty:6
SliderMultiplier:1.4
SliderTickRate:1

[Events]
//Background and Video events
0,0,"justin_timberlake_09.jpg"
//Break Periods
//Storyboard Layer 0 (Background)
//Storyboard Layer 1 (Failing)
//Storyboard Layer 2 (Passing)
//Storyboard Layer 3 (Foreground)
//Storyboard Sound Samples
//Background Colour Transformations
3,100,0,0,0

[TimingPoints]
0,150,4,1,0,100

[HitObjects]
126,271,7125,1,0
126,271,8137,1,0
126,271,8925,1,0
125,174,9187,1,0
208,249,10200,1,0
208,249,10462,1,0
208,249,10650,1,0
208,249,10950,1,0
218,134,11250,1,0
87,246,12187,1,0
87,246,13012,1,0
96,49,13312,1,0
201,252,14250,1,0
201,252,14625,1,0
201,252,14775,1,0
201,252,14962,1,0
194,47,15262,1,0
296,265,16237,1,0
296,265,16987,1,0
171,157,17325,1,0
217,260,18337,1,0
217,260,18675,1,0
217,260,18862,1,0
217,260,19087,1,0
220,166,19350,1,0
89,274,20325,1,0
89,274,21037,1,0
65,152,21300,1,0
205,312,22350,1,0
205,312,22837,1,0
205,312,22987,1,0
205,312,23212,1,0
198,167,23437,1,0
102,90,24412,1,2
102,90,25125,1,2
172,99,25387,1,2
181,241,26437,1,2
181,241,26812,1,2
181,241,26962,1,2
181,241,27225,1,2
141,76,27450,1,2
316,300,28500,1,2
316,300,29250,1,2
270,157,29475,1,2
371,287,30487,1,2
371,287,30825,1,2
371,287,30975,1,2
371,287,31200,1,2
322,119,31425,1,2
116,139,32550,1,0
150,107,32812,1,0
400,233,33037,1,0
400,233,33300,1,0
213,216,33525,1,0
170,152,34087,1,0
236,140,34387,1,0
236,140,34575,1,0
307,277,35100,1,0
168,247,35625,1,0
141,157,36112,1,0
230,152,36412,1,0
332,169,37650,1,0
255,241,38362,1,0
169,240,39112,1,0
146,151,39637,1,0
269,187,40500,1,0
246,134,40687,1,0
179,130,40912,1,0
155,184,41175,1,0
166,215,41400,1,0
250,266,41662,1,0
324,189,42187,1,0
244,113,42450,1,0
168,131,42712,1,0
192,200,43237,1,0
252,225,43762,1,0
309,232,44250,1,0
373,222,44512,1,0
38,100,46875,2,0,B|38:100|91:204|244:233|306:162|303:66,1,350
118,186,48825,2,0,B|118:186|195:152,33,70
72,148,54375,1,0
151,130,54637,1,0
323,115,57000,1,0
276,132,57225,1,0
251,230,57450,1,0
280,233,57675,1,0
137,187,57937,1,0
202,124,58500,1,0
355,164,58950,1,0
292,166,59212,1,0
256,227,59475,1,0
165,107,59662,1,0
241,103,59962,1,0
314,99,60487,1,0
412,190,60712,1,0
171,222,62250,1,0
166,152,62512,1,0
263,164,62775,1,0
122,152,64575,1,0
177,136,64800,1,0
392,188,65025,1,0
392,188,65287,1,0
240,225,65812,1,0
176,209,66075,1,0
108,179,66300,1,0
96,94,66562,1,0
108,117,68962,1,2
190,123,69262,1,2
190,123,69412,1,2
100,237,72787,1,2
191,209,73162,1,2
191,209,73462,1,2
232,161,73987,1,2
292,173,74212,1,2
313,192,74437,1,2
340,222,74700,1,2
226,217,75225,1,2
131,167,76987,1,2
184,127,77287,1,2
274,132,77550,1,2
142,174,83400,1,0
142,174,84112,1,0
281,198,84412,1,0
157,252,85425,1,0
157,252,86137,1,0
164,136,86437,1,0
292,261,87450,1,0
292,261,87825,1,0
292,261,87937,1,0
292,261,88162,1,0
291,152,88462,1,0
200,266,89550,1,0
165,184,89925,1,0
256,144,90225,1,0
338,161,90487,1,0
335,242,90975,1,0
241,228,91200,1,0
157,196,91500,1,0
140,128,91987,1,0
287,165,92212,1,0
360,168,92475,1,0
320,316,93037,1,0
82,183,93300,1,0
177,163,94612,1,0
320,293,95587,1,0
320,293,96000,1,0
320,293,96112,1,0
320,293,96337,1,0
276,124,96600,1,0
180,295,97462,1,0
236,264,97687,1,0
251,216,97912,1,0
108,108,98137,1,0
108,108,98400,1,0
280,118,98625,1,0
212,122,99150,1,0
212,122,99375,1,0
215,47,99600,1,0
325,125,100162,1,0
299,199,100425,1,0
184,188,100650,1,0
118,128,101212,1,0
206,94,101475,1,0
308,194,102750,1,0
182,185,103687,1,0
115,151,104475,1,0
195,100,105412,1,0
272,111,105712,1,0
272,111,105937,1,0
298,170,106237,1,0
248,208,106537,1,0
153,197,106762,1,0
58,116,107287,1,0
175,113,107850,1,0
237,141,108637,1,0
237,141,108900,1,0
285,148,109087,1,0
334,156,109500,1,0
363,164,109950,1,0
223,257,111262,1,0
146,140,111525,1,0
188,97,111787,1,0
252,224,113137,1,0
208,86,113887,1,0
110,80,114112,1,0
142,216,114375,1,0
188,234,114637,1,0
305,211,114900,1,0
138,167,115387,1,0
221,152,115912,1,0
221,152,116175,1,0
261,154,116400,1,0
291,236,116700,1,0
269,256,116925,1,0
166,194,117412,1,0
139,162,117675,1,0
254,156,119250,1,0
312,185,119512,1,0
356,183,119737,1,0
293,238,120225,1,0
184,228,120750,1,0
197,114,121500,1,0
273,139,122025,1,0
273,139,122250,1,0
300,168,122775,1,0
367,176,123037,1,0
344,278,123300,1,0
344,278,123525,1,0
250,242,124087,1,0
146,177,125625,1,0
220,159,126112,1,0
268,160,126337,1,0
149,183,129187,1,0
152,147,129412,1,0
276,164,129637,1,0
243,216,130162,1,0
243,216,130462,1,0
108,240,130950,1,0
104,196,131137,1,0
145,134,131437,1,0
257,144,131737,1,0
28,150,134025,1,0
91,156,134287,1,0
217,189,134512,1,0
168,153,137812,1,0
168,153,138187,1,0
211,178,139650,1,0
209,136,140325,1,0
209,136,140550,1,0
209,136,140812,1,0
268,140,141037,1,0
293,154,141300,1,0
308,187,141562,1,0
308,187,141825,1,0
280,228,142087,1,0
247,247,142312,1,0
186,230,142575,1,0
186,230,142837,1,0
133,145,143100,1,0
154,115,143362,1,0
194,114,143662,1,0
261,136,143887,1,0
261,136,144150,1,0
322,180,144375,1,0
334,212,144675,1,0
319,251,144862,1,0
319,251,145162,1,0
284,266,145350,1,0
248,255,145650,1,0
204,224,145912,1,0
198,187,146212,1,0
183,156,146437,1,0
200,120,146887,1,0
200,120,147187,1,0
253,116,147750,1,0
253,116,148012,1,0
253,116,148237,1,0
338,131,148762,1,0
338,131,148950,1,0
338,131,149250,1,0
360,216,149775,1,0
360,216,149962,1,0
360,216,150225,1,0
239,204,150787,1,0
239,204,151012,1,0
239,204,151275,1,0
149,182,151800,1,0
149,182,152025,1,0
149,182,152325,1,0
139,110,152812,1,0
139,110,153037,1,0
139,110,153262,1,0
223,123,153787,1,0
223,123,154050,1,0
223,123,154275,1,0
318,163,154875,1,0
318,163,155400,1,0
195,186,156600,1,0
195,186,156862,1,0
163,109,157387,1,0
163,109,157612,1,0
233,103,157912,1,0
379,176,158137,1,0
379,176,158475,1,0
184,181,160387,1,0
202,132,160650,1,0
266,133,160875,1,0
272,214,162750,1,0
272,214,163425,1,0
216,135,163687,1,0
188,116,163987,1,0
158,146,164212,1,0
181,208,164437,1,0
336,120,164737,1,0
336,120,165000,1,0
300,221,165450,1,0
181,208,165675,1,0
192,120,165937,1,0
222,115,166237,1,0
301,172,168487,1,0
275,150,168787,1,0
275,150,169087,1,0
157,235,171862,1,0
169,120,172125,1,0
169,120,172312,1,0
284,143,172612,1,0
266,283,173962,1,0
219,228,174450,1,0
129,172,176700,1,0
129,172,176887,1,0
205,185,179025,1,0
308,192,180375,1,0
308,192,180675,1,0
211,97,180975,1,0
151,125,181237,1,0
152,188,181725,1,0
226,216,182025,1,0
268,206,182287,1,0
261,164,182512,1,0
261,164,183075,1,0
156,124,184612,1,0
176,104,184837,1,0
333,145,186637,1,0
309,189,186900,1,0
120,155,189150,1,0
156,159,189412,1,0
156,159,189675,1,0
203,156,189937,1,0
253,140,190237,1,0
293,143,190875,1,0
320,158,191137,1,0
336,192,191512,1,0
284,251,192075,1,0
150,232,192787,1,0
231,268,195150,1,0
228,183,195450,1,0
