osu file format v12

[General]
AudioFilename: timati - forever.mp3
AudioLeadIn: 0
PreviewTime: 36576
Countdown: 0
SampleSet: Soft
StackLeniency: 0.7
Mode: 0
LetterboxInBreaks: 0

[Editor]
DistanceSpacing: 0.9
BeatDivisor: 4
GridSize: 8

[Metadata]
Title:Forever
TitleUnicode:Forever
Artist:Timati ft. Mario Winans
ArtistUnicode:Timati ft. Mario Winans
Creator:_VLaD_
Version:Hard
Source:
Tags:rap rnb russian mr black star vahn10 likesmile mintice rain_song
BeatmapID:237165
BeatmapSetID:86638

[Difficulty]
HPDrainRate:5
CircleSize:4
OverallDifficulty:6
ApproachRate:7
SliderMultiplier:1.6
SliderTickRate:1

[Events]
//Background and Video events
0,0,"bg.jpg",0,0
//Break Periods
2,147780,151180
//Storyboard Layer 0 (Background)
//Storyboard Layer 1 (Fail)
//Storyboard Layer 2 (Pass)
//Storyboard Layer 3 (Foreground)
//Storyboard Sound Samples
//Background Colour Transformations
3,100,163,162,255

[TimingPoints]
18080,500,4,2,0,70,1,0
36580,-100,4,2,0,60,0,1
39580,-100,4,2,0,70,0,0
40580,-100,4,2,0,60,0,1
43580,-100,4,2,0,70,0,0
116580,-100,4,2,0,60,0,1
119580,-100,4,2,0,70,0,0
120580,-100,4,2,0,60,0,1
123580,-100,4,2,0,70,0,0
179580,-200,4,2,0,20,0,0
180080,-100,4,2,0,70,0,0
212580,-100,4,2,0,60,0,1
215580,-100,4,2,0,70,0,0
216580,-100,4,2,0,60,0,1
219580,-100,4,2,0,70,0,0
220080,-100,4,2,0,60,0,1
223580,-100,4,2,0,70,0,0
228580,-100,4,2,0,60,0,1
231580,-100,4,2,0,70,0,0
232580,-100,4,2,0,60,0,1
235580,-100,4,2,0,70,0,0
236580,-100,4,2,0,60,0,1
238580,-100,4,2,0,70,0,0
274080,-100,4,2,0,50,0,0
274580,-100,4,2,0,40,0,0
275080,-100,4,2,0,35,0,0
275580,-100,4,2,0,30,0,0
276080,-100,4,2,0,15,0,0

[Colours]
Combo1 : 225,225,30
Combo2 : 29,173,166
Combo3 : 0,0,168

[HitObjects]
184,116,20080,2,0,P|232:160|216:256,1,160,0|8,0:0|0:0,0:0:0:0:
140,220,20830,1,0,0:0:0:0:
184,320,21080,1,2,0:0:0:0:
304,304,21330,1,0,0:0:0:0:
328,216,21580,2,0,P|356:172|304:72,1,160,8|2,0:0|0:0,0:0:0:0:
220,140,22330,5,0,0:0:0:0:
87,120,22580,2,0,P|132:64|212:32,2,160,8|2|8,0:0|0:0|0:0,0:0:0:0:
88,120,24080,1,0,0:0:0:0:
128,224,24580,5,8,0:0:0:0:
208,320,24830,1,0,0:0:0:0:
96,320,25080,1,2,0:0:0:0:
232,224,25330,1,0,0:0:0:0:
328,224,25580,6,0,B|384:224|384:224|416:176|416:176|416:128,1,160,8|2,0:0|0:0,0:0:0:0:
400,32,26330,1,0,0:0:0:0:
400,32,26580,1,8,0:0:0:0:
400,32,26830,1,0,0:0:0:0:
296,48,27080,2,0,P|216:80|216:144,2,160,2|8|2,0:0|0:0|0:0,0:0:0:0:
400,80,28576,6,0,P|376:144|296:216,1,160,8|2,0:0|0:0,0:0:0:0:
232,168,29326,1,0,0:0:0:0:
120,200,29580,2,0,P|144:136|208:72,1,160,8|2,0:0|0:0,0:0:0:0:
232,168,30330,1,0,0:0:0:0:
288,256,30580,2,0,P|384:280|464:272,2,160,8|2|8,0:0|0:0|0:0,0:0:0:0:
288,256,32080,1,0,0:0:0:0:
160,304,32580,5,8,0:0:0:0:
96,224,32830,1,0,0:0:0:0:
96,128,33080,1,2,0:0:0:0:
160,48,33330,1,0,0:0:0:0:
272,48,33580,6,0,L|456:48,2,160,8|2|8,0:0|0:0|0:0,0:0:0:0:
312,144,34830,1,0,0:0:0:0:
400,208,35080,1,0,0:0:0:0:
312,272,35330,1,0,0:0:0:0:
208,212,35580,2,0,P|164:176|76:224,1,160,8|2,0:0|0:0,0:0:0:0:
112,304,36580,6,0,P|192:336|272:288,2,160,8|2|8,0:0|0:0|0:0,0:0:0:0:
80,208,37830,1,0,0:0:0:0:
152,136,38080,1,0,0:0:0:0:
240,184,38330,1,0,0:0:0:0:
332,136,38580,2,0,P|396:152|444:232,2,160,8|2|8,0:0|0:0|0:0,0:0:0:0:
332,136,40080,1,4,0:0:0:0:
176,48,40580,5,8,0:0:0:0:
336,48,40830,1,0,0:0:0:0:
256,112,41080,1,0,0:0:0:0:
256,192,41330,1,0,0:0:0:0:
336,248,41580,1,8,0:0:0:0:
176,248,41830,1,0,0:0:0:0:
256,192,42080,1,0,0:0:0:0:
128,112,42580,2,0,P|112:48|16:32,2,160,8|2|8,0:0|0:0|0:0,0:0:0:0:
240,160,44080,1,4,0:0:0:0:
272,272,44580,6,0,B|320:272|320:272|352:240|352:240|424:240,1,160,8|2,0:0|0:0,0:0:0:0:
464,336,45330,1,0,0:0:0:0:
464,336,45580,2,0,B|432:352|432:352|296:352,1,160,8|2,0:0|0:0,0:0:0:0:
192,320,46330,1,0,0:0:0:0:
200,224,46580,2,0,L|40:224,2,160,8|2|8,0:0|0:0|0:0,0:0:0:0:
272,160,48080,1,4,0:0:0:0:
168,176,48580,6,0,P|144:128|176:24,1,160,8|2,0:0|0:0,0:0:0:0:
244,88,49330,1,0,0:0:0:0:
340,72,49580,2,0,P|438:45|486:69,1,160,8|2,0:0|0:0,0:0:0:0:
432,144,50330,1,0,0:0:0:0:
304,176,50580,2,0,P|368:248|464:272,2,160,0|2|0,0:0|0:0|0:0,0:0:0:0:
248,96,52080,6,0,P|192:88|80:40,1,160,0|8,0:0|0:0,0:0:0:0:
128,192,53080,2,0,P|223:229|279:237,1,160,0|8,0:0|0:0,0:0:0:0:
144,80,54080,2,8,P|64:96|8:168,2,160,0|8|0,0:0|0:0|0:0,0:0:0:0:
260,36,55580,6,2,P|320:52|348:72,1,80,8|0,0:0|0:0,0:0:0:0:
349,148,56080,2,2,P|320:144|276:120,1,80
416,80,56580,2,0,P|456:152|424:240,1,160,8|2,0:0|0:0,0:0:0:0:
344,200,57330,1,2,0:0:0:0:
288,288,57580,2,0,P|232:248|216:152,1,160,8|2,0:0|0:0,0:0:0:0:
268,96,58330,1,2,0:0:0:0:
184,72,58580,2,0,P|136:32|40:16,2,160,8|2|8,0:0|0:0|0:0,0:0:0:0:
312,96,60080,6,0,P|400:88|488:96,1,160,0|8,0:0|0:0,0:0:0:0:
432,176,60830,1,0,0:0:0:0:
344,192,61080,2,0,P|232:192|160:176,2,160,0|8|0,0:0|0:0|0:0,0:0:0:0:
432,176,62330,1,0,0:0:0:0:
472,264,62580,2,0,P|440:344|352:328,2,160,8|2|8,0:0|0:0|0:0,0:0:0:0:
384,240,63830,1,0,0:0:0:0:
416,160,64080,6,0,P|400:88|320:64,1,160,0|8,0:0|0:0,0:0:0:0:
328,152,64830,1,0,0:0:0:0:
240,152,65080,2,0,P|168:136|144:56,1,160,0|8,0:0|0:0,0:0:0:0:
256,64,65830,1,0,0:0:0:0:
344,32,66080,2,0,P|392:88|392:200,1,160,0|8,0:0|0:0,0:0:0:0:
312,184,66830,2,0,P|320:232|480:232,1,240,0|8,0:0|0:0,0:0:0:0:
400,192,68080,6,0,P|448:112|416:48,1,160,0|8,0:0|0:0,0:0:0:0:
340,100,68830,1,0,0:0:0:0:
296,32,69080,2,0,P|216:64|192:136,1,160,0|8,0:0|0:0,0:0:0:0:
120,192,69830,1,0,0:0:0:0:
192,256,70080,2,0,P|216:320|296:352,1,160,0|8,0:0|0:0,0:0:0:0:
292,252,70830,1,0,0:0:0:0:
352,176,71080,2,0,L|264:32,2,160,0|8|0,0:0|0:0|0:0,0:0:0:0:
292,252,72330,1,0,0:0:0:0:
216,304,72580,6,0,P|140:312|56:276,1,160,8|2,0:0|0:0,0:0:0:0:
80,192,73330,1,0,0:0:0:0:
160,136,73580,2,0,P|232:120|320:156,1,160,8|2,0:0|0:0,0:0:0:0:
292,252,74330,1,0,0:0:0:0:
332,348,74580,2,0,P|416:292|444:232,1,160,8|2,0:0|0:0,0:0:0:0:
448,144,75330,5,0,0:0:0:0:
336,80,75580,1,8,0:0:0:0:
208,96,75830,1,0,0:0:0:0:
120,184,76080,1,2,0:0:0:0:
240,216,76330,5,0,0:0:0:0:
240,216,76580,2,0,B|304:256|304:256|336:256|336:256|384:288,1,160,8|2,0:0|0:0,0:0:0:0:
384,168,77330,1,0,0:0:0:0:
384,168,77580,1,8,0:0:0:0:
344,60,77830,1,0,0:0:0:0:
344,60,78080,2,0,P|428:76|488:124,2,160,2|8|2,0:0|0:0|0:0,0:0:0:0:
232,24,79330,1,0,0:0:0:0:
128,56,79580,1,8,0:0:0:0:
88,152,79830,1,0,0:0:0:0:
128,248,80080,1,2,0:0:0:0:
224,184,80580,6,0,P|248:232|208:352,1,160,8|2,0:0|0:0,0:0:0:0:
320,328,81330,1,0,0:0:0:0:
400,280,81580,2,0,P|424:248|392:136,1,160,8|2,0:0|0:0,0:0:0:0:
336,96,82330,1,0,0:0:0:0:
304,24,82580,2,0,P|232:64|200:136,1,160,8|2,0:0|0:0,0:0:0:0:
104,156,83580,6,0,P|32:188|24:268,1,160,8|2,0:0|0:0,0:0:0:0:
112,248,84330,1,0,0:0:0:0:
128,336,84580,2,0,P|200:304|208:224,1,160,8|2,0:0|0:0,0:0:0:0:
256,152,85330,1,0,0:0:0:0:
272,64,85580,2,0,L|432:64,2,160,8|2|8,0:0|0:0|0:0,0:0:0:0:
256,152,86830,1,0,0:0:0:0:
336,204,87080,1,2,0:0:0:0:
256,252,87330,1,0,0:0:0:0:
176,208,87580,6,2,B|128:208|128:208|104:184,1,80,8|0,0:0|0:0,0:0:0:0:
48,112,88080,2,2,B|88:96|88:96|144:96,1,80
200,32,88580,2,0,B|240:32|240:32|280:56,2,80,8|2|0,0:0|0:0|0:0,0:0:0:0:
240,128,89330,1,0,0:0:0:0:
336,112,89580,1,8,0:0:0:0:
304,192,89830,2,2,B|336:224|336:224|392:224,1,80,0|0,0:0|0:0,0:0:0:0:
424,160,90330,1,0,0:0:0:0:
512,192,90580,2,0,L|512:360,2,160,8|2|8,0:0|0:0|0:0,0:0:0:0:
504,96,91830,1,0,0:0:0:0:
416,48,92080,6,0,B|352:48|352:48|328:64|328:64|256:64,1,160,0|8,0:0|0:0,0:0:0:0:
172,104,92830,1,0,0:0:0:0:
128,28,93080,2,0,P|76:68|68:176,1,160,0|8,0:0|0:0,0:0:0:0:
160,208,93830,1,0,0:0:0:0:
272,176,94080,6,0,L|440:176,2,160,0|8|0,0:0|0:0|0:0,0:0:0:0:
160,208,95330,2,0,L|72:208,1,80,0|8,0:0|0:0,0:0:0:0:
80,208,95830,1,0,0:0:0:0:
176,288,96080,5,2,0:0:0:0:
256,216,96330,1,0,0:0:0:0:
192,144,96580,1,8,0:0:0:0:
256,72,96830,1,0,0:0:0:0:
340,148,97080,1,2,0:0:0:0:
392,84,97330,1,0,0:0:0:0:
456,160,97580,1,8,0:0:0:0:
456,256,97830,2,2,L|456:340,1,80
456,160,98330,5,0,0:0:0:0:
416,72,98580,1,8,0:0:0:0:
312,40,98830,1,0,0:0:0:0:
336,128,99080,2,0,B|296:168|256:144|256:144|256:224,1,160,0|8,0:0|0:0,0:0:0:0:
48,168,100080,6,0,P|96:232|176:232,2,160,0|8|0,0:0|0:0|0:0,0:0:0:0:
120,112,101330,1,0,0:0:0:0:
188,60,101580,1,8,0:0:0:0:
256,112,101830,1,0,0:0:0:0:
320,60,102080,6,0,L|480:60,2,160,0|8|0,0:0|0:0|0:0,0:0:0:0:
240,64,103330,1,0,0:0:0:0:
192,128,103580,1,8,0:0:0:0:
240,196,103830,1,0,0:0:0:0:
336,192,104080,6,0,B|336:256|336:256|352:296|352:296|352:352,1,160,0|8,0:0|0:0,0:0:0:0:
448,312,104830,1,0,0:0:0:0:
464,224,105080,2,0,B|464:160|464:160|480:104|480:104|480:64,1,160,0|8,0:0|0:0,0:0:0:0:
400,80,105830,1,0,0:0:0:0:
328,40,106080,2,0,B|264:40|264:40|232:72|232:72|160:72,1,160,0|8,0:0|0:0,0:0:0:0:
96,112,106830,1,0,0:0:0:0:
160,168,107080,2,0,L|160:344,2,160,0|8|0,0:0|0:0|0:0,0:0:0:0:
144,80,108330,5,0,0:0:0:0:
240,48,108580,1,8,0:0:0:0:
304,128,108830,1,0,0:0:0:0:
400,128,109080,1,2,0:0:0:0:
388,224,109330,1,0,0:0:0:0:
296,268,109580,1,8,0:0:0:0:
244,196,109830,1,0,0:0:0:0:
176,240,110080,5,2,0:0:0:0:
128,328,110330,1,0,0:0:0:0:
80,240,110580,1,8,0:0:0:0:
128,152,110830,1,0,0:0:0:0:
208,80,111080,1,2,0:0:0:0:
232,160,111330,1,0,0:0:0:0:
176,240,111580,1,8,0:0:0:0:
176,240,111830,2,2,L|240:304,1,80
352,304,112580,6,0,P|416:256|416:176,1,160,8|2,0:0|0:0,0:0:0:0:
418,181,113330,1,0,0:0:0:0:
336,208,113580,2,0,P|352:112|408:64,2,160,8|2|8,0:0|0:0|0:0,0:0:0:0:
336,208,114830,1,0,0:0:0:0:
416,272,115080,5,2,0:0:0:0:
256,272,115330,1,2,0:0:0:0:
256,128,115580,1,10,0:0:0:0:
416,128,115830,1,2,0:0:0:0:
336,208,116080,1,4,0:0:0:0:
192,208,116580,22,0,P|112:160|80:104,2,160,8|2|8,0:0|0:0|0:0,0:0:0:0:
312,208,117830,1,0,0:0:0:0:
408,236,118080,1,2,0:0:0:0:
400,332,118330,1,0,0:0:0:0:
304,304,118580,2,0,L|144:304,2,160,8|2|8,0:0|0:0|0:0,0:0:0:0:
456,304,120080,1,4,0:0:0:0:
384,208,120580,5,8,0:0:0:0:
356,96,120830,1,0,0:0:0:0:
272,128,121080,1,2,0:0:0:0:
176,128,121330,1,0,0:0:0:0:
88,96,121580,1,8,0:0:0:0:
64,208,121830,1,0,0:0:0:0:
64,208,121955,1,0,0:0:0:0:
64,208,122080,6,0,P|64:272|80:304,1,80
144,288,122580,2,0,P|224:240|224:176,2,160,8|0|8,0:0|0:0|0:0,0:0:0:0:
32,288,124076,1,4,0:0:0:0:
32,176,124580,6,0,P|80:96|160:64,1,160,8|2,0:0|0:0,0:0:0:0:
137,67,125330,1,0,0:0:0:0:
128,160,125580,2,0,P|208:112|224:40,1,160,8|2,0:0|0:0,0:0:0:0:
320,48,126580,2,0,L|320:208,2,160,8|2|8,0:0|0:0|0:0,0:0:0:0:
320,48,128080,1,4,0:0:0:0:
432,128,128580,6,0,P|424:192|344:256,2,160,8|2|8,0:0|0:0|0:0,0:0:0:0:
368,64,130080,1,0,0:0:0:0:
296,128,130580,2,0,P|248:168|208:264,2,160,8|2|8,0:0|0:0|0:0,0:0:0:0:
296,128,132080,1,4,0:0:0:0:
232,56,132580,6,0,P|144:104|104:168,2,160,0|2|0,0:0|0:0|0:0,0:0:0:0:
312,128,134080,1,0,0:0:0:0:
216,176,134580,2,0,P|168:232|64:272,2,160,8|2|8,0:0|0:0|0:0,0:0:0:0:
304,104,136080,1,4,0:0:0:0:
392,80,136580,6,0,P|384:144|296:192,1,160,8|2,0:0|0:0,0:0:0:0:
216,160,137330,1,0,0:0:0:0:
168,80,137580,2,0,P|128:136|160:232,1,160,8|2,0:0|0:0,0:0:0:0:
208,280,138330,1,0,0:0:0:0:
296,240,138580,2,0,P|360:232|472:192,2,160,8|2|8,0:0|0:0|0:0,0:0:0:0:
224,160,140080,1,4,0:0:0:0:
288,96,140580,6,0,P|368:96|456:136,2,160,8|2|8,0:0|0:0|0:0,0:0:0:0:
200,80,141826,1,0,0:0:0:0:
160,160,142080,2,0,P|86:189|6:189,2,160,2|8|2,0:0|0:0|0:0,0:0:0:0:
248,152,143330,1,0,0:0:0:0:
296,224,143580,2,0,P|344:256|440:288,1,160,8|2,0:0|0:0,0:0:0:0:
432,200,144580,6,0,P|408:120|336:104,2,160,8|2|8,0:0|0:0|0:0,0:0:0:0:
344,184,146080,1,0,0:0:0:0:
352,272,146580,2,0,P|256:216|256:176,2,160,8|2|8,0:0|0:0|0:0,0:0:0:0:
160,272,152080,6,0,L|0:272,2,160,0|8|0,0:0|0:0|0:0,0:0:0:0:
256,216,153330,1,0,0:0:0:0:
352,272,153580,2,0,L|520:272,1,160,8|2,0:0|0:0,0:0:0:0:
472,192,154330,1,0,0:0:0:0:
472,192,154580,2,0,P|424:112|352:80,2,160,8|2|8,0:0|0:0|0:0,0:0:0:0:
384,240,155830,5,0,0:0:0:0:
384,240,156080,2,0,B|336:256|336:256|304:240|304:240|232:288,1,160,0|8,0:0|0:0,0:0:0:0:
152,272,156830,1,2,0:0:0:0:
72,192,157080,1,2,0:0:0:0:
168,160,157330,1,2,0:0:0:0:
96,80,157580,1,10,0:0:0:0:
200,48,157830,1,2,0:0:0:0:
248,120,158080,6,0,B|296:136|296:136|296:200|296:200|352:224,1,160,0|8,0:0|0:0,0:0:0:0:
384,152,158830,1,2,0:0:0:0:
416,264,159080,1,2,0:0:0:0:
472,192,159330,1,2,0:0:0:0:
488,112,159580,1,10,0:0:0:0:
409,78,159830,1,0,0:0:0:0:
409,78,160080,6,0,B|368:80|368:80|336:48|336:48|256:48,1,160,0|8,0:0|0:0,0:0:0:0:
168,24,160830,2,2,L|80:40,1,80
140,120,161330,2,2,L|148:208,1,80,0|8,0:0|0:0,0:0:0:0:
96,272,161830,2,2,L|184:288,1,80
232,216,162330,2,2,L|320:216,1,80,0|8,0:0|0:0,0:0:0:0:
408,248,162830,5,2,0:0:0:0:
472,136,163080,1,2,0:0:0:0:
408,248,163330,1,2,0:0:0:0:
320,136,163580,1,10,0:0:0:0:
312,32,164080,6,0,P|240:64|200:136,1,160,0|8,0:0|0:0,0:0:0:0:
272,168,164830,1,0,0:0:0:0:
288,248,165080,2,0,P|240:296|136:312,1,160,0|8,0:0|0:0,0:0:0:0:
124,236,165830,1,0,0:0:0:0:
48,184,166080,2,0,P|80:128|168:104,2,160,0|8|0,0:0|0:0|0:0,0:0:0:0:
124,236,167330,5,0,0:0:0:0:
216,184,167580,1,8,0:0:0:0:
304,232,167830,1,0,0:0:0:0:
392,224,168080,2,0,P|376:288|288:328,1,160,0|8,0:0|0:0,0:0:0:0:
304,232,168830,1,0,0:0:0:0:
288,152,169080,2,0,P|352:128|456:128,1,160
376,288,170080,6,0,P|448:296|456:208,1,160,0|8,0:0|0:0,0:0:0:0:
448,128,170830,1,2,0:0:0:0:
320,64,171080,1,2,0:0:0:0:
448,128,171330,1,2,0:0:0:0:
320,192,171580,1,10,0:0:0:0:
248,128,172080,6,0,B|200:128|200:128|184:104|184:104|168:128|168:128|104:128,1,160,0|8,0:0|0:0,0:0:0:0:
72,216,172830,1,0,0:0:0:0:
56,304,173080,2,0,B|111:304|111:304|127:328|127:328|143:304|143:304|191:304,1,160,0|8,0:0|0:0,0:0:0:0:
208,224,173830,1,0,0:0:0:0:
288,176,174080,2,0,B|352:176|352:176|368:160|368:160|384:176|384:176|448:176,1,160,0|8,0:0|0:0,0:0:0:0:
352,256,174830,1,0,0:0:0:0:
352,256,175080,2,0,P|400:328|480:336,2,160,0|8|0,0:0|0:0|0:0,0:0:0:0:
352,160,176330,5,0,0:0:0:0:
432,144,176580,2,0,P|400:96|304:88,1,160,8|2,0:0|0:0,0:0:0:0:
216,88,177330,1,0,0:0:0:0:
144,32,177580,2,0,P|128:96|192:176,1,160,8|2,0:0|0:0,0:0:0:0:
128,248,178330,1,0,0:0:0:0:
40,280,178580,2,0,P|80:320|208:328,1,160,8|2,0:0|0:0,0:0:0:0:
240,264,179330,1,0,0:0:0:0:
320,328,179580,6,2,L|408:328,1,80,8|0,0:0|0:0,0:0:0:0:
440,176,180580,6,0,P|376:120|304:112,2,160,8|2|8,0:0|0:0|0:0,0:0:0:0:
344,208,181830,1,0,0:0:0:0:
264,256,182080,1,0,0:0:0:0:
248,168,182330,1,0,0:0:0:0:
192,104,182580,2,0,P|248:56|344:48,2,160,8|2|8,0:0|0:0|0:0,0:0:0:0:
192,104,183830,1,0,0:0:0:0:
128,176,184080,5,2,0:0:0:0:
256,176,184330,1,0,0:0:0:0:
192,240,184580,1,8,0:0:0:0:
192,336,184830,1,0,0:0:0:0:
288,288,185080,1,2,0:0:0:0:
384,288,185330,1,0,0:0:0:0:
480,288,185580,1,8,0:0:0:0:
432,208,185830,1,0,0:0:0:0:
432,112,186080,1,2,0:0:0:0:
352,160,186330,1,0,0:0:0:0:
352,160,186580,6,0,B|256:160|256:160|224:144|224:144|192:144,1,160,8|2,0:0|0:0,0:0:0:0:
136,80,187330,1,0,0:0:0:0:
80,144,187580,2,2,L|-8:144,2,80,8|0|0,0:0|0:0|0:0,0:0:0:0:
172,172,188330,1,0,0:0:0:0:
124,248,188580,6,0,P|168:296|248:352,1,160,0|2,0:0|0:0,0:0:0:0:
360,336,189330,1,0,0:0:0:0:
456,292,189580,2,0,P|388:240|300:224,1,160,0|2,0:0|0:0,0:0:0:0:
192,248,190330,1,0,0:0:0:0:
256,304,190580,2,0,L|336:304,2,80,8|0|2,0:0|0:0|0:0,0:0:0:0:
192,248,191330,1,0,0:0:0:0:
184,160,191580,1,8,0:0:0:0:
112,208,191830,1,0,0:0:0:0:
88,304,192080,2,0,P|48:264|40:152,2,160,0|8|0,0:0|0:0|0:0,0:0:0:0:
176,280,193330,6,2,P|224:268|260:232,1,80,0|8,0:0|0:0,0:0:0:0:
176,184,193830,2,2,P|228:156|268:156,1,80
320,104,194330,1,0,0:0:0:0:
400,64,194580,2,0,P|400:136|328:192,2,160,8|2|8,0:0|0:0|0:0,0:0:0:0:
320,104,195830,1,0,0:0:0:0:
272,32,196080,6,0,P|232:104|264:176,1,160,0|8,0:0|0:0,0:0:0:0:
304,240,196830,1,0,0:0:0:0:
384,200,197080,2,0,P|384:280|312:336,1,160,0|8,0:0|0:0,0:0:0:0:
224,312,197830,1,0,0:0:0:0:
176,240,198080,2,0,P|120:240|64:328,2,160,0|8|0,0:0|0:0|0:0,0:0:0:0:
176,240,199330,1,0,0:0:0:0:
256,288,199580,6,2,B|304:288|304:288|328:264,1,80,8|0,0:0|0:0,0:0:0:0:
288,200,200080,2,2,B|304:184|304:184|368:184,1,80
408,256,200580,2,2,B|430:278|430:278|478:278,1,80,8|0,0:0|0:0,0:0:0:0:
472,192,201080,1,0,0:0:0:0:
376,152,201330,1,0,0:0:0:0:
432,72,201580,2,0,P|381:72|285:120,1,160,8|2,0:0|0:0,0:0:0:0:
232,192,202580,2,0,P|200:144|224:48,2,160,8|2|8,0:0|0:0|0:0,0:0:0:0:
368,352,204080,6,0,B|320:352|320:352|288:336|288:336|256:352|256:352|192:352,1,160,0|8,0:0|0:0,0:0:0:0:
136,296,204830,1,0,0:0:0:0:
208,240,205080,2,0,B|268:240|268:240|300:224|300:224|332:240|332:240|364:240,1,160,0|8,0:0|0:0,0:0:0:0:
352,136,205830,1,0,0:0:0:0:
328,56,206080,2,0,P|408:80|432:168,2,160,0|8|0,0:0|0:0|0:0,0:0:0:0:
272,120,207330,1,0,0:0:0:0:
296,200,207580,1,8,0:0:0:0:
200,192,207830,1,0,0:0:0:0:
168,112,208080,6,0,P|128:128|96:232,1,160,0|8,0:0|0:0,0:0:0:0:
144,304,208830,1,0,0:0:0:0:
232,296,209080,2,0,L|400:296,1,160,0|8,0:0|0:0,0:0:0:0:
352,216,209830,1,0,0:0:0:0:
264,192,210080,2,0,L|264:32,1,160,0|8,0:0|0:0,0:0:0:0:
160,32,210830,2,0,P|128:64|112:184,1,160,0|0,0:0|0:0,0:0:0:0:
176,240,212080,5,0,0:0:0:0:
80,180,212580,2,0,P|156:148|248:180,1,160,8|2,0:0|0:0,0:0:0:0:
320,160,213330,1,0,0:0:0:0:
424,144,213580,1,8,0:0:0:0:
400,240,213830,1,0,0:0:0:0:
336,316,214080,2,0,P|288:340|172:304,1,160,0|8,0:0|0:0,0:0:0:0:
112,264,214830,1,0,0:0:0:0:
76,160,215080,5,2,0:0:0:0:
176,112,215330,1,0,0:0:0:0:
224,216,215580,1,8,0:0:0:0:
320,208,216080,1,4,0:0:0:0:
364,140,216580,6,0,P|424:104|504:164,1,160,8|2,0:0|0:0,0:0:0:0:
436,224,217330,1,0,0:0:0:0:
496,296,217580,2,0,P|424:336|364:300,1,160,8|2,0:0|0:0,0:0:0:0:
288,208,218330,1,0,0:0:0:0:
288,208,218580,2,0,L|128:208,2,160,8|2|8,0:0|0:0|0:0,0:0:0:0:
272,128,220080,1,4,0:0:0:0:
160,128,220580,6,0,L|0:128,2,160,8|2|8,0:0|0:0|0:0,0:0:0:0:
256,184,221830,1,0,0:0:0:0:
352,128,222080,2,0,L|512:128,2,160,0|8|2,0:0|0:0|0:0,0:0:0:0:
288,64,223330,1,2,0:0:0:0:
208,128,223580,1,10,0:0:0:0:
128,64,223830,1,2,0:0:0:0:
48,128,224080,1,2,0:0:0:0:
72,232,224580,5,12,0:0:0:0:
72,232,225080,2,0,L|232:232,1,160,0|8,0:0|0:0,0:0:0:0:
432,80,226080,1,4,0:0:0:0:
432,80,226580,2,0,L|264:80,1,160,8|0,0:0|0:0,0:0:0:0:
184,80,227580,1,8,0:0:0:0:
96,112,228080,1,0,0:0:0:0:
112,200,228580,6,0,B|112:256|112:256|128:272|128:272|112:288|112:288|112:352,2,160,8|0|8,0:0|0:0|0:0,0:0:0:0:
112,112,229830,2,2,L|112:24,2,80
112,192,230580,1,8,0:0:0:0:
112,280,230830,2,2,L|112:384,2,80
112,280,231580,1,0,0:0:0:0:
256,272,232080,1,4,0:0:0:0:
384,344,232580,6,0,B|384:272|384:272|368:256|368:256|384:240|384:240|384:192,1,160,8|2,0:0|0:0,0:0:0:0:
384,196,233330,1,0,0:0:0:0:
384,48,233580,2,0,B|384:112|384:112|368:128|368:128|384:144|384:144|384:208,1,160,0|2,0:0|0:0,0:0:0:0:
272,192,234330,1,0,0:0:0:0:
272,192,234580,2,0,B|224:192|224:192|208:176|208:176|192:208|192:208|176:192|176:192|128:192,2,160,8|2|8,0:0|0:0|0:0,0:0:0:0:
448,192,236080,1,4,0:0:0:0:
448,96,236580,6,0,P|400:80|280:64,1,160,8|2,0:0|0:0,0:0:0:0:
292,64,237330,1,0,0:0:0:0:
228,136,237580,1,8,0:0:0:0:
160,208,237830,1,0,0:0:0:0:
160,208,238080,2,0,P|80:208|0:248,1,160,0|8,0:0|0:0,0:0:0:0:
80,296,238830,5,0,0:0:0:0:
160,328,239080,2,0,P|252:308|336:252,1,160,0|8,0:0|0:0,0:0:0:0:
256,196,239830,1,0,0:0:0:0:
308,124,240080,2,0,P|412:120|468:152,2,160,0|8|0,0:0|0:0|0:0,0:0:0:0:
216,92,241330,1,0,0:0:0:0:
132,152,241580,2,0,P|112:96|180:16,2,160,8|2|8,0:0|0:0|0:0,0:0:0:0:
80,220,242830,1,0,0:0:0:0:
140,296,243080,2,0,P|208:252|240:172,1,160,0|8,0:0|0:0,0:0:0:0:
272,104,244080,1,4,0:0:0:0:
184,80,244580,6,0,P|112:128|136:208,1,160,8|2,0:0|0:0,0:0:0:0:
192,160,245330,1,0,0:0:0:0:
192,160,245580,2,0,P|184:232|112:272,1,160,8|2,0:0|0:0,0:0:0:0:
48,240,246330,1,0,0:0:0:0:
48,240,246580,2,0,P|40:320|112:352,1,160,8|2,0:0|0:0,0:0:0:0:
208,336,247330,1,0,0:0:0:0:
208,336,247580,2,0,P|240:280|336:272,1,160,8|2,0:0|0:0,0:0:0:0:
384,176,248580,6,0,P|352:144|240:112,1,160,8|2,0:0|0:0,0:0:0:0:
232,200,249330,1,0,0:0:0:0:
232,200,249580,2,0,P|168:152|168:72,1,160,8|2,0:0|0:0,0:0:0:0:
240,32,250330,1,0,0:0:0:0:
240,32,250580,2,0,P|320:16|384:64,1,160,8|2,0:0|0:0,0:0:0:0:
464,128,251330,1,0,0:0:0:0:
464,128,251580,2,0,P|496:240|480:288,1,160,8|2,0:0|0:0,0:0:0:0:
400,256,252580,6,0,L|240:256,2,160,8|2|8,0:0|0:0|0:0,0:0:0:0:
480,256,253830,1,0,0:0:0:0:
464,160,254080,1,2,0:0:0:0:
384,112,254330,1,0,0:0:0:0:
288,112,254580,2,0,P|184:128|176:176,1,160,8|2,0:0|0:0,0:0:0:0:
176,240,255330,2,2,L|176:344,1,80,0|8,0:0|0:0,0:0:0:0:
256,192,256080,12,0,260080,0:0:0:0:
152,88,260580,6,0,P|96:156|116:228,1,160,0|2,0:0|0:0,0:0:0:0:
192,176,261330,1,0,0:0:0:0:
192,176,261580,1,8,0:0:0:0:
192,176,261830,1,0,0:0:0:0:
228,256,262080,2,0,P|284:188|264:116,1,160,0|8,0:0|0:0,0:0:0:0:
208,52,262830,1,0,0:0:0:0:
296,24,263080,2,0,P|340:40|412:136,1,160,0|8,0:0|0:0,0:0:0:0:
392,228,264080,1,4,0:0:0:0:
288,256,264580,6,0,P|240:280|128:252,1,160,8|2,0:0|0:0,0:0:0:0:
216,192,265330,1,0,0:0:0:0:
264,120,265580,2,0,P|376:128|428:164,1,160,8|2,0:0|0:0,0:0:0:0:
340,212,266330,1,0,0:0:0:0:
340,212,266580,1,8,0:0:0:0:
340,212,266830,1,0,0:0:0:0:
420,256,267080,2,0,P|372:296|276:276,1,160,0|8,0:0|0:0,0:0:0:0:
176,228,268080,1,4,0:0:0:0:
96,156,268580,6,0,P|160:128|256:120,1,160,8|2,0:0|0:0,0:0:0:0:
312,48,269330,1,0,0:0:0:0:
408,96,269580,2,0,P|432:172|400:272,1,160,8|2,0:0|0:0,0:0:0:0:
320,260,270330,1,0,0:0:0:0:
276,340,270580,2,0,P|228:276|260:184,1,160,0|2,0:0|0:0,0:0:0:0:
328,148,271330,1,0,0:0:0:0:
404,216,271580,2,0,P|432:164|384:76,1,160,0|2,0:0|0:0,0:0:0:0:
292,60,272580,2,0,P|236:104|228:200,2,160,8|2|8,0:0|0:0|0:0,0:0:0:0:
256,192,274080,12,0,276080,0:0:0:0:
