osu file format v8

[General]
AudioFilename: imitation lovers club mix.mp3
AudioLeadIn: 2007
PreviewTime: 40849
Countdown: 0
SampleSet: Normal
StackLeniency: 0.4
Mode: 0
LetterboxInBreaks: 1

[Editor]
DistanceSpacing: 0.8
BeatDivisor: 8
GridSize: 8

[Metadata]
Title:Imitation Lovers Club Mix
Artist:Tim Vegas
Creator:thekillerhjkhjk
Version:Sad
Source:Touhou
Tags:ZUN Because Princess Inada is Scolding Me

[Difficulty]
HPDrainRate:2
CircleSize:3
OverallDifficulty:2
ApproachRate:2
SliderMultiplier:0.999999999999999
SliderTickRate:1

[Events]
//Background and Video events
0,0,"touhou.jpg"
Video,80,"Imitationloversclubmix.avi"
//Break Periods
2,17757,21712
//Storyboard Layer 0 (Background)
//Storyboard Layer 1 (Fail)
//Storyboard Layer 2 (Pass)
//Storyboard Layer 3 (Foreground)
//Storyboard Sound Samples
//Background Colour Transformations
3,100,163,162,255

[TimingPoints]
415,357.142857142857,4,1,0,49,1,0
3890,-100,4,2,0,100,0,0
17469,-100,4,1,0,69,0,0
28533,-100,4,2,0,100,0,1
28711,-100,4,2,0,100,0,0
34604,-100,4,1,0,70,0,0
76121,-100,4,1,0,71,0,1
87550,-100,4,1,0,69,0,0

[Colours]
Combo1 : 83,142,253
Combo2 : 250,195,14
Combo3 : 227,101,245
Combo4 : 225,89,89
Combo5 : 55,250,50

[HitObjects]
56,304,1843,2,0,B|464:304,1,399.999999999999
352,192,3986,1,4
456,80,4700,6,0,B|48:80,1,399.999999999999
168,192,6843,1,4
256,320,7557,6,0,B|464:320,3,200,0|4|0|4
440,160,10414,2,0,B|128:160,1,300
64,160,11843,5,2
200,80,12557,1,2
336,160,13272,1,2
200,240,13986,1,2
336,320,14700,6,0,B|456:320,3,99.9999999999999,2|2|2|2
256,192,16129,12,4,17557
40,48,23272,6,0,L|40:336|160:336|160:56|280:56|280:336|400:336|400:32,1,1500,0|4
480,40,28986,6,0,L|480:336|72:336,1,699.999999999999,4|2
76,256,31843,2,4,L|396:256|396:32|220:32,1,699.999999999999,4|6
168,40,34700,6,4,L|168:152,1,99.9999999999999,4|8
248,144,35415,2,4,L|352:144,1,99.9999999999999,0|8
348,219,36129,2,4,L|348:323,1,99.9999999999999,4|0
268,319,36843,2,4,L|156:319,1,99.9999999999999,0|8
166,238,37557,6,0,L|166:126,1,99.9999999999999,4|0
166,62,38272,2,4,L|278:62,1,99.9999999999999,0|0
342,62,38986,2,0,L|454:62,1,99.9999999999999,4|0
446,142,39700,2,2,L|366:142,2,74.9999999999999
88,64,41843,5,4
248,64,42557,1,8
160,200,43272,1,0
240,200,43629,1,0
320,200,43986,1,8
480,200,44700,5,0
480,40,45414,1,8
320,40,46129,2,2,L|120:40,1,200,2|8
96,192,47557,5,0
256,192,48272,1,8
416,192,48986,1,0
392,112,49343,1,0
320,64,49700,1,8
160,64,50414,6,0,L|72:136|72:240,1,200,0|8
208,304,51843,2,0,L|296:224|296:136,1,200,4|8
424,56,53272,5,4
424,216,53986,1,8
264,216,54700,2,0,L|160:216,2,99.9999999999999,0|0|8
280,56,56129,5,0
120,56,56843,1,8
200,192,57557,2,2,L|408:192,1,200,2|8
288,88,58986,6,0,L|144:56|128:112,1,200,0|8
240,216,60414,2,0,L|360:216,2,99.9999999999999,0|0|8
256,192,61843,12,4,63272
48,320,64700,6,0,B|264:423|296:191|56:215,1,400
96,136,66486,2,0,B|208:96,1,99.9999999999999
272,96,67200,6,0,L|384:96,1,99.9999999999999,0|4
448,240,68272,2,0,L|448:304|384:264|384:344,1,200,0|2
184,304,70057,6,0,B|120:248|112:208,1,99.9999999999999,0|2
152,72,71129,2,2,L|176:72|264:72,1,99.9999999999999
256,152,71843,2,8,B|152:152,1,99.9999999999999
136,312,72914,6,0,L|248:312,1,99.9999999999999,0|4
392,312,73986,1,4
264,216,74700,1,4
344,224,75057,1,4
424,200,75414,1,4
448,120,75772,1,4
448,40,76129,6,0,B|344:40,1,99.9999999999999,4|8
272,40,76843,2,0,B|160:40,1,99.9999999999999,0|8
96,40,77557,2,0,B|96:152,2,99.9999999999999,2|2|8
56,280,78986,6,0,B|160:280,1,99.9999999999999,0|8
232,280,79700,2,0,B|344:280,1,99.9999999999999,0|8
408,280,80414,2,2,B|408:64,1,200,2|2
256,48,81843,6,0,B|144:80,3,99.9999999999999,0|0|0|8
160,152,83272,2,8,B|160:216,2,50
256,192,84700,12,4,87557
