osu file format v8

[General]
AudioFilename: imitation lovers club mix.mp3
AudioLeadIn: 1996
PreviewTime: 40849
Countdown: 0
SampleSet: Normal
StackLeniency: 0.6
Mode: 0
LetterboxInBreaks: 1

[Editor]
DistanceSpacing: 0.8
BeatDivisor: 8
GridSize: 8

[Metadata]
Title:Imitation Lovers Club Mix
Artist:Tim Vegas
Creator:thekillerhjkhjk
Version:Happy
Source:Touhou
Tags:Because Princess Inada Is Scolding Me ZUN

[Difficulty]
HPDrainRate:4
CircleSize:4
OverallDifficulty:3
ApproachRate:4
SliderMultiplier:1.3
SliderTickRate:1

[Events]
//Background and Video events
0,0,"touhou.jpg"
Video,80,"Imitationloversclubmix.AVI"
//Break Periods
2,17757,21952
//Storyboard Layer 0 (Background)
//Storyboard Layer 1 (Fail)
//Storyboard Layer 2 (Pass)
//Storyboard Layer 3 (Foreground)
//Storyboard Sound Samples
//Background Colour Transformations
3,100,163,162,255

[TimingPoints]
415,357.142857142857,4,1,0,60,1,0
3890,-100,4,2,0,100,0,0
17514,-100,4,1,0,69,0,0
28630,-100,4,2,0,100,0,1
28711,-100,4,2,0,100,0,0
34604,-100,4,1,0,71,0,0
76121,-100,4,1,0,70,0,1
87550,-100,4,1,0,71,0,0

[Colours]
Combo1 : 83,142,253
Combo2 : 250,195,14
Combo3 : 227,101,245
Combo4 : 225,89,89
Combo5 : 55,250,50

[HitObjects]
88,88,1843,2,0,B|160:192|336:152,1,260,4|0
288,360,3272,2,0,B|336:304|392:248,1,130
400,56,4343,5,0
352,56,4522,1,0
296,56,4700,2,2,B|168:32|160:200|272:200,1,260
368,200,5772,1,0
472,200,6129,2,2,B|472:64,1,130
256,32,7200,5,0
156,62,7557,2,2,B|221:170|308:154|365:52,1,260
384,152,8629,1,0
384,256,8986,2,2,B|248:256,1,130
256,72,10057,5,0
192,152,10414,2,0,B|456:152,1,260,0|8
448,360,11843,5,0
256,272,12557,1,8
64,192,13272,1,0
256,112,13986,1,8
448,24,14700,5,2
344,24,15057,1,2
240,24,15414,1,2
136,24,15772,1,2
256,192,16129,12,4,17557
256,192,23272,5,4
464,192,23986,1,8
256,192,24700,1,4
48,192,25415,1,8
256,192,26129,5,4
256,192,26843,1,4
256,192,27557,2,4,B|128:128,3,130,4|8|4|4
104,40,28986,6,2,B|376:40,1,260
168,104,30415,2,0,B|304:104,1,130
392,64,31129,2,2,B|392:272,1,195
392,258,31843,6,2,B|120:258,1,260
320,184,33272,2,0,B|320:32,1,130
224,88,33986,2,0,B|224:304,1,195,0|0
256,320,34700,5,4
416,192,35415,1,8
256,64,36129,1,4
96,192,36843,1,8
256,320,37557,5,0
256,216,37915,1,8
256,112,38272,1,0
360,112,38629,1,8
360,216,38986,1,0
360,320,39343,1,8
256,320,39700,2,2,B|152:320,2,97.5
256,80,41843,6,0,B|104:80,1,130,4|8
128,184,42557,2,0,B|264:184,1,130,0|8
256,288,43272,1,0
360,288,43629,2,0,B|360:16,1,260,8|8
240,32,44700,6,0,B|160:80|240:136,1,130,0|8
336,136,45414,2,0,B|416:88|336:32,1,130,0|8
240,32,46129,2,2,B|96:32,2,130,2|10|2
344,32,47200,1,8
448,32,47557,6,0,B|472:96|424:160,1,130,0|8
344,96,48272,2,0,B|296:184|344:232,1,130,0|8
432,248,48986,1,0
336,288,49343,2,0,B|56:288,1,260,8|8
80,184,50414,5,0
144,104,50772,1,8
248,56,51129,1,0
352,48,51486,1,8
456,56,51843,1,4
80,320,53272,6,0,B|160:352|192:264,1,130,4|8
296,320,53986,2,0,B|424:360,1,130,0|8
392,272,54700,1,0
320,200,55057,1,8
216,176,55414,1,0
112,160,55772,1,8
56,72,56129,6,0,B|136:24|168:128,1,130,0|8
72,168,56843,2,0,B|208:168,1,130,0|8
304,168,57557,2,2,B|440:168,2,130,2|10|2
184,168,58629,1,8
80,192,58986,6,0,B|192:112,1,130,0|8
176,224,59700,2,0,B|304:136,1,130,0|8
280,256,60414,2,0,B|408:168,3,130,0|8|0|8
256,192,61843,12,4,63986
32,40,64700,6,0,L|336:40|336:264,1,520
232,256,66486,1,8
24,280,67200,5,8
24,176,67557,2,0,B|176:176,1,130,0|8
256,176,68272,2,0,B|400:176,1,130,0|8
384,280,68986,2,2,B|104:280,1,260,2|10
72,80,70414,6,0,B|152:56|184:128,1,130,0|8
160,224,71129,2,0,B|192:288|272:264,1,130,0|8
304,168,71843,2,0,B|384:144|408:232,1,130,0|8
240,344,72914,5,8
240,240,73272,2,0,B|88:240,1,130,4|8
112,136,73986,2,0,B|264:136,1,130,4|8
240,32,74700,2,6,B|144:0|40:48|32:152,1,260
128,104,75772,1,8
224,64,76129,6,0,B|360:64,1,130,4|8
352,168,76843,2,0,B|200:168,1,130,0|8
224,272,77557,2,0,B|360:272,3,130,0|8|0|8
456,272,78986,6,0,B|456:128,1,130,0|8
456,40,79700,2,0,B|320:40,1,130,0|8
224,40,80414,2,2,B|72:40,2,130,2|10|2
328,40,81486,1,8
328,144,81843,6,0,B|192:144,1,130,0|8
200,248,82557,2,0,B|344:248,1,130,0|8
432,248,83272,2,0,B|432:104,1,130,0|8
328,120,83986,1,2
224,120,84343,1,10
120,120,84700,6,0,B|120:264,1,130,0|8
224,248,85414,2,0,B|376:248,1,130,0|8
256,192,86129,12,4,87557
