osu file format v8

[General]
AudioFilename: imitation lovers club mix.mp3
AudioLeadIn: 1996
PreviewTime: 40849
Countdown: 0
SampleSet: Normal
StackLeniency: 0.6
Mode: 0
LetterboxInBreaks: 1

[Editor]
Bookmarks: 1307,39242,40492
DistanceSpacing: 1.6
BeatDivisor: 8
GridSize: 8

[Metadata]
Title:Imitation Lovers Club Mix
Artist:Tim Vegas
Creator:thekillerhjkhjk
Version:Ecstatic
Source:Touhou
Tags:Because Princess Inada Is Scolding Me ZUN

[Difficulty]
HPDrainRate:7
CircleSize:5
OverallDifficulty:7
ApproachRate:7
SliderMultiplier:2.6
SliderTickRate:1

[Events]
//Background and Video events
0,0,"touhou.jpg"
Video,80,"Imitationloversclubmix.AVI"
//Break Periods
2,17757,22372
//Storyboard Layer 0 (Background)
//Storyboard Layer 1 (Fail)
//Storyboard Layer 2 (Pass)
//Storyboard Layer 3 (Foreground)
//Storyboard Sound Samples
//Background Colour Transformations
3,100,163,162,255

[TimingPoints]
415,357.142857142857,4,2,0,100,1,0
1755,-100,4,1,0,52,0,0
3890,-100,4,2,0,100,0,0
17514,-100,4,1,0,53,0,0
23093,-100,4,2,0,79,0,0
28630,-100,4,2,0,100,0,1
28711,-100,4,2,0,100,0,0
34612,-100,4,1,0,70,0,0
40236,-200,4,1,0,70,0,0
40281,-100,4,2,0,0,0,0
41441,-100,4,2,0,100,0,0
41844,-100,4,1,0,70,0,0
64790,-100,4,2,0,0,0,0
65594,-100,4,1,0,71,0,0
76129,-100,4,1,0,70,0,1
87550,-100,4,1,0,70,0,0

[Colours]
Combo1 : 83,142,253
Combo2 : 250,195,14
Combo3 : 227,101,245
Combo4 : 225,89,89
Combo5 : 55,250,50

[HitObjects]
72,72,1307,1,0
176,72,1486,1,0
280,72,1664,1,0
384,72,1843,2,0,B|392:224|192:256,1,260,4|0
232,144,2379,1,0
128,144,2557,1,0
128,248,2736,1,0
228,249,2915,2,2,B|372:249,1,130
360,144,3272,1,8
432,216,3450,1,8
432,320,3629,1,8
456,24,4165,6,0,B|320:24,2,130
456,128,4700,2,0,B|48:128,1,390
128,216,5415,1,0
168,312,5593,1,0
208,216,5772,1,0
248,312,5950,1,0
288,216,6129,1,2
328,312,6307,1,2
368,216,6486,1,2
112,32,7022,6,0,B|256:32,2,130
200,88,7557,2,0,C|304:88|224:240|344:240,1,390
408,176,8272,1,2
352,264,8450,1,0
256,304,8629,1,2
160,264,8807,1,0
104,176,8986,1,2
205,151,9164,1,2
309,151,9343,1,2
168,32,9879,5,0
72,80,10057,1,0
152,152,10236,1,0
248,96,10414,2,2,B|472:16|488:248|264:248,1,390
192,248,11129,1,0
88,248,11307,1,0
48,152,11486,1,0
120,72,11664,1,0
256,32,11843,5,0
32,192,12557,1,0
256,352,13272,1,0
480,192,13986,1,0
256,80,14700,5,2
136,192,15057,1,2
256,304,15414,1,2
376,192,15772,1,2
256,256,16129,5,0
256,248,16218,1,0
256,240,16307,1,0
256,232,16397,1,0
256,224,16486,1,0
256,216,16575,1,0
256,208,16664,1,0
256,200,16754,1,0
256,192,16843,5,2
256,184,16932,1,2
256,176,17022,1,2
256,168,17111,1,2
256,160,17200,1,2
256,152,17289,1,2
256,144,17379,1,2
256,136,17468,1,2
256,128,17557,5,4
175,139,23272,6,0,B|255:35|335:139,2,195
175,243,23986,2,0,B|255:347|335:243,2,195
376,192,24879,2,0,B|104:192,1,260
200,256,25415,2,0,B|456:256,2,195
272,336,26129,6,0,B|328:240|280:136,2,195
168,336,26843,2,0,B|112:240|160:136,2,195
32,352,27557,5,4
120,304,27736,1,0
216,256,27915,1,8
128,200,28093,1,0
40,144,28272,1,4
136,96,28450,1,8
232,56,28629,5,4
480,32,28986,6,6,B|328:176,2,195,6|2|2
480,32,29700,2,2,B|272:32,2,195,6|2|2
480,240,30593,2,4,B|184:240,1,260,4|0
136,296,31129,2,2,B|344:296,2,195,6|2|2
136,192,31843,6,2,B|344:192,2,195,6|2|2
72,104,32557,2,2,B|72:304,2,195,6|2|2
272,48,33450,1,4
304,256,33807,1,0
200,248,33986,2,2,B|232:104|64:128,2,195,6|2|10
256,192,34700,5,4
208,104,34879,1,0
256,88,34968,1,0
304,72,35057,1,12
352,160,35236,1,8
256,192,35415,1,4
256,296,35593,1,0
208,312,35682,1,0
160,328,35772,1,12
160,224,35950,1,8
256,192,36129,5,4
304,104,36307,1,0
256,88,36397,1,0
208,72,36486,1,12
160,160,36665,1,8
256,192,36843,1,4
256,296,37022,1,0
304,312,37111,1,0
352,328,37200,1,8
352,224,37379,1,8
256,192,37557,5,4
344,141,37736,1,0
344,88,37825,1,0
344,40,37915,1,8
240,40,38093,1,8
240,144,38272,1,4
136,136,38450,1,0
136,88,38540,1,0
136,40,38629,1,12
32,40,38807,1,8
32,144,38986,5,4
32,248,39165,1,0
80,248,39254,1,0
128,248,39343,1,12
128,352,39522,1,8
232,352,39700,5,6
384,288,39968,1,6
280,176,40236,2,0,L|280:160|272:176|272:160|264:176|264:160|256:176|256:160|248:176|248:160|240:176|240:160|232:176|232:160|224:176|224:160|216:176|216:160|208:176|208:160|200:176|200:160|192:176|192:160|184:176|184:160|176:176|176:160,1,455
40,56,41844,6,0,B|128:64|208:184|32:256,1,260,4|8
176,248,42379,1,0
280,224,42558,1,0
184,184,42736,1,0
288,160,42915,1,8
192,120,43093,1,0
296,96,43272,1,0
200,56,43451,1,0
304,32,43629,2,0,B|448:40|432:152|352:200,1,260,8|0
456,216,44165,5,0
384,288,44343,1,8
296,232,44522,1,0
376,160,44701,2,0,B|224:128,2,130,4|0|8
368,56,45236,1,0
264,64,45415,1,0
184,128,45593,1,0
168,232,45772,1,8
240,304,45951,1,0
344,312,46129,2,2,B|528:320|288:144|504:176,2,260,2|10|2
344,208,47022,5,0
208,64,47201,1,8
64,208,47379,1,0
208,208,47558,2,0,B|80:272|144:384|288:320,1,260,4|8
368,328,48093,1,0
368,224,48272,1,0
472,224,48451,1,0
472,120,48629,1,8
368,120,48808,1,0
264,120,48986,1,0
264,16,49165,1,0
368,16,49343,1,8
16,128,49701,1,0
128,128,49879,5,0
184,216,50058,1,8
240,128,50236,1,0
296,216,50415,2,0,B|440:200|448:344|264:320,1,260,4|8
200,320,50951,2,0,B|56:320,2,130
200,216,51486,2,0,B|200:64,1,130,8|0
304,80,51843,5,0
336,80,51933,1,0
320,104,52022,1,0
304,128,52111,1,0
336,128,52201,1,8
320,152,52290,1,0
336,176,52379,1,0
304,176,52468,1,0
320,200,52558,1,0
328,304,52736,5,0
224,312,52915,1,8
120,304,53093,1,0
64,216,53272,2,0,B|184:208|368:240,1,260,4|8
400,152,53808,1,0
328,80,53986,1,0
224,104,54165,1,0
296,176,54343,1,8
328,80,54522,1,0
296,176,54701,1,0
224,104,54879,1,0
328,80,55058,1,8
72,184,55415,1,0
96,288,55593,6,0,B|232:376,2,130,0|8|0
168,208,56129,2,0,B|264:128|320:304|416:192,2,260,4|8|0
168,104,57022,1,0
272,104,57201,1,8
272,208,57379,1,0
192,272,57558,2,2,B|168:384|368:384|344:272,2,260,2|10|2
184,168,58451,5,0
184,64,58629,1,8
288,64,58808,1,0
392,64,58986,2,0,B|392:328,1,260,4|8
312,256,59522,1,0
240,176,59701,1,0
176,96,59879,1,0
280,80,60058,1,8
240,176,60236,1,0
208,272,60415,1,0
280,352,60593,1,0
312,256,60772,1,8
72,56,61308,5,0
176,56,61486,1,8
280,56,61665,1,0
384,56,61843,2,4,B|360:184|176:208,1,260,4|10
240,112,62379,1,2
328,168,62558,2,0,B|440:264|368:352|224:352,1,260,4|10
192,288,63093,1,2
96,240,63272,5,0
96,232,63361,1,0
96,224,63451,1,0
96,216,63540,1,0
96,208,63629,1,8
96,200,63718,1,0
96,192,63808,1,0
96,184,63897,1,0
96,184,63986,5,0
96,192,64076,1,0
96,200,64165,1,0
96,208,64254,1,0
96,216,64343,1,8
96,224,64433,1,0
96,232,64522,1,0
96,240,64611,1,0
96,248,64701,6,0,B|376:280|408:48|304:-8|104:16|96:192|336:304,1,715,4|0
360,312,65772,1,8
456,264,65951,1,0
443,159,66129,1,0
368,88,66308,1,0
291,159,66486,2,0,B|515:263|219:263|459:151,1,260,8|0
432,72,67022,5,0
328,72,67201,1,8
232,104,67379,1,0
152,176,67558,2,0,B|48:200|64:328|160:336|216:288,2,260,4|8|0
232,240,68451,1,0
336,240,68629,1,8
424,184,68808,1,0
320,160,68986,2,2,B|160:168|272:40|96:32,2,260,2|10|2
112,176,69879,5,0
232,32,70058,1,8
352,176,70236,1,0
232,32,70415,2,0,B|232:312,1,260,4|8
336,288,70951,2,0,B|480:288,2,130
336,160,71486,2,0,B|336:304,1,130,8|0
208,288,71843,2,0,B|344:288,1,130
464,160,72201,5,8
32,152,72558,1,0
136,152,72736,1,0
240,152,72915,2,0,B|384:152,1,130,8|0
376,256,73272,1,4
272,256,73451,1,0
224,256,73540,1,0
176,256,73629,1,8
272,256,73808,1,0
272,152,73986,5,4
368,152,74165,1,0
320,152,74254,1,0
272,152,74343,1,8
272,48,74522,1,0
168,48,74701,5,4
120,48,74790,1,0
72,48,74879,1,0
24,48,74968,1,0
24,104,75058,1,8
72,104,75147,1,0
120,104,75236,1,0
168,104,75326,1,0
168,160,75415,1,4
120,160,75504,1,0
72,160,75593,1,0
24,160,75683,1,0
24,216,75772,1,8
72,216,75861,1,0
120,216,75951,1,0
168,216,76040,1,0
216,216,76129,6,0,B|312:384|440:256,1,260,4|8
384,176,76665,1,0
344,56,76843,1,0
304,176,77022,1,8
408,104,77201,1,8
280,104,77379,1,0
176,104,77558,1,4
120,192,77736,1,0
232,192,77915,1,8
432,256,78272,1,0
344,312,78451,6,8,B|208:312,1,130,8|8
120,272,78808,2,0,B|40:128,1,130,0|4
144,104,79165,1,0
240,72,79343,1,8
344,80,79522,2,0,B|432:184,1,130
344,240,79879,2,8,B|200:240,1,130
144,168,80236,1,0
240,136,80415,2,2,B|400:144|456:272,2,260,6|8|2
144,96,81308,5,8
64,160,81486,1,8
160,200,81665,1,0
256,232,81843,2,0,B|384:272|416:184|368:88,1,260,4|8
272,56,82379,1,0
192,120,82558,1,0
288,160,82736,1,8
376,104,82915,1,8
376,208,83093,1,0
376,312,83272,1,4
376,208,83451,1,0
376,312,83629,1,8
48,40,83986,5,0
128,112,84165,2,8,B|200:152|280:88,2,130,8|8|0
152,216,84701,5,4
256,216,84879,1,0
312,216,84968,1,0
368,216,85058,1,8
336,112,85236,1,0
296,88,85326,1,0
256,112,85415,1,4
216,88,85504,1,0
176,112,85593,1,8
64,112,85772,5,8
256,272,85951,1,0
448,112,86129,1,4
256,192,86218,12,4,87558
