osu file format v8

[General]
AudioFilename: imitation lovers club mix.mp3
AudioLeadIn: 2007
PreviewTime: 40849
Countdown: 0
SampleSet: Normal
StackLeniency: 0.4
Mode: 0
LetterboxInBreaks: 1

[Editor]
DistanceSpacing: 0.8
BeatDivisor: 8
GridSize: 8

[Metadata]
Title:Imitation Lovers Club Mix
Artist:Tim Vegas
Creator:thekillerhjkhjk
Version:Delighted
Source:Touhou
Tags:ZUN Because Princess Inada Is Scolding Me

[Difficulty]
HPDrainRate:5
CircleSize:4
OverallDifficulty:5
ApproachRate:5
SliderMultiplier:1.5
SliderTickRate:1

[Events]
//Background and Video events
0,0,"touhou.jpg"
Video,80,"Imitationloversclubmix.AVI"
//Break Periods
2,17757,22072
//Storyboard Layer 0 (Background)
//Storyboard Layer 1 (Fail)
//Storyboard Layer 2 (Pass)
//Storyboard Layer 3 (Foreground)
//Storyboard Sound Samples
//Background Colour Transformations
3,100,163,162,255

[TimingPoints]
415,357.142857142857,4,2,0,100,1,0
1755,-100,4,1,0,53,0,0
3890,-100,4,2,0,100,0,0
17558,-100,4,1,0,70,0,0
28630,-100,4,2,0,100,0,1
28711,-100,4,2,0,100,0,0
34604,-100,4,1,0,70,0,0
76129,-100,4,1,0,74,0,1
87550,-100,4,1,0,70,0,0

[Colours]
Combo1 : 83,142,253
Combo2 : 250,195,14
Combo3 : 227,101,245
Combo4 : 225,89,89
Combo5 : 55,250,50

[HitObjects]
96,72,1307,2,0,B|176:72,2,75
96,136,1843,2,0,B|336:136,1,225
304,192,2557,2,0,B|232:248,1,75,0|0
296,272,2915,2,0,B|376:208,1,75,2|0
408,256,3272,2,2,B|328:320,1,75,2|0
288,320,3629,1,8
64,248,4343,6,0,B|136:320|215:223,1,150
216,64,5236,2,0,B|216:176,1,75
280,64,5593,2,0,B|280:152,2,75
344,64,6129,2,2,B|440:64,1,75
480,64,6486,1,2
472,312,7200,5,2
352,312,7557,2,0,B|240:320|248:168|368:192,1,225,0|2
416,192,8272,1,2
416,128,8450,2,2,B|328:128,1,75,2|0
280,128,8807,1,2
216,128,8986,2,0,B|128:128,2,75,2|0|2
64,320,10057,5,0
184,320,10414,2,2,B|512:320,1,300
256,48,11843,5,0
64,192,12557,1,8
256,336,13272,1,0
448,192,13986,1,8
200,136,14700,5,0
312,248,15057,1,8
312,136,15414,1,0
200,248,15772,1,8
88,192,16129,6,0,B|136:192,7,37.5,2|2|2|2|2|2|2|2
152,192,16843,6,0,B|176:192,16,18.75,2|2|2|2|2|2|2|2|2|2|2|2|2|0|0|0|4
472,40,23272,5,4
256,192,23986,1,8
40,344,24700,5,4
256,192,25415,1,8
40,40,26129,5,4
256,192,26843,1,4
456,328,27557,5,4
352,267,27915,1,8
248,207,28272,1,4
144,145,28629,1,4
40,72,28986,6,2,B|176:72,2,112.5
40,136,29700,2,2,B|40:264,2,112.5
160,168,30593,1,2
216,272,30950,1,0
272,272,31129,2,2,B|416:272,2,112.5
384,208,31843,6,2,B|248:208,2,112.5
448,208,32557,2,2,B|448:80,2,112.5,2|2|2
328,208,33450,1,2
208,208,33807,1,0
208,152,33986,2,2,B|352:152,2,112.5
88,176,34700,5,4
152,280,35057,1,8
216,176,35415,1,4
280,280,35772,1,8
344,176,36129,1,4
408,280,36486,1,8
464,176,36843,1,4
408,72,37200,1,8
288,72,37557,5,4
168,72,37915,1,8
48,72,38272,1,4
48,192,38629,1,8
168,192,38986,1,4
288,192,39343,1,8
408,192,39700,2,6,B|408:56,2,112.5
480,352,41843,6,0,L|328:352,1,150,4|8
328,288,42379,1,0
328,224,42557,2,0,L|248:224,1,75
248,160,42915,1,8
248,96,43093,1,0
312,96,43272,2,0,L|408:96,2,75,0|0|8
136,144,44164,5,0
72,144,44343,1,8
56,88,44522,1,0
40,32,44700,2,0,L|192:32,1,150,0|8
192,96,45236,1,0
192,160,45414,2,0,L|344:160,1,150,0|8
344,216,45950,1,0
344,280,46129,2,2,L|184:280,2,150,2|10|2
248,344,47200,1,8
128,344,47557,6,0,L|152:240|200:240,1,150,0|8
312,240,48272,2,0,L|272:240|240:112,1,150,0|8
304,120,48807,1,0
360,112,48986,2,0,L|448:112,2,75,0|0|8
440,336,50057,5,8
328,336,50414,1,0
224,272,50772,1,8
328,208,51129,1,0
224,144,51486,1,8
328,80,51843,1,4
224,16,52200,2,2,L|48:16,1,150,10|2
72,136,52914,1,8
112,328,53272,6,0,L|160:272|208:336,1,150,4|8
256,296,53807,2,0,L|328:240,1,75
344,296,54164,1,0
432,296,54343,2,0,L|360:240,1,75,8|0
344,200,54700,2,0,L|344:112,2,75,2|2|10
144,80,55772,5,8
144,200,56129,2,0,L|304:200,1,150,0|8
296,264,56664,2,0,L|392:264,2,75
232,264,57200,2,0,L|144:264,1,75,10|0
160,328,57557,2,2,L|312:328,2,150,2|10|2
144,200,58629,1,8
296,136,58986,6,0,L|224:208|256:256,1,150,0|8
344,320,59700,2,0,L|416:248|376:192,1,150,0|8
384,80,60414,1,2
328,72,60593,1,2
272,64,60772,1,10
152,96,61129,6,0,L|32:224,2,150,0|8|0
272,128,62200,1,8
232,184,62379,2,0,L|232:296,1,75
232,320,62736,2,0,L|328:320,1,75,0|8
368,320,63093,2,0,L|448:320,1,75,0|4
376,224,63629,5,8
384,104,63986,1,4
280,160,64343,1,8
296,40,64700,2,0,L|32:40|32:104|72:104|152:104,1,450
160,168,65950,1,0
224,168,66129,2,2,L|304:168,2,75,2|2|10
128,232,66843,2,0,L|288:232,1,150,0|8
376,168,67557,6,0,B|432:176|472:96|400:40,1,150,0|8
360,72,68093,1,0
328,120,68272,2,0,B|280:208,3,75,0|0|8|0
248,144,68986,2,2,B|206:105|243:24|332:44,2,150,2|10|2
256,264,70057,2,0,B|160:264,1,75,8|0
120,264,70414,6,0,B|120:96,1,150,0|8
179,113,70950,2,0,B|291:113,2,75,0|0|0
184,176,71486,2,0,B|184:256,1,75,8|0
240,176,71843,2,0,B|240:264,1,75,2|0
296,176,72200,2,0,B|464:176,2,150,10|0|10
288,40,73272,6,0,B|208:40,1,75,4|0
288,104,73629,2,0,B|192:104,1,75,8|0
216,168,73986,2,0,B|304:168,1,75,4|0
216,232,74343,2,0,B|296:232,1,75,8|0
376,184,74700,5,6
376,304,75057,1,12
256,304,75414,1,6
256,184,75772,1,12
136,184,76129,6,0,B|136:96|240:88,1,150,4|8
288,96,76664,2,0,B|360:144,1,75
400,176,77022,2,0,B|352:248,1,75,0|2
320,288,77379,2,0,B|248:240,1,75,2|8
208,208,77736,2,0,B|256:136,1,75,8|8
368,72,78272,1,2
304,72,78450,1,0
240,72,78629,1,8
176,72,78807,1,0
120,72,78986,6,0,B|120:224,2,150,0|8|0
56,72,79879,1,0
56,136,80057,1,8
56,200,80236,1,0
56,264,80414,2,0,B|208:264,1,150,2|10
328,264,81129,1,2
328,200,81307,6,0,B|240:200,2,75,0|8|0
328,144,81843,2,0,B|320:48|200:96,1,150,0|8
176,128,82379,2,0,B|120:192,1,75,0|0
176,224,82736,2,0,B|120:296,1,75,0|8
184,320,83093,2,0,B|232:248,1,75,2|2
280,288,83450,2,0,B|336:208,1,75,2|10
384,120,83986,5,0
328,96,84164,1,0
272,88,84343,1,8
208,88,84522,1,0
152,96,84700,1,0
224,192,85057,5,8
168,208,85236,1,0
208,248,85414,1,0
264,240,85593,1,0
280,184,85772,1,8
240,136,85950,1,0
184,152,86129,1,4
256,192,86218,12,4,87557
