osu file format v14

[General]
AudioFilename: Tough Guy by Celldweller (Tim Ismag Remix) - GlitchHop.NET Exclusive.mp3
AudioLeadIn: 0
PreviewTime: -1
Countdown: 0
SampleSet: None
StackLeniency: 0.7
Mode: 0
LetterboxInBreaks: 1
WidescreenStoryboard: 1

[Editor]
Bookmarks: 41389,139489,165589
DistanceSpacing: 2
BeatDivisor: 4
GridSize: 16
TimelineZoom: 2.899999

[Metadata]
Title:Tough Guy by Celldweller (short ver.)
TitleUnicode:Tough Guy by Celldweller (short ver.)
Artist:Tim Ismag
ArtistUnicode:Tim Ismag
Creator:d777b
Version:Latest
Source:
Tags:
BeatmapID:779598
BeatmapSetID:157408

[Difficulty]
HPDrainRate:3
CircleSize:4
OverallDifficulty:9
ApproachRate:9.4
SliderMultiplier:2
SliderTickRate:1

[Events]
//Background and Video events
//Break Periods
2,98589,106249
//Storyboard Layer 0 (Background)
//Storyboard Layer 1 (Fail)
//Storyboard Layer 2 (Pass)
//Storyboard Layer 3 (Foreground)
//Storyboard Sound Samples

[TimingPoints]
18589.3170373353,300,4,1,1,100,1,0
40189,-200,4,1,1,100,0,0
40639,-100,4,1,1,100,0,0
46789,-133.333333333333,4,1,1,100,0,0
47989,-66.6666666666667,4,1,1,100,0,0
49789,-100,4,1,1,100,0,0
63589,-66.6666666666667,4,1,1,100,0,0
64789,-100,4,1,1,100,0,0
109789,-200,4,1,1,100,0,0
110089,-100,4,1,1,100,0,0
116389,-133.333333333333,4,1,1,100,0,0
117589,-100,4,1,1,100,0,0
118789,-66.6666666666667,4,1,1,100,0,0
119389,-100,4,1,1,100,0,0

[Colours]
Combo1 : 0,255,255
Combo2 : 0,254,255

[HitObjects]
72,56,19189,5,0,0:0:0:0:
81,94,19289,1,0,0:0:0:0:
101,128,19389,1,0,0:0:0:0:
129,156,19489,1,0,0:0:0:0:
163,175,19589,1,0,0:0:0:0:
200,187,19689,1,0,0:0:0:0:
239,189,19789,1,0,0:0:0:0:
319,99,20089,5,0,0:0:0:0:
293,129,20189,1,0,0:0:0:0:
277,165,20289,1,0,0:0:0:0:
265,203,20389,1,0,0:0:0:0:
262,242,20489,1,0,0:0:0:0:
265,281,20589,1,0,0:0:0:0:
274,319,20689,1,0,0:0:0:0:
177,247,20989,5,0,0:0:0:0:
202,216,21089,1,0,0:0:0:0:
240,204,21189,1,0,0:0:0:0:
279,201,21289,1,0,0:0:0:0:
354,293,21589,5,0,0:0:0:0:
316,279,21689,1,0,0:0:0:0:
286,251,21789,1,0,0:0:0:0:
263,217,21889,1,0,0:0:0:0:
248,179,21989,1,0,0:0:0:0:
248,139,22089,1,0,0:0:0:0:
257,100,22189,1,0,0:0:0:0:
355,169,22489,5,0,0:0:0:0:
330,200,22589,1,0,0:0:0:0:
299,226,22689,1,0,0:0:0:0:
267,250,22789,1,0,0:0:0:0:
229,264,22889,1,0,0:0:0:0:
191,277,22989,1,0,0:0:0:0:
151,284,23089,1,0,0:0:0:0:
133,69,23389,5,0,0:0:0:0:
426,296,23689,5,0,0:0:0:0:
196,226,23989,5,0,0:0:0:0:
156,219,24089,1,0,0:0:0:0:
122,196,24189,1,0,0:0:0:0:
102,161,24289,1,0,0:0:0:0:
103,121,24389,1,0,0:0:0:0:
129,91,24489,1,0,0:0:0:0:
166,75,24589,1,0,0:0:0:0:
273,128,24889,5,0,0:0:0:0:
243,154,24989,1,0,0:0:0:0:
214,181,25089,1,0,0:0:0:0:
196,216,25189,2,0,B|261:218|261:218|304:272,1,100
467,83,25489,2,0,B|401:85|401:85|371:46,1,100
94,59,25789,1,0,0:0:0:0:
89,64,25939,1,0,0:0:0:0:
425,51,26389,6,0,P|456:126|448:232,1,175
474,242,26689,2,0,P|399:211|293:219,1,175
320,185,26989,2,0,P|276:253|184:307,1,175
229,314,27289,2,0,P|200:226|128:161,1,175
127,198,27589,2,0,P|208:197|302:148,1,175
297,190,27889,2,0,P|255:120|166:62,1,175
169,98,28189,2,0,P|240:58|349:51,1,175
192,192,28789,5,0,0:0:0:0:
224,160,28889,1,0,0:0:0:0:
264,136,28989,1,0,0:0:0:0:
304,120,29089,1,0,0:0:0:0:
343,112,29189,1,0,0:0:0:0:
382,119,29289,1,0,0:0:0:0:
417,138,29389,1,0,0:0:0:0:
352,272,29689,5,0,0:0:0:0:
312,296,29789,1,0,0:0:0:0:
272,312,29889,1,0,0:0:0:0:
224,320,29989,1,0,0:0:0:0:
184,304,30089,1,0,0:0:0:0:
144,280,30189,1,0,0:0:0:0:
112,248,30289,1,0,0:0:0:0:
64,120,30589,5,0,0:0:0:0:
112,128,30689,1,0,0:0:0:0:
160,120,30789,1,0,0:0:0:0:
199,95,30889,1,0,0:0:0:0:
328,80,31189,5,0,0:0:0:0:
319,119,31289,1,0,0:0:0:0:
314,158,31389,1,0,0:0:0:0:
321,197,31489,1,0,0:0:0:0:
336,233,31589,1,0,0:0:0:0:
366,259,31689,1,0,0:0:0:0:
403,272,31789,1,0,0:0:0:0:
293,291,32089,5,0,0:0:0:0:
255,277,32189,1,0,0:0:0:0:
218,260,32289,1,0,0:0:0:0:
182,241,32389,1,0,0:0:0:0:
149,217,32489,1,0,0:0:0:0:
124,185,32589,1,0,0:0:0:0:
114,146,32689,1,0,0:0:0:0:
429,116,32989,5,0,0:0:0:0:
209,319,33289,5,0,0:0:0:0:
83,100,33589,6,0,L|181:72,1,100
185,243,33889,1,0,0:0:0:0:
191,243,34039,1,0,0:0:0:0:
125,57,34189,6,0,L|226:46,1,100
191,243,34489,1,0,0:0:0:0:
197,244,34639,1,0,0:0:0:0:
256,192,34789,12,0,37189,0:0:0:0:
312,136,37376,6,0,L|280:128,2,25
231,99,37489,5,0,0:0:0:0:
335,239,37639,1,0,0:0:0:0:
125,149,37789,2,0,P|192:196|230:300,1,175
232,313,38089,1,0,0:0:0:0:
441,40,38389,5,0,0:0:0:0:
152,104,38689,2,0,L|152:168,1,50
224,144,38839,2,0,L|224:208,1,50
296,184,38989,2,0,L|232:264,1,100
157,295,39289,2,0,L|162:356,1,50
80,274,39439,2,0,L|51:338,1,50
56,200,39589,2,0,P|112:119|184:64,1,175
200,80,39889,2,0,P|232:152|312:200,1,175
328,160,40189,6,0,L|329:281,1,100,0|0,0:0|0:0,0:0:0:0:
441,40,40789,5,0,0:0:0:0:
352,80,41089,1,0,0:0:0:0:
360,80,41239,1,0,0:0:0:0:
96,80,41389,1,0,0:0:0:0:
104,80,41539,1,0,0:0:0:0:
224,272,41689,1,0,0:0:0:0:
232,272,41839,1,0,0:0:0:0:
416,320,41989,5,0,0:0:0:0:
64,320,42139,1,0,0:0:0:0:
400,208,42289,5,0,0:0:0:0:
32,208,42439,1,0,0:0:0:0:
288,160,42589,2,0,B|312:208|312:208|288:264,1,100
176,88,42889,2,0,B|152:136|152:136|176:192,1,100
40,56,43189,1,0,0:0:0:0:
336,96,43489,2,0,L|318:47,1,50
336,112,43639,6,0,L|320:64,1,50
336,128,43789,2,0,L|224:256,1,150
400,224,44089,6,0,L|451:250,1,50
384,224,44239,2,0,L|453:259,1,50
368,224,44389,6,0,L|248:296,1,125
280,298,44689,6,0,L|176:224,1,125
176,120,44989,6,0,P|176:216|152:328,1,200,0|0,0:0|0:0,0:0:0:0:
96,168,45589,1,0,0:0:0:0:
360,88,45889,2,0,L|320:128,1,50
292,60,46039,2,0,L|252:100,1,50
120,294,46189,2,0,L|176:305,1,50
163,233,46339,2,0,L|219:244,1,50
377,262,46489,1,0,0:0:0:0:
383,256,46639,1,0,0:0:0:0:
448,56,46789,6,0,L|312:80,1,131.25000500679
318,78,47089,2,0,P|282:133|216:168,1,131.25000500679
227,166,47389,2,0,L|135:73,1,131.25000500679
135,72,47689,2,0,P|86:126|66:197,1,131.25000500679
56,264,47989,6,0,L|120:304,1,75.0000028610231
192,232,48139,2,0,L|264:208,1,75.0000028610231
312,304,48289,1,0,0:0:0:0:
320,303,48439,1,0,0:0:0:0:
352,200,48589,2,0,P|381:130|448:65,1,150.000005722046
232,56,48889,1,0,0:0:0:0:
224,56,49039,1,0,0:0:0:0:
64,128,49189,6,0,P|148:210|281:240,1,225.000008583069
448,240,49489,6,0,P|364:158|231:128,1,225.000008583069
256,192,49789,12,0,50389,0:0:0:0:
48,240,50689,6,0,L|48:176,1,50
152,192,50839,2,0,L|152:264,1,50
101,256,50989,6,0,L|101:192,1,50
205,208,51139,2,0,L|205:280,1,50
152,242,51289,6,0,L|152:178,1,50
256,194,51439,2,0,L|256:266,1,50
275,323,51589,5,0,0:0:0:0:
267,325,51739,1,0,0:0:0:0:
189,342,51889,5,0,0:0:0:0:
181,342,52039,1,0,0:0:0:0:
112,304,52189,6,0,P|62:213|83:128,1,175
81,131,52489,1,0,0:0:0:0:
197,197,52639,1,0,0:0:0:0:
187,62,52789,2,0,P|247:67|309:46,1,100
438,116,53089,6,0,L|427:173,1,50
377,286,53239,2,0,L|307:266,1,50
157,300,53389,2,0,L|233:208,1,100
88,36,53689,6,0,L|183:124,1,100
429,76,53989,6,0,L|305:114,1,100
223,352,54289,6,0,L|251:225,1,100
370,43,54589,5,0,0:0:0:0:
270,48,54739,1,0,0:0:0:0:
175,81,54889,1,0,0:0:0:0:
107,154,55039,1,0,0:0:0:0:
80,250,55189,1,0,0:0:0:0:
352,288,55489,5,0,0:0:0:0:
175,81,55639,1,0,0:0:0:0:
169,83,55714,1,0,0:0:0:0:
164,85,55789,1,0,0:0:0:0:
432,128,55939,1,0,0:0:0:0:
160,320,56089,1,0,0:0:0:0:
256,144,56239,1,0,0:0:0:0:
40,40,56389,5,0,0:0:0:0:
472,40,56689,1,0,0:0:0:0:
40,344,56989,1,0,0:0:0:0:
472,344,57289,1,0,0:0:0:0:
249,25,57589,5,0,0:0:0:0:
215,144,57739,1,0,0:0:0:0:
442,360,58039,5,0,0:0:0:0:
358,270,58189,1,0,0:0:0:0:
55,360,58489,5,0,0:0:0:0:
174,331,58639,1,0,0:0:0:0:
256,192,58789,12,0,59239,0:0:0:0:
256,192,59389,12,0,59989,0:0:0:0:
208,32,60289,5,0,0:0:0:0:
144,208,60439,1,0,0:0:0:0:
32,64,60589,1,0,0:0:0:0:
320,160,60739,1,0,0:0:0:0:
304,167,60814,1,0,0:0:0:0:
292,174,60889,1,0,0:0:0:0:
448,32,61039,1,0,0:0:0:0:
112,32,61189,2,0,L|48:41,1,50
224,96,61339,2,0,L|288:105,1,50
96,160,61489,2,0,L|32:169,1,50
208,224,61639,2,0,L|272:233,1,50
176,48,61789,6,0,B|144:112|144:112|176:176|176:176|112:256,1,200
32,336,62389,6,0,L|88:288,1,50
184,304,62539,2,0,L|240:256,1,50
328,264,62689,1,0,0:0:0:0:
336,263,62839,1,0,0:0:0:0:
464,336,62989,2,0,P|424:288|408:208,1,100
480,80,63289,1,0,0:0:0:0:
472,80,63439,1,0,0:0:0:0:
312,48,63589,6,0,P|230:132|200:265,1,225.000008583069
200,336,63889,6,0,P|282:252|312:119,1,225.000008583069
256,192,64189,12,0,64789,0:0:0:0:
112,48,65089,6,0,L|112:112,1,50
272,48,65239,6,0,L|272:112,1,50
112,98,65389,2,0,P|96:130|64:146,1,50
272,98,65539,2,0,P|288:130|320:146,1,50
191,89,65689,6,0,L|192:206,1,100
96,334,65989,2,0,P|201:351|311:324,1,200
478,34,66589,1,0,0:0:0:0:
38,348,66889,1,0,0:0:0:0:
384,64,67189,2,0,L|384:132,1,50
288,96,67339,2,0,L|289:165,1,50
32,128,67639,2,0,L|31:186,1,50
128,160,67789,2,0,L|127:218,1,50
384,192,68089,2,0,L|384:260,1,50
288,224,68239,2,0,L|289:293,1,50
320,336,68389,5,0,0:0:0:0:
32,96,68689,1,0,0:0:0:0:
452,56,68989,2,0,B|429:104|438:113|438:113|424:114|424:114|434:124|434:124|416:128|416:128|429:138|429:138|407:136|407:136|421:153|421:153|400:150|400:150|408:165|408:165|394:165|394:165|400:177|400:177|357:227,1,300
240,320,69589,1,0,0:0:0:0:
131,97,69889,6,0,L|127:170,1,50
232,102,70039,2,0,L|227:165,1,50
144,320,70189,1,0,0:0:0:0:
224,160,70339,1,0,0:0:0:0:
288,320,70489,1,0,0:0:0:0:
368,160,70639,1,0,0:0:0:0:
288,32,70789,6,0,L|225:44,1,50
160,96,70939,2,0,L|223:108,1,50
288,160,71089,2,0,L|225:172,1,50
160,224,71239,2,0,L|223:236,1,50
288,272,71389,2,0,P|342:281|416:256,1,100
393,287,71614,1,0,0:0:0:0:
400,304,71689,2,0,L|400:168,1,100
388,194,71914,1,0,0:0:0:0:
376,185,71989,2,0,P|334:193|237:167,1,100
65,50,72289,6,0,L|96:106,1,50
212,80,72439,2,0,L|260:122,1,50
399,114,72589,2,0,P|374:163|304:209,1,100
447,50,72889,6,0,L|416:106,1,50,0|0,0:0|0:0,0:0:0:0:
300,80,73039,2,0,L|251:122,1,50
113,114,73189,2,0,P|138:163|208:209,1,100
432,320,73489,2,0,L|288:304,1,100
448,208,73789,5,0,0:0:0:0:
32,208,73939,1,0,0:0:0:0:
336,336,74089,5,0,0:0:0:0:
96,64,74239,1,0,0:0:0:0:
304,48,74389,6,0,L|344:88,1,50
384,176,74539,2,0,L|352:248,1,50
296,296,74689,2,0,P|240:312|160:320,1,100
116,134,74989,1,0,0:0:0:0:
314,110,75139,1,0,0:0:0:0:
139,67,75289,2,0,P|181:109|167:188,1,100
45,275,75589,1,0,0:0:0:0:
189,344,75739,1,0,0:0:0:0:
347,320,75889,1,0,0:0:0:0:
447,195,76039,1,0,0:0:0:0:
457,35,76189,2,0,P|364:87|232:113,1,200
208,128,76789,6,0,P|144:80|-3:9,1,200
304,256,77389,2,0,P|367:303|515:375,1,200
224,144,77989,6,0,P|148:118|-13:96,1,200
288,240,78589,2,0,P|363:265|525:287,1,200
32,32,79189,5,0,0:0:0:0:
480,64,79489,1,0,0:0:0:0:
32,128,79789,1,0,0:0:0:0:
480,160,80089,1,0,0:0:0:0:
32,224,80389,1,0,0:0:0:0:
480,256,80689,1,0,0:0:0:0:
32,320,80989,1,0,0:0:0:0:
480,352,81289,1,0,0:0:0:0:
304,128,81589,6,0,P|367:80|515:9,1,200
256,192,82039,1,0,0:0:0:0:
208,256,82189,2,0,P|144:303|-3:375,1,200
256,192,82639,1,0,0:0:0:0:
288,144,82789,6,0,P|363:118|525:96,1,200
256,192,83239,1,0,0:0:0:0:
224,240,83389,2,0,P|148:265|-13:287,1,200
96,48,83989,5,0,0:0:0:0:
113,91,84089,1,0,0:0:0:0:
141,127,84189,1,0,0:0:0:0:
181,151,84289,1,0,0:0:0:0:
224,167,84389,1,0,0:0:0:0:
270,167,84489,1,0,0:0:0:0:
316,161,84589,1,0,0:0:0:0:
455,42,84889,5,0,0:0:0:0:
424,77,84989,1,0,0:0:0:0:
394,112,85089,1,0,0:0:0:0:
373,153,85189,1,0,0:0:0:0:
362,198,85289,1,0,0:0:0:0:
359,244,85389,1,0,0:0:0:0:
360,290,85489,1,0,0:0:0:0:
272,96,85789,5,0,0:0:0:0:
272,142,85889,1,0,0:0:0:0:
271,188,85989,1,0,0:0:0:0:
271,234,86089,1,0,0:0:0:0:
64,192,86389,5,0,0:0:0:0:
224,192,86539,1,0,0:0:0:0:
144,56,86689,1,0,0:0:0:0:
144,64,86839,1,0,0:0:0:0:
83,218,86989,5,0,0:0:0:0:
231,163,87139,1,0,0:0:0:0:
111,62,87289,1,0,0:0:0:0:
113,70,87439,1,0,0:0:0:0:
285,48,87589,5,0,0:0:0:0:
408,96,87739,1,0,0:0:0:0:
380,108,87814,1,0,0:0:0:0:
351,115,87889,1,0,0:0:0:0:
230,138,88039,1,0,0:0:0:0:
92,183,88189,1,0,0:0:0:0:
178,66,88339,1,0,0:0:0:0:
178,211,88489,1,0,0:0:0:0:
92,93,88639,1,0,0:0:0:0:
230,139,88789,6,0,P|321:195|426:198,1,200
446,200,89239,1,0,0:0:0:0:
64,336,89539,1,0,0:0:0:0:
464,32,89839,1,0,0:0:0:0:
32,48,90139,2,0,P|105:135|208:192,1,200
205,192,90589,1,0,0:0:0:0:
474,332,90889,1,0,0:0:0:0:
288,64,91189,5,0,0:0:0:0:
80,160,91339,1,0,0:0:0:0:
80,164,91414,1,0,0:0:0:0:
80,168,91489,1,0,0:0:0:0:
328,200,91639,1,0,0:0:0:0:
144,56,91789,1,0,0:0:0:0:
168,252,91939,1,0,0:0:0:0:
168,256,92014,1,0,0:0:0:0:
168,260,92089,1,0,0:0:0:0:
232,40,92239,1,0,0:0:0:0:
215,257,92389,6,0,L|266:290,1,50
324,251,92539,2,0,L|273:218,1,50
349,188,92689,2,0,L|400:221,1,50
454,175,92839,2,0,L|393:140,1,50
473,109,92989,1,0,0:0:0:0:
36,257,93289,1,0,0:0:0:0:
256,192,93589,12,0,95989,0:0:0:0:
200,136,96776,6,0,L|232:128,2,25
281,99,96889,5,0,0:0:0:0:
177,239,97039,1,0,0:0:0:0:
387,149,97189,2,0,P|320:196|282:300,1,175
280,313,97489,1,0,0:0:0:0:
167,87,97789,5,0,0:0:0:0:
138,77,97939,5,0,0:0:0:0:
138,47,98089,5,0,0:0:0:0:
167,38,98239,5,0,0:0:0:0:
184,62,98389,5,0,0:0:0:0:
40,40,106789,5,0,0:0:0:0:
211,121,106939,1,0,0:0:0:0:
217,124,107089,1,0,0:0:0:0:
39,190,107239,1,0,0:0:0:0:
209,274,107389,1,0,0:0:0:0:
214,277,107464,1,0,0:0:0:0:
219,280,107539,1,0,0:0:0:0:
40,344,107689,1,0,0:0:0:0:
46,347,107839,1,0,0:0:0:0:
377,294,107989,5,0,0:0:0:0:
94,63,108289,2,0,L|177:73,1,50
163,141,108439,2,0,L|80:131,1,50
38,119,108589,2,0,P|80:152|97:235,1,100
215,331,108889,2,0,L|132:321,1,50
146,253,109039,2,0,L|229:263,1,50
271,275,109189,2,0,P|229:242|204:143,1,150
206,137,109489,2,0,P|277:148|362:87,1,150
351,99,109789,6,0,L|304:198,1,100,0|0,0:0|0:0,0:0:0:0:
441,40,110389,5,0,0:0:0:0:
336,120,110689,1,0,0:0:0:0:
344,120,110839,1,0,0:0:0:0:
163,67,110989,1,0,0:0:0:0:
171,67,111139,1,0,0:0:0:0:
36,183,111289,1,0,0:0:0:0:
44,183,111439,1,0,0:0:0:0:
368,256,111589,6,0,L|301:290,1,50
144,128,111739,2,0,L|211:94,1,50
368,128,111889,2,0,L|301:94,1,50
144,256,112039,2,0,L|211:290,1,50
261,192,112189,2,0,B|309:216|309:216|365:192,1,100
252,186,112489,2,0,B|204:162|204:162|148:186,1,100
473,248,112789,1,0,0:0:0:0:
57,69,113089,6,0,L|108:43,1,50
128,64,113239,2,0,L|208:64,1,50
192,96,113389,2,0,P|256:128|368:128,1,150
423,83,113689,6,0,L|418:140,1,50
389,145,113839,2,0,L|346:212,1,50
328,183,113989,2,0,P|266:220|207:315,1,150
235,313,114289,6,0,L|131:239,1,125
42,157,114589,6,0,P|137:114|268:103,1,200,0|0,0:0|0:0,0:0:0:0:
41,43,115189,1,0,0:0:0:0:
448,40,115489,2,0,L|368:44,1,50
368,144,115639,2,0,L|301:187,1,50
256,96,115789,2,0,L|176:100,1,50
171,196,115939,2,0,L|104:239,1,50
64,144,116089,1,0,0:0:0:0:
55,152,116239,1,0,0:0:0:0:
46,305,116389,6,0,L|187:349,1,125.000004768372
167,343,116689,2,0,P|193:280|249:241,1,125.000004768372
237,247,116989,2,0,P|178:214|145:154,1,125.000004768372
149,167,117289,2,0,B|224:160|224:160|286:123,1,112.500004291535
464,336,117589,6,0,L|448:240,1,50
464,128,117739,2,0,L|448:208,1,50
328,232,117889,1,0,0:0:0:0:
336,231,118039,1,0,0:0:0:0:
40,240,118189,2,0,B|104:200|104:200|177:244,1,150
328,232,118489,1,0,0:0:0:0:
320,232,118639,1,0,0:0:0:0:
416,128,118789,6,0,B|332:210|332:210|199:240,1,225.000008583069
112,240,119089,6,0,B|196:158|196:158|329:128,1,225.000008583069
256,192,119389,12,0,119989,0:0:0:0:
256,64,120289,6,0,L|320:64,1,50
352,96,120439,2,0,L|416:96,1,50
256,176,120589,6,0,L|192:176,1,50
160,208,120739,2,0,L|96:208,1,50
256,288,120889,6,0,L|320:288,1,50
352,320,121039,2,0,L|416:320,1,50
448,272,121189,5,0,0:0:0:0:
440,274,121339,1,0,0:0:0:0:
472,124,121489,5,0,0:0:0:0:
464,124,121639,1,0,0:0:0:0:
349,35,121789,6,0,P|249:63|204:138,1,175
204,137,122089,1,0,0:0:0:0:
342,181,122239,1,0,0:0:0:0:
259,57,122389,2,0,P|201:59|125:34,1,100
43,146,122689,6,0,L|32:203,1,50
80,253,122839,2,0,L|154:240,1,50
112,172,122989,2,0,P|155:149|245:154,1,100
352,352,123289,6,0,L|467:282,1,100
160,208,123589,6,0,L|45:138,1,100
352,80,123889,6,0,L|467:10,1,100
373,192,124189,1,0,0:0:0:0:
144,96,124339,1,0,0:0:0:0:
304,304,124489,1,0,0:0:0:0:
144,256,124639,1,0,0:0:0:0:
336,64,124789,1,0,0:0:0:0:
64,320,125089,1,0,0:0:0:0:
256,320,125239,1,0,0:3:0:0:
262,320,125314,1,0,0:3:0:0:
267,321,125389,1,0,0:3:0:0:
416,176,125539,1,0,0:0:0:0:
240,80,125689,2,0,L|240:208,1,100
472,40,125989,5,0,0:0:0:0:
40,40,126289,1,0,0:0:0:0:
472,344,126589,1,0,0:0:0:0:
40,344,126889,1,0,0:0:0:0:
429,208,127189,6,0,L|363:111,1,100
83,176,127639,6,0,L|149:273,1,100
443,62,127939,5,0,0:0:0:0:
136,256,128089,2,0,P|192:224|256:224,1,100
256,192,128389,12,0,128839,0:0:0:0:
256,192,128989,12,0,129589,0:0:0:0:
112,72,129889,5,0,0:0:0:0:
310,49,130039,1,0,0:0:0:0:
241,236,130189,1,0,0:0:0:0:
219,107,130339,1,0,0:0:0:0:
221,121,130414,1,0,0:0:0:0:
222,135,130489,2,0,L|245:268,1,100
432,160,130789,1,0,0:0:0:0:
416,288,130939,1,0,0:0:0:0:
64,160,131089,1,0,0:0:0:0:
46,299,131239,1,0,0:0:0:0:
349,35,131389,6,0,P|249:63|204:138,1,175
204,137,131689,1,0,0:0:0:0:
342,181,131839,1,0,0:0:0:0:
259,57,131989,2,0,P|201:59|125:34,1,100
18,44,132289,5,0,0:0:0:0:
86,171,132439,1,0,0:0:0:0:
165,43,132589,1,0,0:0:0:0:
461,337,132889,5,0,0:0:0:0:
255,335,133039,1,0,0:0:0:0:
360,160,133189,1,0,0:0:0:0:
32,352,133489,1,0,0:0:0:0:
480,32,133789,1,0,0:0:0:0:
96,192,134389,5,0,0:0:0:0:
352,56,134689,1,0,0:0:0:0:
230,214,134839,1,0,0:0:0:0:
110,53,134989,1,0,0:0:0:0:
153,255,135139,1,0,0:0:0:0:
220,66,135289,2,0,P|276:69|346:109,1,100
448,320,135589,6,0,L|386:330,2,50,0|0|0,0:0|0:0|0:0,0:0:0:0:
64,64,135889,2,0,L|126:74,2,50,0|0|0,0:0|0:0|0:0,0:0:0:0:
448,64,136189,2,0,L|386:74,2,50,0|0|0,0:0|0:0|0:0,0:0:0:0:
64,320,136489,2,0,L|126:330,2,50,0|0|0,0:0|0:0|0:0,0:0:0:0:
176,64,136789,5,0,0:0:0:0:
176,256,136939,1,0,0:0:0:0:
304,240,137239,5,0,0:0:0:0:
48,144,137389,1,0,0:0:0:0:
320,128,137689,5,0,0:0:0:0:
32,272,137839,1,0,0:0:0:0:
176,64,137989,5,0,0:0:0:0:
199,70,138064,1,0,0:0:0:0:
222,77,138139,1,0,0:0:0:0:
245,83,138214,1,0,0:0:0:0:
268,90,138289,1,0,0:0:0:0:
416,128,138439,1,0,0:0:0:0:
416,160,138514,1,0,0:0:0:0:
416,192,138589,1,0,0:0:0:0:
96,320,138889,1,0,0:0:0:0:
432,320,139189,1,0,0:0:0:0:
112,96,139489,6,0,L|176:96,1,50
400,96,139639,2,0,L|320:96,1,50
112,192,139789,1,0,0:0:0:0:
400,192,139939,1,0,0:0:0:0:
112,192,140089,1,0,0:0:0:0:
400,192,140239,1,0,0:0:0:0:
192,279,140389,6,0,L|255:267,1,50
320,215,140539,2,0,L|257:203,1,50
192,151,140689,2,0,L|255:139,1,50
320,87,140839,2,0,L|257:75,1,50
192,39,140989,2,0,P|138:30|64:55,1,100
50,153,141289,2,0,B|68:207|68:207|27:223|9:272|43:313|77:316|89:291,1,200
336,64,141889,6,0,L|272:80,1,50
320,148,142039,2,0,L|256:164,1,50
113,270,142189,2,0,P|138:221|208:175,1,100
176,64,142489,6,0,L|240:80,1,50
192,148,142639,2,0,L|256:164,1,50
399,270,142789,2,0,P|374:221|304:175,1,100
113,114,143089,2,0,P|138:163|208:209,1,100
37,97,143389,2,0,L|92:129,1,50
221,97,143539,2,0,L|166:129,1,50
80,122,143689,2,0,L|157:102,1,50
177,122,143839,2,0,L|100:102,1,50
129,110,143989,6,0,P|154:159|224:205,1,100
415,243,144289,1,0,0:0:0:0:
139,287,144439,1,0,0:0:0:0:
382,142,144589,1,0,0:0:0:0:
298,333,144739,1,0,0:0:0:0:
286,324,144814,1,0,0:0:0:0:
273,316,144889,2,0,B|273:252|273:252|231:191,1,100
30,59,145189,1,0,0:0:0:0:
292,193,145339,1,0,0:0:0:0:
32,348,145489,1,0,0:0:0:0:
476,39,145789,5,0,0:0:0:0:
35,197,146089,1,0,0:0:0:0:
480,336,146389,5,0,0:0:0:0:
416,256,146539,1,0,0:0:0:0:
368,336,146689,1,0,0:0:0:0:
368,336,146989,5,0,0:0:0:0:
256,176,147139,1,0,0:0:0:0:
160,336,147289,1,0,0:0:0:0:
64,336,147589,5,0,0:0:0:0:
320,176,147739,1,0,0:0:0:0:
64,48,147889,1,0,0:0:0:0:
64,48,148189,5,0,0:0:0:0:
256,336,148339,1,0,0:0:0:0:
448,48,148489,1,0,0:0:0:0:
256,125,148789,5,0,0:0:0:0:
189,191,148939,1,0,0:0:0:0:
255,258,149089,1,0,0:0:0:0:
322,192,149239,1,0,0:0:0:0:
227,114,149389,5,0,0:0:0:0:
178,220,149539,1,0,0:0:0:0:
284,269,149689,1,0,0:0:0:0:
333,163,149839,1,0,0:0:0:0:
189,112,149989,5,0,0:0:0:0:
176,258,150139,1,0,0:0:0:0:
322,271,150289,1,0,0:0:0:0:
335,125,150439,1,0,0:0:0:0:
144,127,150589,5,0,0:0:0:0:
191,303,150739,1,0,0:0:0:0:
367,256,150889,1,0,0:0:0:0:
320,80,151039,1,0,0:0:0:0:
215,44,151189,5,0,0:0:0:0:
184,51,151264,1,0,0:0:0:0:
154,59,151339,1,0,0:0:0:0:
124,67,151414,1,0,0:0:0:0:
94,75,151489,1,0,0:0:0:0:
77,100,151564,1,0,0:0:0:0:
62,127,151639,1,0,0:0:0:0:
48,155,151714,1,0,0:0:0:0:
34,183,151789,1,0,0:0:0:0:
477,200,152089,5,0,0:0:0:0:
463,228,152164,1,0,0:0:0:0:
449,256,152239,1,0,0:0:0:0:
434,283,152314,1,0,0:0:0:0:
417,308,152389,1,0,0:0:0:0:
387,316,152464,1,0,0:0:0:0:
357,324,152539,1,0,0:0:0:0:
327,332,152614,1,0,0:0:0:0:
297,340,152689,1,0,0:0:0:0:
224,192,152989,2,0,L|240:128,1,50
320,96,153139,2,0,L|304:160,1,50
352,224,153289,1,0,0:0:0:0:
96,48,153589,5,0,0:0:0:0:
113,91,153689,1,0,0:0:0:0:
141,127,153789,1,0,0:0:0:0:
181,151,153889,1,0,0:0:0:0:
224,167,153989,1,0,0:0:0:0:
270,167,154089,1,0,0:0:0:0:
316,161,154189,1,0,0:0:0:0:
455,42,154489,5,0,0:0:0:0:
424,77,154589,1,0,0:0:0:0:
394,112,154689,1,0,0:0:0:0:
373,153,154789,1,0,0:0:0:0:
362,198,154889,1,0,0:0:0:0:
359,244,154989,1,0,0:0:0:0:
360,290,155089,1,0,0:0:0:0:
272,96,155389,5,0,0:0:0:0:
272,142,155489,1,0,0:0:0:0:
271,188,155589,1,0,0:0:0:0:
271,234,155689,1,0,0:0:0:0:
64,64,155989,6,0,L|112:192,1,100
400,64,156289,1,0,0:0:0:0:
271,234,156439,1,0,0:0:0:0:
448,64,156589,6,0,L|400:192,1,100
112,64,156889,1,0,0:0:0:0:
241,234,157039,1,0,0:0:0:0:
432,64,157189,5,0,0:0:0:0:
160,288,157339,1,0,0:0:0:0:
192,272,157414,1,0,0:0:0:0:
224,256,157489,1,0,0:0:0:0:
448,144,157639,1,0,0:0:0:0:
343,244,157789,1,0,0:0:0:0:
369,102,157939,1,0,0:0:0:0:
433,232,158089,1,0,0:0:0:0:
304,164,158239,1,0,0:0:0:0:
448,48,158389,6,0,B|336:48|336:48|256:112,1,200
336,48,158839,1,0,0:0:0:0:
64,336,159139,1,0,0:0:0:0:
448,80,159439,1,0,0:0:0:0:
32,48,159739,2,0,B|80:144|80:144|208:192,1,200
80,144,160189,1,0,0:0:0:0:
480,272,160489,1,0,0:0:0:0:
256,192,160789,5,0,0:0:0:0:
32,192,160939,2,0,L|96:192,2,50
256,320,161239,1,0,0:0:0:0:
256,64,161389,1,0,0:0:0:0:
480,192,161539,2,0,L|416:192,2,50
256,192,161839,1,0,0:0:0:0:
256,80,161989,5,0,0:0:0:0:
251,99,162064,1,0,0:0:0:0:
243,117,162139,1,0,0:0:0:0:
233,134,162214,1,0,0:0:0:0:
218,147,162289,1,0,0:0:0:0:
201,158,162364,1,0,0:0:0:0:
182,166,162439,1,0,0:0:0:0:
162,170,162514,1,0,0:0:0:0:
142,172,162589,1,0,0:0:0:0:
478,68,162889,1,0,0:0:0:0:
256,192,163189,12,0,165589,0:0:0:0:
