osu file format v14

[General]
AudioFilename: Tough Guy by Celldweller (Tim Ismag Remix) - GlitchHop.NET Exclusive.mp3
AudioLeadIn: 0
PreviewTime: -1
Countdown: 0
SampleSet: None
StackLeniency: 0.7
Mode: 0
LetterboxInBreaks: 1
WidescreenStoryboard: 1

[Editor]
Bookmarks: 41389,139489,165589
DistanceSpacing: 1.4
BeatDivisor: 4
GridSize: 16
TimelineZoom: 2.899999

[Metadata]
Title:Tough Guy by Celldweller (short ver.)
TitleUnicode:Tough Guy by Celldweller (short ver.)
Artist:Tim Ismag
ArtistUnicode:Tim Ismag
Creator:d777b
Version:Hard
Source:
Tags:
BeatmapID:779597
BeatmapSetID:157408

[Difficulty]
HPDrainRate:3
CircleSize:4
OverallDifficulty:7
ApproachRate:8
SliderMultiplier:2
SliderTickRate:1

[Events]
//Background and Video events
//Break Periods
//Storyboard Layer 0 (Background)
//Storyboard Layer 1 (Fail)
//Storyboard Layer 2 (Pass)
//Storyboard Layer 3 (Foreground)
//Storyboard Sound Samples

[TimingPoints]
18589.3170373353,300,4,1,1,100,1,0
40189,-200,4,1,1,100,0,0
40639,-100,4,1,1,100,0,0
46789,-133.333333333333,4,1,1,100,0,0
47989,-66.6666666666667,4,1,1,100,0,0
49789,-100,4,1,1,100,0,0
63589,-66.6666666666667,4,1,1,100,0,0
64789,-100,4,1,1,100,0,0
109789,-200,4,1,1,100,0,0
110089,-100,4,1,1,100,0,0
116389,-133.333333333333,4,1,1,100,0,0
117589,-100,4,1,1,100,0,0
118789,-66.6666666666667,4,1,1,100,0,0
119389,-100,4,1,1,100,0,0

[Colours]
Combo1 : 0,255,255
Combo2 : 0,254,255

[HitObjects]
256,64,19189,6,0,L|256:144,6,66.6666666666667
368,288,20089,2,0,L|448:224,6,66.6666666666667
112,224,20989,2,0,L|16:288,3,66.6666666666667
400,64,21589,6,0,P|440:77|480:112,6,66.6666666666667
191,336,22489,2,0,P|240:333|286:348,5,66.6666666666667
268,338,23089,1,0,0:0:0:0:
148,254,23389,1,0,0:0:0:0:
329,211,23689,1,0,0:0:0:0:
107,69,23989,6,0,L|14:30,6,66.6666666666667
325,83,24889,2,0,L|393:56,2,66.6666666666667
256,114,25189,5,0,0:0:0:0:
234,124,25339,1,0,0:0:0:0:
331,161,25489,5,0,0:0:0:0:
353,171,25639,1,0,0:0:0:0:
258,202,25789,5,0,0:0:0:0:
236,212,25939,1,0,0:0:0:0:
42,47,26389,2,0,P|129:119|194:229,1,200
470,47,26989,2,0,P|383:119|318:229,1,200
177,190,27589,2,0,B|157:89|157:89|204:110|255:99,1,200
335,190,28189,2,0,B|355:89|355:89|308:110|257:99,1,200
64,272,28789,6,0,L|139:331,6,66.6666666666667
64,112,29689,2,0,L|144:48,6,66.6666666666667
304,192,30589,2,0,L|208:192,3,66.6666666666667
64,112,31189,6,0,P|104:125|144:160,6,66.6666666666667
64,272,32089,6,0,P|104:258|144:224,5,66.6666666666667
130,236,32689,1,0,0:0:0:0:
266,279,32989,1,0,0:0:0:0:
134,229,33289,1,0,0:0:0:0:
224,112,33589,2,0,P|262:136|352:128,1,100
400,112,33889,1,0,0:0:0:0:
400,128,34039,1,0,0:0:0:0:
480,208,34189,2,0,P|441:232|352:224,1,100
299,220,34489,1,0,0:0:0:0:
299,236,34639,1,0,0:0:0:0:
256,192,34789,12,0,36589,0:0:0:0:
167,105,37339,5,0,0:0:0:0:
167,105,37489,1,0,0:0:0:0:
167,105,37639,1,0,0:0:0:0:
167,105,37789,1,0,0:0:0:0:
64,144,38089,1,0,0:0:0:0:
288,48,38389,6,0,P|384:64|416:96,1,100
456,116,38689,1,0,0:0:0:0:
480,202,38839,1,0,0:0:0:0:
456,116,38989,6,0,P|360:132|328:164,1,100
288,184,39289,1,0,0:0:0:0:
264,270,39439,1,0,0:0:0:0:
407,316,39589,2,0,P|389:236|325:150,1,150
333,163,39889,2,0,P|253:145|167:81,1,150
176,132,40189,2,0,L|177:252,1,100
69,56,40789,1,0,0:0:0:0:
295,154,41089,2,0,L|408:103,1,100
269,244,41389,2,0,L|257:368,1,100
203,177,41689,2,0,L|102:104,1,100
229,83,41989,1,0,0:0:0:0:
363,223,42139,1,0,0:0:0:0:
175,269,42289,1,0,0:0:0:0:
229,83,42439,1,0,0:0:0:0:
364,48,42589,2,0,B|446:92|446:92|464:203,1,200
