osu file format v10

[General]
AudioFilename: Gangnam Style By PSY (Tim Ismag Trollmix).mp3
AudioLeadIn: 1996
PreviewTime: -1
Countdown: 0
SampleSet: Normal
StackLeniency: 0.7
Mode: 1
LetterboxInBreaks: 1

[Editor]
DistanceSpacing: 0.8
BeatDivisor: 2
GridSize: 32

[Metadata]
Title:Gangnam Style (Tim Ismag Trollmix)
TitleUnicode:Gangnam Style (Tim Ismag Trollmix)
Artist:Tim Ismag
ArtistUnicode:Tim Ismag
Creator:OzzyOzrock
Version:Taiknae Easy
Source:
Tags:k-pop oppan oppa hyuna taknae dubstep drumstep drum and bass
BeatmapID:189281
BeatmapSetID:64275

[Difficulty]
HPDrainRate:5
CircleSize:5
OverallDifficulty:6
ApproachRate:5
SliderMultiplier:1.4
SliderTickRate:1

[Events]
//Background and Video events
0,0,"ISMAGLOL.jpg"
//Break Periods
2,100084,104233
//Storyboard Layer 0 (Background)
//Storyboard Layer 1 (Fail)
//Storyboard Layer 2 (Pass)
//Storyboard Layer 3 (Foreground)
//Storyboard Sound Samples
//Background Colour Transformations
3,100,163,162,255

[TimingPoints]
0,346.820809248555,4,1,0,100,1,0
0,-100,4,1,0,100,0,0
27745,-100,4,1,0,100,0,1
70751,-100,4,1,0,100,0,0
105433,-100,4,1,0,100,0,1
127630,-100,4,1,0,100,0,1
148439,-100,4,1,0,100,0,0
172023,-100,4,1,0,100,0,0
172023,-100,4,1,0,100,0,0

[Colours]
Combo1 : 0,128,255
Combo2 : 255,128,0

[HitObjects]
384,288,0,21,8,0:0:0
384,288,1040,1,8,0:0:0
384,288,1387,1,8,0:0:0
384,288,2427,1,8,0:0:0
384,288,2774,1,8,0:0:0
384,288,3815,1,8,0:0:0
384,288,4162,1,8,0:0:0
384,288,5202,1,8,0:0:0
128,288,5549,5,0,0:0:0
128,288,6589,1,0,0:0:0
128,288,6936,1,0,0:0:0
128,288,7976,1,0,0:0:0
128,288,8323,1,0,0:0:0
128,288,9364,1,0,0:0:0
128,288,9711,1,0,0:0:0
128,288,10751,1,0,0:0:0
384,288,11098,5,8,0:0:0
384,288,12138,1,8,0:0:0
384,288,12485,1,8,0:0:0
384,288,13526,1,8,0:0:0
384,288,13872,1,8,0:0:0
384,288,14913,1,8,0:0:0
384,288,15260,1,8,0:0:0
384,288,16300,1,8,0:0:0
128,288,16647,5,0,0:0:0
128,288,17687,1,0,0:0:0
128,288,18034,1,0,0:0:0
128,288,18728,1,0,0:0:0
128,288,19421,1,0,0:0:0
128,288,20462,1,0,0:0:0
128,288,20809,1,0,0:0:0
128,288,21502,1,0,0:0:0
128,288,22196,1,0,0:0:0
128,288,22890,1,0,0:0:0
128,288,23583,1,0,0:0:0
128,288,24277,1,0,0:0:0
128,288,24971,1,0,0:0:0
128,288,27745,1,0,0:0:0
384,288,28092,5,8,0:0:0
128,288,28439,5,0,0:0:0
128,288,28786,1,0,0:0:0
128,288,29132,1,0,0:0:0
128,288,29826,1,0,0:0:0
128,288,30520,1,0,0:0:0
416,320,30867,5,8,0:0:0
160,256,31213,5,0,0:0:0
160,256,31560,1,0,0:0:0
160,256,31907,1,0,0:0:0
160,256,32601,1,0,0:0:0
128,288,33294,1,0,0:0:0
384,288,33641,5,8,0:0:0
128,288,33988,5,0,0:0:0
128,288,34335,1,0,0:0:0
384,288,34682,5,8,0:0:0
128,288,35375,5,0,0:0:0
384,288,36069,5,8,0:0:0
384,288,36763,1,8,0:0:0
384,288,37109,1,8,0:0:0
384,288,37456,1,8,0:0:0
160,288,38150,5,0,0:0:0
128,288,38843,1,0,0:0:0
384,288,39190,5,8,0:0:0
128,288,39537,5,0,0:0:0
128,288,39884,1,0,0:0:0
128,288,40230,1,0,0:0:0
128,288,40924,1,0,0:0:0
128,288,41618,1,0,0:0:0
416,320,41965,5,8,0:0:0
160,256,42311,5,0,0:0:0
160,256,42658,1,0,0:0:0
160,256,43005,1,0,0:0:0
160,256,43699,1,0,0:0:0
128,288,44392,1,0,0:0:0
384,288,44739,5,8,0:0:0
128,288,45086,5,0,0:0:0
128,288,45433,1,0,0:0:0
384,288,45780,5,8,0:0:0
128,288,46473,5,0,0:0:0
384,288,47167,5,8,0:0:0
384,288,47861,1,8,0:0:0
384,288,48207,1,8,0:0:0
384,288,48554,1,8,0:0:0
160,288,49248,5,0,0:0:0
128,288,49942,1,0,0:0:0
384,288,50289,5,8,0:0:0
128,288,50636,5,0,0:0:0
128,288,50983,1,0,0:0:0
128,288,51329,1,0,0:0:0
128,288,52023,1,0,0:0:0
128,288,52717,1,0,0:0:0
416,320,53064,5,8,0:0:0
160,256,53410,5,0,0:0:0
160,256,53757,1,0,0:0:0
160,256,54104,1,0,0:0:0
160,256,54798,1,0,0:0:0
128,288,55491,1,0,0:0:0
384,288,55838,5,8,0:0:0
128,288,56185,5,0,0:0:0
128,288,56532,1,0,0:0:0
384,288,56879,5,8,0:0:0
128,288,57572,5,0,0:0:0
384,288,58266,5,8,0:0:0
384,288,58960,1,8,0:0:0
384,288,59306,1,8,0:0:0
384,288,59653,1,8,0:0:0
160,288,60347,5,0,0:0:0
128,288,61040,1,0,0:0:0
384,288,61387,5,8,0:0:0
128,288,61734,5,0,0:0:0
128,288,62081,1,0,0:0:0
128,288,62427,1,0,0:0:0
128,288,63121,1,0,0:0:0
128,288,63815,1,0,0:0:0
416,320,64162,5,8,0:0:0
160,256,64508,5,0,0:0:0
160,256,64855,1,0,0:0:0
160,256,65202,1,0,0:0:0
160,256,65896,1,0,0:0:0
128,288,66589,1,0,0:0:0
384,288,66936,5,8,0:0:0
128,288,67283,5,0,0:0:0
128,288,67630,1,0,0:0:0
128,288,67976,1,0,0:0:0
128,288,68670,1,0,0:0:0
384,288,69364,5,8,0:0:0
384,288,70058,1,8,0:0:0
384,288,70404,1,8,0:0:0
384,288,70751,1,8,0:0:0
128,256,72138,5,0,0:0:0
352,288,72832,5,8,0:0:0
128,256,73526,5,0,0:0:0
128,256,73872,1,0,0:0:0
352,288,74219,5,8,0:0:0
128,224,74913,5,0,0:0:0
352,288,75606,5,8,0:0:0
128,256,76300,5,0,0:0:0
128,256,76647,1,0,0:0:0
128,256,76994,1,0,0:0:0
128,256,77687,1,0,0:0:0
352,288,78381,5,8,0:0:0
128,256,79075,5,0,0:0:0
128,256,79421,1,0,0:0:0
352,288,79768,5,8,0:0:0
128,224,80462,5,0,0:0:0
352,288,81155,5,8,0:0:0
352,288,81502,1,8,0:0:0
352,288,81849,1,8,0:0:0
128,288,82543,5,0,0:0:0
128,256,83236,1,0,0:0:0
352,288,83930,5,8,0:0:0
128,256,84624,5,0,0:0:0
128,256,84970,1,0,0:0:0
352,288,85317,5,8,0:0:0
128,224,86011,5,0,0:0:0
352,288,86704,5,8,0:0:0
128,256,87398,5,0,0:0:0
128,256,87745,1,0,0:0:0
128,256,88092,1,0,0:0:0
128,256,88786,1,0,0:0:0
352,288,89480,5,8,0:0:0
128,256,90174,5,0,0:0:0
128,256,90520,1,0,0:0:0
352,288,90867,5,8,0:0:0
128,224,91561,5,0,0:0:0
352,288,92254,5,8,0:0:0
384,288,92601,1,8,0:0:0
352,288,92947,1,8,0:0:0
128,288,93641,5,0,0:0:0
352,288,94335,5,8,0:0:0
352,288,95722,1,8,0:0:0
352,288,97109,1,8,0:0:0
352,288,98497,1,8,0:0:0
352,288,99884,1,8,0:0:0
128,288,105433,5,0,0:0:0
384,288,105780,5,8,0:0:0
128,288,106127,5,0,0:0:0
128,288,106474,1,0,0:0:0
128,288,106820,1,0,0:0:0
128,288,107514,1,0,0:0:0
128,288,108208,1,0,0:0:0
416,320,108555,5,8,0:0:0
160,256,108901,5,0,0:0:0
160,256,109248,1,0,0:0:0
160,256,109595,1,0,0:0:0
160,256,110289,1,0,0:0:0
128,288,110982,1,0,0:0:0
384,288,111329,5,8,0:0:0
128,288,111676,5,0,0:0:0
128,288,112023,1,0,0:0:0
384,288,112370,5,8,0:0:0
128,288,113063,5,0,0:0:0
384,288,113757,5,8,0:0:0
384,288,114451,1,8,0:0:0
384,288,114797,1,8,0:0:0
384,288,115144,1,8,0:0:0
160,288,115838,5,0,0:0:0
128,288,116531,1,0,0:0:0
384,288,116878,5,8,0:0:0
128,288,117225,5,0,0:0:0
128,288,117572,1,0,0:0:0
128,288,117918,1,0,0:0:0
128,288,118612,1,0,0:0:0
128,288,119306,1,0,0:0:0
416,320,119653,5,8,0:0:0
160,256,119999,5,0,0:0:0
160,256,120346,1,0,0:0:0
160,256,120693,1,0,0:0:0
160,256,121387,1,0,0:0:0
128,288,122080,1,0,0:0:0
384,288,122427,5,8,0:0:0
128,288,122774,5,0,0:0:0
128,288,123121,1,0,0:0:0
384,288,123468,5,8,0:0:0
128,288,124161,5,0,0:0:0
384,288,124855,5,8,0:0:0
384,288,125549,1,8,0:0:0
384,288,125895,1,8,0:0:0
384,288,126242,1,8,0:0:0
160,288,126936,5,0,0:0:0
128,288,127630,1,0,0:0:0
128,288,128324,1,0,0:0:0
128,288,128671,1,0,0:0:0
128,288,129017,1,0,0:0:0
128,288,129711,1,0,0:0:0
352,288,130404,5,8,0:0:0
352,288,130751,1,8,0:0:0
128,288,131098,5,0,0:0:0
128,288,131791,1,0,0:0:0
160,256,132486,1,0,0:0:0
384,288,133179,5,8,0:0:0
384,288,135954,1,8,0:0:0
384,288,136648,1,8,0:0:0
384,288,136994,1,8,0:0:0
384,288,137341,1,8,0:0:0
160,288,138035,5,0,0:0:0
128,288,138728,1,0,0:0:0
384,288,139075,5,8,0:0:0
128,288,139422,5,0,0:0:0
128,288,139769,1,0,0:0:0
128,288,140115,1,0,0:0:0
128,288,140809,1,0,0:0:0
128,288,141503,1,0,0:0:0
416,320,141850,5,8,0:0:0
160,256,142196,5,0,0:0:0
160,256,142543,1,0,0:0:0
160,256,142890,1,0,0:0:0
160,256,143584,1,0,0:0:0
128,288,144277,1,0,0:0:0
384,288,144624,5,8,0:0:0
128,288,144971,5,0,0:0:0
128,288,145318,1,0,0:0:0
128,288,145664,1,0,0:0:0
128,288,146358,1,0,0:0:0
384,288,147052,5,8,0:0:0
384,288,147746,1,8,0:0:0
384,288,148092,1,8,0:0:0
384,288,148439,1,8,0:0:0
128,256,149826,5,0,0:0:0
352,288,150520,5,8,0:0:0
128,256,151214,5,0,0:0:0
128,256,151560,1,0,0:0:0
352,288,151907,5,8,0:0:0
128,224,152601,5,0,0:0:0
352,288,153294,5,8,0:0:0
128,256,153988,5,0,0:0:0
128,256,154335,1,0,0:0:0
128,256,154682,1,0,0:0:0
128,256,155375,1,0,0:0:0
352,288,156069,5,8,0:0:0
128,256,156763,5,0,0:0:0
128,256,157109,1,0,0:0:0
352,288,157456,5,8,0:0:0
128,224,158150,5,0,0:0:0
352,288,158843,5,8,0:0:0
352,288,159190,1,8,0:0:0
352,288,159537,1,8,0:0:0
128,288,160231,5,0,0:0:0
128,256,160924,1,0,0:0:0
352,288,161618,5,8,0:0:0
128,256,162312,5,0,0:0:0
128,256,162658,1,0,0:0:0
352,288,163005,5,8,0:0:0
128,224,163699,5,0,0:0:0
352,288,164392,5,8,0:0:0
128,256,165086,5,0,0:0:0
128,256,165433,1,0,0:0:0
128,256,165780,1,0,0:0:0
128,256,166474,1,0,0:0:0
352,288,167168,5,8,0:0:0
128,256,167862,5,0,0:0:0
128,256,168208,1,0,0:0:0
352,288,168555,5,8,0:0:0
128,224,169249,5,0,0:0:0
352,288,169942,5,8,0:0:0
384,288,170289,1,8,0:0:0
352,288,170635,1,8,0:0:0
128,288,171329,5,0,0:0:0
352,288,172023,5,8,0:0:0
