osu file format v9

[General]
AudioFilename: freckles-kcp-re-edit-.mp3
AudioLeadIn: 0
PreviewTime: 69823
Countdown: 1
SampleSet: Normal
StackLeniency: 0.7
Mode: 0
LetterboxInBreaks: 1

[Editor]
DistanceSpacing: 0.9
BeatDivisor: 4
GridSize: 8

[Metadata]
Title:Freckles (KCP Re-Edit)
Artist:Tiggy
Creator:ztrot
Version:Light
Source:Dance Dance Revolution
Tags:iMuffin dkun lizzehb DDRMAX

[Difficulty]
HPDrainRate:4
CircleSize:4
OverallDifficulty:5
ApproachRate:5
SliderMultiplier:1.1
SliderTickRate:2

[Events]
//Background and Video events
0,0,"BG.jpg"
//Break Periods
//Storyboard Layer 0 (Background)
//Storyboard Layer 1 (Fail)
//Storyboard Layer 2 (Pass)
//Storyboard Layer 3 (Foreground)
Sprite,Foreground,Centre,"SB\Lizzehb.png",320,240 L,17823,1 M,1,0,200,835,445,435,444 L,18623,1 M,1,0,200,835,445,435,444 L,19423,1 M,1,0,200,835,445,435,444 L,19823,1 M,1,0,200,835,445,435,444 L,20223,1 M,1,0,200,835,445,435,444 S,0,21023,,0.6 F,0,101023,101423,1,0
Sprite,Foreground,Centre,"SB\Lizzehb.png",435,444 F,0,20623,20823,1,0 S,0,20623,20823,0.6,0.8
//Storyboard Sound Samples
//Background Colour Transformations
3,100,163,162,255

[TimingPoints]
223,400,4,1,0,70,1,0

[Colours]
Combo1 : 207,158,158
Combo2 : 192,130,255
Combo3 : 255,168,168
Combo4 : 239,182,243

[HitObjects]
256,280,13023,1,4
256,184,13423,1,0
256,88,13823,1,0
448,128,14623,2,0,B|384:128,2,55,4|0|4
448,232,15423,2,0,B|368:232,4,55,0|0|0|0|4
88,288,17823,6,0,B|176:328|184:200|288:208,1,220,4|0
424,72,19423,1,0
328,72,19823,1,0
232,72,20223,2,0,B|120:72,1,110,0|6
136,168,21023,6,0,B|184:208|96:232|176:264,1,110,0|8
264,264,21823,1,0
360,264,22223,1,8
312,176,22623,2,0,B|312:112,2,55,0|0|8
360,264,23423,2,0,B|360:304|320:312|288:288|288:264,3,110,0|8|0|8
256,168,25023,2,0,B|296:128|224:120|264:64,1,110,0|8
360,88,25823,6,0,B|360:144,2,55,8|0|8
456,88,26623,1,8
456,136,26823,1,0
440,232,27223,2,0,B|472:272|384:320|384:320|336:288,1,165,0|8
280,216,28223,5,0
216,144,28623,1,8
120,144,29023,2,0,B|168:200|88:192|136:256,1,110,0|8
200,312,29823,2,0,B|264:312,2,55,8|0|8
328,160,31023,5,8
232,160,31423,1,0
152,104,31823,1,8
96,184,32223,2,0,B|64:224|96:264|144:248,1,110
232,272,33023,2,0,B|336:264|336:152|336:152|336:88,1,220,0|4
144,72,34623,6,0,B|184:104|120:144|184:168,1,110,0|8
104,232,35423,2,0,B|104:296,2,55,8|0|8
200,256,36223,2,0,B|240:288|296:248|264:192,1,110,0|8
304,176,36823,1,0
328,136,37023,2,0,B|400:144|344:72|408:72,1,110,0|8
448,160,37823,5,0
448,208,38023,1,0
448,256,38223,1,8
384,336,38623,1,0
320,264,39023,1,8
256,336,39423,1,0
256,336,39623,1,0
192,264,40023,5,0
120,336,40423,1,8
48,264,40823,2,0,B|48:208,1,55
48,112,41423,5,8
144,112,41823,2,0,B|192:152|104:168|160:224,1,110,0|8
248,208,42623,1,0
344,208,43023,1,12
184,320,43823,6,0,B|224:280|264:360|304:304,1,110
368,264,44623,1,8
288,200,45023,1,0
192,200,45423,1,8
136,120,45823,1,0
80,200,46223,1,8
80,200,46423,1,8
256,192,46623,12,0,48623
336,88,50423,5,0
336,88,50623,2,0,B|296:136,1,55
224,192,51223,1,0
224,288,51623,1,8
224,192,52023,1,0
224,288,52423,1,8
256,192,52823,12,4,54623
256,192,56423,6,0,B|256:136,3,55
352,192,57423,1,8
400,192,57623,1,0
392,344,58223,1,8
344,344,58423,1,0
248,344,58823,1,0
256,192,59223,12,0,60623
256,192,61223,5,0
256,192,61623,1,0
408,56,63023,5,4
408,152,63423,1,0
408,248,63823,1,8
312,248,64223,2,2,B|312:208|312:208|280:192|280:192|280:144,2,110
232,88,65423,5,8
136,88,65823,1,0
184,176,66223,5,8
232,264,66623,1,0
136,264,67023,1,8
184,352,67423,6,2,B|336:392|392:256|336:104|176:152,1,440
288,80,69823,5,4
368,136,70223,1,0
360,232,70623,1,4
288,296,71023,1,8
288,296,71223,1,0
288,296,71423,2,0,B|280:224|200:280|208:216,1,110,0|8
128,288,72223,6,2,B|72:224|128:144|208:136|208:136|296:48,1,330
384,72,73823,5,0
384,120,74023,1,0
384,168,74223,1,8
384,264,74623,1,0
288,264,75023,5,8
240,264,75223,1,0
192,264,75423,1,4
96,264,75823,2,8,B|96:192|96:192|192:168|184:72,1,220
256,152,77023,1,4
352,152,77423,5,8
384,264,77823,2,0,B|320:328|320:328|272:232|200:296,1,220
128,320,79023,2,0,B|128:256,3,55,8|0|8|0
128,216,79823,1,8
184,136,80223,5,4
272,184,80623,1,8
344,120,81023,1,0
344,120,81223,1,0
408,192,81623,2,0,B|480:192|496:120,2,110
360,200,82623,6,0,B|288:200,2,55,8|8|8
432,264,83423,2,0,B|432:136,1,110,0|8
432,104,84023,1,0
432,104,84223,1,0
352,56,84623,5,8
312,80,84823,1,0
272,56,85023,2,0,B|200:40|224:112|224:112|184:168,1,165,4|0
304,256,86223,2,0,B|256:192,2,55
400,256,87023,1,8
400,208,87223,1,0
400,160,87423,1,0
400,64,87823,6,0,B|344:64,2,55,4|0|4
400,160,88623,1,8
400,256,89023,1,0
304,256,89423,1,8
304,160,89823,1,4
208,160,90223,6,0,B|112:248,1,110,8|0
208,296,91023,1,8
304,296,91423,1,0
304,296,91623,1,0
400,296,92023,2,2,B|472:224|416:160|416:160|288:160,1,275
192,160,93423,1,8
96,160,93823,1,0
96,256,94223,6,0,B|208:256,1,110,8|0
288,224,95023,1,2
320,184,95223,1,0
352,144,95423,1,0
416,72,95823,2,0,B|464:64|488:128|440:160,1,110,2|4
424,184,96423,1,0
376,272,96823,2,0,B|406:278|414:350|350:342,1,110
304,336,97423,1,8
304,240,97823,5,4
304,144,98223,1,8
304,48,98623,1,4
304,48,98823,1,0
304,48,99023,1,8
256,192,99423,12,0,101023
