osu file format v9

[General]
AudioFilename: freckles-kcp-re-edit-.mp3
AudioLeadIn: 0
PreviewTime: 69823
Countdown: 1
SampleSet: Normal
StackLeniency: 0.7
Mode: 0
LetterboxInBreaks: 1

[Editor]
DistanceSpacing: 0.9
BeatDivisor: 8
GridSize: 8

[Metadata]
Title:Freckles (KCP Re-Edit)
Artist:Tiggy
Creator:ztrot
Version:Heavy
Source:Dance Dance Revolution
Tags:iMuffin dkun lizzehb DDRMAX

[Difficulty]
HPDrainRate:8
CircleSize:4
OverallDifficulty:8
ApproachRate:8
SliderMultiplier:1.8
SliderTickRate:2

[Events]
//Background and Video events
0,0,"BG.jpg"
//Break Periods
//Storyboard Layer 0 (Background)
//Storyboard Layer 1 (Fail)
//Storyboard Layer 2 (Pass)
//Storyboard Layer 3 (Foreground)
Sprite,Foreground,Centre,"SB\ztrot.png",320,240 L,17823,1 M,1,0,200,757,446,503,446 L,18623,1 M,1,0,200,757,446,503,446 L,19423,1 M,1,0,200,757,446,503,446 L,19823,1 M,1,0,200,757,446,503,446 L,20223,1 M,1,0,200,757,446,503,446 S,0,21023,,0.6 F,0,101023,101423,1,0
Sprite,Foreground,Centre,"SB\ztrot.png",503,446 F,0,20623,20823,1,0 S,0,20623,20823,0.6,0.8
//Storyboard Sound Samples
//Background Colour Transformations
3,100,163,162,255

[TimingPoints]
223,400,4,1,0,70,1,0

[Colours]
Combo1 : 207,158,158
Combo2 : 192,130,255
Combo3 : 255,168,168
Combo4 : 239,182,243

[HitObjects]
256,360,13023,1,4
256,32,13823,1,4
192,352,14623,5,4
256,304,14823,1,0
320,352,15023,1,4
328,272,15223,1,4
328,272,15323,1,0
256,232,15523,1,0
184,272,15723,1,4
184,272,15823,1,0
256,232,16023,1,0
176,184,16223,6,0,B|256:112|336:184,3,180
120,296,18023,5,0
56,240,18223,1,8
96,168,18423,1,0
392,296,18823,5,0
456,240,19023,1,8
416,168,19223,1,0
256,32,19623,5,2
128,128,20023,1,2
384,128,20423,1,2
256,224,20623,5,4
72,344,21223,5,0
152,344,21423,1,8
200,280,21623,1,0
152,216,21823,2,0,B|104:216|72:176,2,90,0|0|8
256,352,22623,1,2
336,344,22823,1,0
416,344,23023,1,8
464,280,23223,1,0
416,216,23423,2,2,B|320:168|336:64,1,180,2|2
128,40,24223,5,0
384,40,24623,1,8
128,192,25023,1,0
384,192,25423,1,8
256,328,25823,5,2
176,344,26023,1,0
104,304,26223,1,8
80,224,26423,1,0
104,144,26623,1,0
104,144,26823,2,2,B|192:88|224:176|304:128,1,180
256,328,27623,5,2
216,256,27823,1,8
296,256,28023,1,0
184,256,28223,1,2
328,256,28623,1,8
160,256,29023,1,2
352,256,29423,1,8
128,232,29823,1,2
384,232,30223,1,4
192,32,31023,6,0,B|240:88|240:88|256:88|272:88|272:88|320:32,2,180,8|2|8
208,192,32223,1,2
256,256,32423,1,0
304,192,32623,2,2,B|352:232|344:328|256:336,1,180,10|2
192,312,33223,1,0
256,256,33423,1,8
208,192,33623,1,2
256,128,33823,1,4
176,104,34023,5,0
104,72,34223,1,8
48,128,34423,1,0
48,208,34623,2,0,B|48:264|104:280,2,90,2|8|2
336,104,35423,5,2
408,72,35623,1,0
464,128,35823,1,8
464,208,36023,2,0,B|464:264|408:280,2,90,2|8|2
384,200,36623,1,8
328,256,36823,1,0
352,336,37023,5,2
160,336,37423,1,8
384,256,37823,1,2
128,256,38223,1,8
296,40,38623,6,0,B|296:120|264:104|256:120|248:104|216:120|216:40,2,180,2|8|2
368,80,39623,1,0
144,80,40023,1,4
376,304,40823,5,2
304,344,41023,2,0,B|248:352|216:304,1,90
288,264,41423,1,8
216,232,41623,1,0
152,280,41823,1,2
360,224,42223,1,8
128,144,42623,1,2
400,104,43023,1,8
256,32,43423,5,2
200,88,43623,1,0
256,144,43823,1,8
256,224,44023,2,2,B|256:280|304:296,1,90,2|0
336,224,44423,1,8
416,224,44623,1,8
232,368,45023,6,0,B|144:368,1,90,2|0
184,296,45423,1,8
104,296,45623,2,0,B|56:296|32:248,1,90,2|0
104,216,46023,1,8
32,176,46223,1,8
344,40,46623,5,4
256,72,46823,1,0
176,120,47023,1,8
256,168,47223,1,0
344,224,47423,1,2
256,264,47623,1,0
176,304,47823,1,8
336,304,48223,5,2
256,264,48423,1,0
168,224,48623,1,8
256,168,48823,1,0
336,120,49023,1,2
256,72,49223,1,0
168,40,49423,1,8
256,72,49623,1,4
336,120,49823,1,0
256,328,50223,5,8
336,328,50423,1,0
408,288,50623,2,0,B|472:240|456:160,2,135,2|8|2
104,288,51623,1,8
256,80,52023,1,2
256,336,52423,1,8
256,80,52823,1,0
176,80,53023,2,0,B|72:80|32:168,1,180,4|0
256,336,53823,1,0
336,80,54223,5,8
392,136,54423,1,0
448,192,54623,1,0
336,344,55023,6,2,B|256:264|256:368|152:312,3,180
160,160,56623,2,2,B|352:160,2,180
184,240,57623,2,2,B|184:344|256:352|336:344|336:232,1,270
352,160,58423,2,2,B|160:160,2,180
256,192,59423,12,0,61223
256,352,61623,5,0
208,200,62023,1,2
304,200,62223,1,8
200,200,62423,1,0
312,200,62623,1,4
160,320,63023,5,2
256,104,63423,1,0
352,320,63823,1,2
136,160,64223,2,2,B|200:224|256:216|304:224|384:160,2,270
160,344,65823,5,4
352,344,66223,1,8
256,192,66623,1,0
144,40,67023,1,8
368,40,67423,2,4,B|480:120|480:264|368:352,2,360
256,344,69823,5,0
256,40,70223,1,0
192,192,70623,1,2
120,160,70823,2,0,B|96:208|136:248,1,90,0|8
208,280,71223,1,0
304,280,71423,1,2
380,243,71623,2,0,B|416:208|392:160,1,90,0|8
320,192,72023,1,0
256,128,72223,2,2,B|344:72|448:104|456:216,2,270,2|2|2
256,360,73823,5,2
184,304,74023,1,0
328,304,74223,1,8
152,224,74423,1,0
352,224,74623,1,2
216,160,74823,1,0
296,160,75023,1,8
120,136,75423,6,0,B|48:80,1,90,2|0
184,88,75823,2,0,B|104:32,1,90,8|0
256,56,76223,2,0,B|256:152,1,90,2|0
328,88,76623,2,0,B|400:32,1,90,8|0
392,136,77023,2,0,B|464:80,1,90,4|0
256,144,77423,5,2
24,192,77823,1,0
144,360,78223,1,2
256,192,78623,1,0
368,360,79023,1,2
488,192,79423,1,0
368,24,79823,1,0
256,192,80223,1,4
144,24,80623,1,4
24,192,81023,1,4
24,280,81223,2,2,B|104:208|104:344|192:264,1,180
256,64,82023,5,0
192,128,82223,1,8
256,192,82423,1,0
320,128,82623,2,2,B|360:192|344:248|296:280|256:280,1,180
256,120,83423,1,2
296,48,83623,1,0
216,48,83823,1,8
176,120,84023,1,0
216,192,84223,2,0,B|216:288,1,90,2|0
296,280,84623,2,0,B|296:184,1,90,8|0
344,128,85023,6,2,B|416:114|463:198|452:271|419:308|361:310,2,270
256,344,86623,1,2
112,192,87023,1,8
400,192,87423,1,2
256,24,87823,1,8
256,104,88023,1,8
256,184,88223,6,2,B|320:184|320:256|256:288|200:256|200:184,2,180
256,184,89423,2,2,B|192:184|192:112|256:80|312:112|312:184,1,180,2|6
152,192,90223,5,8
360,192,90623,1,0
256,296,91023,1,8
256,88,91423,2,2,B|424:56|456:216,2,270
64,344,93423,5,8
256,248,93823,1,0
448,344,94223,1,8
256,248,94623,2,2,B|184:248|184:112|256:112|328:112|328:192,2,270
400,128,96223,2,2,B|472:128|472:264|400:264|328:264|328:184,2,270
256,48,97823,5,4
88,192,98223,1,8
256,48,98623,1,4
424,192,99023,1,8
256,336,99423,1,4
256,192,99523,12,0,101023
