osu file format v6

[General]
AudioFilename: tiesto ft tegan & sara - feel it in my bones.mp3
AudioLeadIn: 0
PreviewTime: 105986
Countdown: 1
SampleSet: Soft
StackLeniency: 0.7
Mode: 0
LetterboxInBreaks: 0
StoryFireInFront: 0

[Editor]
Bookmarks: 81524
DistanceSpacing: 0.899999976158142
BeatDivisor: 4
GridSize: 8

[Metadata]
Title:Feel It In My Bones
Artist:Tiesto ft. Tegan & Sara
Creator:Skyripper
Version:Normal
Source:
Tags:

[Difficulty]
HPDrainRate:4
CircleSize:4
OverallDifficulty:5
SliderMultiplier:1.6
SliderTickRate:2

[Events]
//Background and Video events
0,0,"tiesto-bg.jpg"
Video,0,"Tiesto feat. Tegan & Sara - Feel It In My Bones.avi"
//Break Periods
2,92570,104786
//Storyboard Layer 0 (Background)
//Storyboard Layer 1 (Fail)
//Storyboard Layer 2 (Pass)
//Storyboard Layer 3 (Foreground)
//Storyboard Sound Samples
//Background Colour Transformations
3,100,0,81,0

[TimingPoints]
18986,461.538461538462,4,2,0,100,1,0
119832,-100,4,1,0,61,0,0

[Colours]
Combo1 : 0,255,255
Combo2 : 0,255,0
Combo3 : 255,255,0

[HitObjects]
104,144,18985,2,0,B|128:32,2,80,2|0|2
352,328,20601,6,0,B|392:224,1,80,0|2
448,208,21062,2,0,B|480:120,2,80,0|2|0
368,176,21755,2,2,B|280:136,1,80
120,272,22678,6,0,B|48:312,2,80,2|0|2
480,32,24524,5,2
408,40,24755,1,0
344,72,24985,1,2
440,344,26370,6,2,B|360:280,1,80
400,224,26832,1,0
16,24,28216,5,2
64,80,28447,1,0
128,112,28678,1,2
256,320,30062,6,2,B|256:208,1,80
256,168,30524,1,0
408,88,32370,5,2
336,64,32601,2,0,B|248:32,1,80,0|2
192,64,33062,2,0,B|112:96,1,80
56,128,33524,6,0,B|40:240,1,80,0|2
80,272,33986,1,0
152,272,34216,2,0,B|256:272,2,80,0|0|2
152,200,34909,2,0,B|152:24,2,160,2|2|2
408,296,37216,5,2
408,224,37447,1,0
408,152,37678,2,2,B|408:40,1,80
272,32,38370,6,0,B|184:112,3,80,2|0|2|0
161,136,39293,2,0,B|80:208,4,80,2|0|2|2|6
216,344,40909,5,0
288,336,41139,2,0,B|392:336,1,80,2|0
440,328,41601,1,0
440,256,41832,1,0
368,248,42062,1,2
296,248,42293,2,0,B|104:248,1,160,2|0
64,248,42986,2,2,B|64:160,1,80
64,56,44601,5,0
136,48,44832,1,2
208,56,45062,1,2
280,48,45293,1,2
104,328,46909,5,0
176,328,47139,2,0,B|288:328,4,80,2|0|2|0|4
80,224,48524,5,2
32,88,48986,1,2
168,32,49447,1,2
224,168,49909,1,2
312,368,50601,5,0
376,336,50832,1,2
440,304,51062,2,2,B|376:232,1,80
328,280,51524,1,0
264,312,51755,2,0,B|144:168,1,160,0|2
264,88,52678,5,2
128,144,53139,1,2
184,280,53601,1,2
320,232,54062,1,2
384,200,54293,6,0,B|480:144,1,80,0|2
416,96,54755,2,0,B|320:72,1,80,0|2
264,72,55216,2,2,L|160:72,1,80
40,72,55909,1,2
40,144,56139,6,0,L|-8:144,2,40,0|0|2
40,216,56601,1,0
64,288,56832,2,0,L|160:288,1,80,2|0
216,288,57293,1,2
360,288,57755,1,2
416,240,57986,6,0,L|416:144,1,80,0|2
416,88,58447,1,0
344,88,58678,2,0,L|344:184,1,80,2|0
272,168,59139,1,2
128,168,59601,5,2
128,312,60062,1,2
272,312,60524,1,2
272,168,60986,1,2
256,208,61216,12,4,62832
72,56,63293,5,2
216,56,63755,1,2
464,320,64909,5,0
392,336,65139,2,0,L|288:336,1,80,2|0
240,336,65601,2,0,L|240:240,1,80,2|0
168,256,66062,2,2,L|168:352,1,80
232,128,66986,5,2
112,56,67447,1,2
456,168,68601,6,0,L|416:248,1,80,0|2
352,208,69062,1,2
384,144,69293,1,2
32,304,70678,5,2
104,304,70909,1,0
176,304,71139,1,2
504,24,72524,5,2
448,72,72755,1,0
496,128,72986,1,2
72,56,74370,6,0,L|32:144,2,80,2|2|0
256,336,76447,5,0
256,264,76678,2,0,L|256:160,1,80,2|0
256,112,77139,1,2
256,40,77370,1,0
256,112,77601,1,2
184,112,77832,5,0
112,96,78062,2,0,L|16:152,1,80,2|0
64,208,78524,1,2
96,272,78755,1,2
168,272,78986,1,2
168,344,79216,2,0,L|360:344,1,160,2|2
400,344,79909,1,2
400,344,80139,1,4
64,72,81524,5,2
64,72,81755,1,2
136,72,81986,1,0
136,72,82216,1,2
280,72,82678,5,2
352,72,82909,2,0,L|352:160,1,80,0|2
280,152,83370,1,0
280,224,83601,2,0,L|376:224,1,80,2|0
360,296,84062,2,0,L|272:296,1,80,2|2
208,296,84524,1,4
56,144,85216,5,0
56,72,85447,2,0,L|160:72,1,80,2|0
136,144,85909,1,2
136,144,86139,1,0
136,216,86370,1,2
56,216,86601,2,0,L|56:296|144:296,1,160,0|2
208,296,87293,2,2,L|208:200,1,80
448,304,88909,5,0
448,232,89139,1,2
376,232,89370,2,2,L|376:320,1,80
64,72,91216,5,0
64,144,91447,2,2,L|64:224,1,80
136,224,91909,1,2
208,224,92139,1,2
208,296,92370,1,4
256,40,105986,5,0
256,112,106216,2,2,L|256:200,1,80
256,264,106678,1,2
256,336,106909,1,2
256,264,107139,5,2
112,264,107601,1,2
112,120,108062,1,2
256,120,108524,1,2
256,264,108986,1,2
471,264,109678,5,0
472,192,109909,1,2
472,120,110139,1,0
400,120,110370,2,0,L|296:120,1,80,2|0
248,120,110832,1,2
248,264,111293,5,2
392,264,111755,1,2
392,120,112216,1,2
248,120,112678,1,2
248,264,113139,1,2
176,264,113370,5,0
104,264,113601,2,0,L|104:176,1,80,2|0
104,112,114062,2,0,L|200:112,1,80,2|0
184,40,114524,1,2
328,40,114986,1,2
328,112,115216,6,0,L|384:112,2,40,0|0|2
328,184,115678,1,0
328,256,115909,2,2,L|416:256,1,80
408,328,116370,1,2
264,328,116832,1,2
192,328,117062,5,0
192,256,117293,2,0,L|88:256,1,80,2|0
112,184,117755,2,2,L|208:184,1,80
264,184,118216,5,2
264,40,118678,1,2
408,40,119139,1,2
408,184,119601,1,2
256,208,120062,12,4,121909
