osu file format v14

[General]
AudioFilename: Secrets (Instant Party! Remix).mp3
AudioLeadIn: 0
PreviewTime: 56696
Countdown: 0
SampleSet: Soft
StackLeniency: 0.7
Mode: 0
LetterboxInBreaks: 1
WidescreenStoryboard: 0

[Editor]
Bookmarks: 17267,30972,58410,72125,85839,99553,113267,126982,144125,161267,202410,216125,229839,243553,257267,270982,284696
DistanceSpacing: 0.5
BeatDivisor: 4
GridSize: 4
TimelineZoom: 2.000006

[Metadata]
Title:Secrets (Instant Party! Remix)
TitleUnicode:Secrets (Instant Party! Remix)
Artist:Tiesto & KSHMR feat. VASSY
ArtistUnicode:Tieèˆsto & KSHMR feat. VASSY
Creator:Asonate
Version:Can you keep it?
Source:
Tags:festival trap trapcity electro house low bpm holds low SV jumpy deathstream acc
BeatmapID:978650
BeatmapSetID:455619

[Difficulty]
HPDrainRate:4
CircleSize:4.4
OverallDifficulty:8
ApproachRate:8.5
SliderMultiplier:1.5
SliderTickRate:1

[Events]
//Background and Video events
0,0,"BG.png",0,0
//Break Periods
//Storyboard Layer 0 (Background)
//Storyboard Layer 1 (Fail)
//Storyboard Layer 2 (Pass)
//Storyboard Layer 3 (Foreground)
//Storyboard Sound Samples

[TimingPoints]
125,428.571428571429,4,2,0,10,1,0
3125,-100,4,2,0,5,0,0
3553,-100,4,2,0,30,0,0
17267,-90.9090909090909,4,3,0,35,0,0
29267,-111.111111111111,4,3,0,30,0,0
29482,-111.111111111111,4,3,0,5,0,0
29589,-125,4,3,0,25,0,0
29803,-125,4,3,0,5,0,0
29910,-142.857142857143,4,3,0,20,0,0
30232,-142.857142857143,4,3,0,5,0,0
30339,-166.666666666667,4,3,0,15,0,0
30553,-200,4,3,0,10,0,0
30982,-133.333333333333,4,1,0,40,0,0
31303,-133.333333333333,4,1,0,5,0,0
31410,-133.333333333333,4,1,0,40,0,0
31732,-133.333333333333,4,1,0,5,0,0
31839,-133.333333333333,4,1,0,40,0,0
34732,-133.333333333333,4,1,0,5,0,0
34839,-133.333333333333,4,1,0,40,0,0
35160,-133.333333333333,4,1,0,5,0,0
35267,-133.333333333333,4,1,0,40,0,0
38160,-133.333333333333,4,1,0,5,0,0
38267,-133.333333333333,4,1,0,40,0,0
38589,-133.333333333333,4,1,0,5,0,0
38696,-133.333333333333,4,1,0,40,0,0
41589,-133.333333333333,4,1,0,5,0,0
41696,-133.333333333333,4,1,0,40,0,0
42017,-133.333333333333,4,1,0,5,0,0
42125,-133.333333333333,4,1,0,40,0,0
44696,-133.333333333333,4,3,0,40,0,0
51553,-133.333333333333,4,3,0,45,0,0
56696,-133.333333333333,4,2,0,30,0,0
57982,-200,4,3,0,45,0,0
58410,-200,4,3,0,50,0,1
58732,-200,4,3,0,5,0,1
58839,-200,4,3,0,50,0,1
59160,-200,4,3,0,5,0,1
59267,-200,4,3,0,50,0,1
60232,-200,4,3,0,5,0,1
60339,-200,4,3,0,50,0,1
60875,-200,4,3,0,5,0,1
60982,-200,4,3,0,50,0,1
62160,-200,4,3,0,5,0,1
62267,-200,4,3,0,50,0,1
62589,-200,4,3,0,5,0,1
62696,-200,4,3,0,50,0,1
63232,-200,4,3,0,5,0,1
63339,-200,4,3,0,50,0,1
63660,-200,4,3,0,5,0,1
63767,-200,4,3,0,50,0,1
64303,-200,4,3,0,5,0,1
64410,-200,4,3,0,50,0,1
65589,-200,4,3,0,5,0,1
65696,-200,4,3,0,50,0,1
66017,-200,4,3,0,5,0,1
66125,-200,4,3,0,50,0,1
67089,-200,4,3,0,5,0,1
67196,-200,4,3,0,50,0,1
67732,-200,4,3,0,5,0,1
67839,-200,4,3,0,50,0,1
69017,-200,4,3,0,5,0,1
69125,-200,4,3,0,50,0,1
69446,-200,4,3,0,5,0,1
69553,-200,4,3,0,50,0,1
70089,-200,4,3,0,5,0,1
70196,-200,4,3,0,50,0,1
72125,-100,4,3,0,50,0,1
85839,-133.333333333333,4,3,0,40,0,0
92696,-100,4,3,0,45,0,0
99125,-200,4,3,0,50,0,0
99553,-200,4,3,0,45,0,1
99875,-200,4,3,0,5,0,1
99982,-200,4,3,0,45,0,1
100303,-200,4,3,0,5,0,1
100410,-200,4,3,0,45,0,1
101589,-200,4,3,0,5,0,1
101696,-200,4,3,0,45,0,1
102017,-200,4,3,0,5,0,1
102125,-200,4,3,0,45,0,1
103303,-200,4,3,0,5,0,1
103410,-200,4,3,0,45,0,1
103732,-200,4,3,0,5,0,1
103839,-200,4,3,0,45,0,1
104375,-200,4,3,0,5,0,1
104482,-200,4,3,0,45,0,1
105446,-200,4,3,0,5,0,1
105553,-200,4,3,0,45,0,1
106732,-200,4,3,0,5,0,1
106839,-200,4,3,0,45,0,1
107160,-200,4,3,0,5,0,1
107267,-200,4,3,0,45,0,1
108446,-200,4,3,0,5,0,1
108553,-200,4,3,0,45,0,1
108875,-200,4,3,0,5,0,1
108982,-200,4,3,0,45,0,1
110160,-200,4,3,0,5,0,1
110267,-200,4,3,0,45,0,1
110589,-200,4,3,0,5,0,1
110696,-200,4,3,0,45,0,1
111232,-200,4,3,0,5,0,1
111339,-200,4,3,0,45,0,1
113267,-200,4,3,0,35,0,1
114125,-100,4,3,0,45,0,1
126982,-200,4,2,0,30,0,0
130196,-200,4,2,0,5,0,0
130410,-200,4,2,0,25,0,0
143696,-400,4,2,0,25,0,0
144125,-100,4,3,0,35,0,0
155910,-111.111111111111,4,3,0,35,0,0
156232,-111.111111111111,4,3,0,5,0,0
156339,-125,4,3,0,35,0,0
156660,-125,4,3,0,5,0,0
156767,-142.857142857143,4,3,0,35,0,0
157089,-142.857142857143,4,3,0,5,0,0
157196,-166.666666666667,4,3,0,35,0,0
157517,-166.666666666667,4,3,0,5,0,0
157625,-200,4,3,0,35,0,0
157732,-200,4,3,0,5,0,0
157839,-200,4,3,0,35,0,0
161267,-133.333333333333,4,1,0,40,0,0
161589,-133.333333333333,4,1,0,5,0,0
161696,-133.333333333333,4,1,0,40,0,0
162017,-133.333333333333,4,1,0,5,0,0
162125,-133.333333333333,4,1,0,40,0,0
165017,-133.333333333333,4,1,0,5,0,0
165125,-133.333333333333,4,1,0,40,0,0
165446,-133.333333333333,4,1,0,5,0,0
165553,-133.333333333333,4,1,0,40,0,0
168446,-133.333333333333,4,1,0,5,0,0
168553,-133.333333333333,4,1,0,40,0,0
168875,-133.333333333333,4,1,0,5,0,0
168982,-133.333333333333,4,1,0,40,0,0
171875,-133.333333333333,4,1,0,5,0,0
171982,-133.333333333333,4,1,0,40,0,0
172303,-133.333333333333,4,1,0,5,0,0
172410,-133.333333333333,4,1,0,40,0,0
174982,-133.333333333333,4,3,0,40,0,0
195553,-133.333333333333,4,3,0,40,0,0
200696,-133.333333333333,4,2,0,30,0,0
201982,-200,4,3,0,45,0,0
202410,-200,4,3,0,50,0,1
202732,-200,4,3,0,5,0,1
202839,-200,4,3,0,50,0,1
203160,-200,4,3,0,5,0,1
203267,-200,4,3,0,50,0,1
204232,-200,4,3,0,5,0,1
204339,-200,4,3,0,50,0,1
204875,-200,4,3,0,5,0,1
204982,-200,4,3,0,50,0,1
206160,-200,4,3,0,5,0,1
206267,-200,4,3,0,50,0,1
206589,-200,4,3,0,5,0,1
206696,-200,4,3,0,50,0,1
207232,-200,4,3,0,5,0,1
207339,-200,4,3,0,50,0,1
207660,-200,4,3,0,5,0,1
207767,-200,4,3,0,50,0,1
208303,-200,4,3,0,5,0,1
208410,-200,4,3,0,50,0,1
209589,-200,4,3,0,5,0,1
209696,-200,4,3,0,50,0,1
210017,-200,4,3,0,5,0,1
210125,-200,4,3,0,50,0,1
211089,-200,4,3,0,5,0,1
211196,-200,4,3,0,50,0,1
211732,-200,4,3,0,5,0,1
211839,-200,4,3,0,50,0,1
213017,-200,4,3,0,5,0,1
213125,-200,4,3,0,50,0,1
213446,-200,4,3,0,5,0,1
213553,-200,4,3,0,50,0,1
214089,-200,4,3,0,5,0,1
214196,-200,4,3,0,50,0,1
216125,-100,4,3,0,50,0,1
229839,-133.333333333333,4,3,1,40,0,0
236696,-100,4,3,0,45,0,0
243125,-200,4,3,0,50,0,0
243553,-200,4,3,0,45,0,1
243875,-200,4,3,0,5,0,1
243982,-200,4,3,0,45,0,1
244303,-200,4,3,0,5,0,1
244410,-200,4,3,0,45,0,1
245589,-200,4,3,0,5,0,1
245696,-200,4,3,0,45,0,1
246017,-200,4,3,0,5,0,1
246125,-200,4,3,0,45,0,1
247303,-200,4,3,0,5,0,1
247410,-200,4,3,0,45,0,1
247732,-200,4,3,0,5,0,1
247839,-200,4,3,0,45,0,1
248375,-200,4,3,0,5,0,1
248482,-200,4,3,0,45,0,1
249446,-200,4,3,0,5,0,1
249553,-200,4,3,0,45,0,1
250732,-200,4,3,0,5,0,1
250839,-200,4,3,0,45,0,1
251160,-200,4,3,0,5,0,1
251267,-200,4,3,0,45,0,1
252446,-200,4,3,0,5,0,1
252553,-200,4,3,0,45,0,1
252875,-200,4,3,0,5,0,1
252982,-200,4,3,0,45,0,1
254160,-200,4,3,0,5,0,1
254267,-200,4,3,0,45,0,1
254589,-200,4,3,0,5,0,1
254696,-200,4,3,0,45,0,1
255232,-200,4,3,0,5,0,1
255339,-200,4,3,0,45,0,1
257267,-200,4,3,0,35,0,1
258125,-100,4,3,0,45,0,1
270982,-200,4,2,0,25,0,0
284696,-200,4,2,0,20,0,0
298517,-200,4,2,0,15,0,0
300125,-200,4,2,0,5,0,0

[Colours]
Combo1 : 246,98,98
Combo2 : 186,182,202
Combo3 : 219,204,202
Combo4 : 156,173,250

[HitObjects]
256,192,125,12,0,3125,0:0:0:0:
160,288,3553,6,0,P|200:264|284:268,1,112.5,4|0,0:0|0:0,0:0:0:0:
292,268,3982,2,0,P|300:232|288:184,1,75,8|0,0:0|0:0,0:0:0:0:
160,124,4410,2,0,P|167:161|193:197,1,75
244,52,4839,5,8,0:0:0:0:
300,104,5053,2,0,P|332:128|448:124,1,150
508,100,5696,2,0,P|512:144|492:180,1,75,8|0,0:0|0:0,0:0:0:0:
360,228,6125,2,0,P|346:262|351:299,1,75
496,340,6553,37,8,0:0:0:0:
432,272,6767,1,0,0:0:0:0:
436,264,6875,1,0,0:0:0:0:
440,256,6982,2,0,P|440:200|412:160,1,75,4|0,0:0|0:0,0:0:0:0:
288,140,7410,1,8,0:0:0:0:
360,228,7625,1,0,0:0:0:0:
256,312,7839,2,0,P|294:311|328:296,1,75
136,180,8267,1,8,0:0:0:0:
220,220,8482,1,0,0:0:0:0:
60,320,8696,5,4,0:0:0:0:
96,96,8910,1,8,0:0:0:0:
97,104,9017,1,0,0:0:0:0:
99,113,9125,1,4,0:0:0:0:
196,56,9339,1,8,0:0:0:0:
194,64,9446,1,0,0:0:0:0:
194,73,9553,1,4,0:0:0:0:
296,28,9767,1,8,0:0:0:0:
291,35,9875,1,0,0:0:0:0:
289,43,9982,1,4,0:0:0:0:
400,32,10196,38,0,P|372:92|412:188,1,150,8|0,0:0|0:0,0:0:0:0:
512,51,10839,2,0,B|504:88|504:88|472:104,1,75,8|0,0:0|0:0,0:0:0:0:
504,212,11267,1,0,0:0:0:0:
468,300,11482,1,0,0:0:0:0:
472,312,11589,1,0,0:0:0:0:
476,324,11696,1,8,0:0:0:0:
364,228,11910,5,0,0:0:0:0:
363,200,12017,1,0,0:0:0:0:
368,172,12125,2,0,P|368:116|344:80,1,75,4|0,0:0|0:0,0:0:0:0:
272,204,12553,2,0,P|272:260|296:296,2,75,8|0|0,0:0|0:0|0:0,0:0:0:0:
396,344,13196,1,0,0:0:0:0:
408,228,13410,1,8,0:0:0:0:
504,296,13625,38,0,B|488:264|504:224|504:224|496:200|496:200|508:176|496:128,1,150,4|0,0:0|0:0,0:0:0:0:
472,48,14267,1,8,0:0:0:0:
376,91,14482,2,0,P|426:144|500:150,1,150,4|0,0:0|0:0,0:0:0:0:
472,48,15125,1,12,0:0:0:0:
400,264,15339,1,0,0:0:0:0:
248,92,15553,6,0,P|228:128|228:188,1,75,4|0,0:0|0:0,0:0:0:0:
352,80,15982,1,8,0:0:0:0:
400,264,16196,2,0,B|440:240|436:168|436:168|460:192|468:236,1,150,4|0,0:0|0:0,0:0:0:0:
352,192,16839,1,12,0:0:0:0:
340,188,17267,37,12,0:0:0:0:
448,104,17482,1,0,0:0:0:0:
452,96,17589,1,0,0:0:0:0:
456,88,17696,1,8,0:0:0:0:
496,208,17910,1,0,0:0:0:0:
328,88,18125,2,0,P|288:72|224:72,1,82.5000025177003,8|0,0:0|0:0,0:0:0:0:
340,188,18553,1,8,0:0:0:0:
172,224,18767,1,0,0:0:0:0:
376,296,18982,6,0,P|404:268|416:208,1,82.5000025177003,12|0,0:0|0:0,0:0:0:0:
328,88,19410,1,8,0:0:0:0:
284,272,19625,1,0,0:0:0:0:
340,188,19839,2,0,L|244:164,1,82.5000025177003,8|0,0:0|0:0,0:0:0:0:
160,88,20267,1,8,0:0:0:0:
284,272,20482,37,4,0:0:0:0:
280,280,20589,1,0,0:0:0:0:
276,288,20696,1,8,0:0:0:0:
164,232,20910,1,0,0:0:0:0:
165,243,21017,1,0,0:0:0:0:
166,255,21125,1,8,0:0:0:0:
252,164,21339,1,0,0:0:0:0:
372,332,21553,2,0,P|388:292|384:240,1,82.5000025177003,8|0,0:0|0:0,0:0:0:0:
484,312,21982,2,0,P|489:269|479:217,1,82.5000025177003,8|0,0:0|0:0,0:0:0:0:
328,92,22410,5,12,0:0:0:0:
280,240,22625,1,0,0:0:0:0:
387,253,22839,1,8,0:0:0:0:
256,164,23053,1,0,0:0:0:0:
332,80,23267,1,8,0:0:0:0:
276,252,23482,1,0,0:0:0:0:
408,152,23696,1,8,0:0:0:0:
180,60,23910,38,0,B|164:96|184:132|184:132|176:184|176:184|196:224|172:280,1,206.250006294251,4|0,0:0|0:0,0:0:0:0:
164,300,24553,6,0,P|200:268|256:256,1,82.5000025177003,12|0,0:0|0:0,0:0:0:0:
428,268,24982,1,8,0:0:0:0:
356,132,25196,1,0,0:0:0:0:
340,316,25410,1,8,0:0:0:0:
424,184,25625,37,4,0:0:0:0:
432,172,25732,1,0,0:0:0:0:
440,160,25839,2,0,P|456:104|452:72,1,82.5000025177003,8|0,0:0|0:0,0:0:0:0:
356,132,26267,2,0,P|356:73|344:43,1,82.5000025177003,8|0,0:0|0:0,0:0:0:0:
268,128,26696,2,0,P|253:71|234:45,1,82.5000025177003,8|0,0:0|0:0,0:0:0:0:
184,148,27125,1,8,0:0:0:0:
312,252,27339,1,0,0:0:0:0:
112,304,27553,5,12,0:0:0:0:
264,356,27767,1,0,0:0:0:0:
276,360,27875,1,0,0:0:0:0:
288,364,27982,1,8,0:0:0:0:
212,244,28196,1,0,0:0:0:0:
350,183,28410,2,0,P|340:222|312:252,1,82.5000025177003,8|0,0:0|0:0,0:0:0:0:
288,88,28839,1,8,0:0:0:0:
484,152,29053,1,0,0:0:0:0:
204,144,29267,38,0,P|188:112|188:76,1,67.4999979400635,12|0,0:0|0:0,0:0:0:0:
192,52,29589,6,0,B|168:44|168:44|148:48|124:40,1,60,12|0,0:0|0:0,0:0:0:0:
108,36,29910,38,0,P|96:68|100:112,1,78.7499975967408,12|0,0:0|0:0,0:0:0:0:
108,132,30339,6,0,P|116:164|116:184,1,44.999998626709,12|0,0:0|0:0,0:0:0:0:
104,288,30982,6,0,B|96:344|96:344|120:368,1,84.3750032186509,10|0,0:0|0:0,0:0:0:0:
184,256,31410,2,0,B|190:312|190:312|220:329,1,84.3750032186509,10|0,0:0|0:0,0:0:0:0:
256,204,31839,1,12,0:0:0:0:
260,176,31946,1,0,0:0:0:0:
416,240,32160,1,4,0:0:0:0:
389,250,32267,1,8,0:0:0:0:
420,84,32482,6,0,P|464:96|480:116,1,56.2500021457673,4|8,0:0|0:0,0:0:0:0:
332,116,32910,1,4,0:0:0:0:
428,352,33125,1,8,0:0:0:0:
416,344,33553,37,10,0:2:0:0:
172,264,33767,1,6,0:2:0:0:
324,104,33982,1,10,0:2:0:0:
280,348,34196,1,6,0:2:0:0:
120,152,34410,6,0,P|108:108|116:60,1,84.3750032186509,10|0,0:0|0:0,0:0:0:0:
48,212,34839,2,0,P|25:172|20:124,1,84.3750032186509,10|0,0:0|0:0,0:0:0:0:
136,248,35267,1,12,0:0:0:0:
164,252,35375,1,0,0:0:0:0:
288,136,35589,1,4,0:0:0:0:
284,164,35696,1,8,0:0:0:0:
440,104,35910,38,0,P|448:140|444:184,1,56.2500021457673,4|8,0:0|0:0,0:0:0:0:
408,320,36339,1,4,0:0:0:0:
280,124,36553,1,8,0:0:0:0:
272,112,36982,5,10,0:2:0:0:
416,332,37196,1,6,0:2:0:0:
144,272,37410,1,10,0:2:0:0:
440,104,37625,1,6,0:2:0:0:
272,344,37839,38,0,B|260:304|260:304|272:252,1,84.3750032186509,10|0,0:0|0:0,0:0:0:0:
384,176,38267,2,0,B|393:217|393:217|381:257,1,84.3750032186509,10|0,0:0|0:0,0:0:0:0:
300,140,38696,1,12,0:0:0:0:
304,112,38803,1,0,0:0:0:0:
180,232,39017,1,4,0:0:0:0:
176,204,39124,1,8,0:0:0:0:
272,344,39339,6,0,L|280:264,1,56.2500021457673,4|8,0:0|0:0,0:0:0:0:
124,360,39767,1,4,0:0:0:0:
400,252,39982,1,8,0:0:0:0:
408,260,40410,37,10,0:2:0:0:
176,204,40625,1,6,0:2:0:0:
408,60,40839,1,10,0:2:0:0:
272,304,41053,1,6,0:2:0:0:
444,172,41267,6,0,B|444:164|468:184|444:192|444:192|416:180|392:184,1,84.3750032186509,10|0,0:0|0:0,0:0:0:0:
356,272,41696,2,0,B|356:280|332:260|356:252|356:252|384:264|408:260,1,84.3750032186509,10|0,0:0|0:0,0:0:0:0:
480,380,42125,1,12,0:0:0:0:
484,352,42232,1,0,0:0:0:0:
396,184,42446,1,4,0:0:0:0:
388,156,42553,1,8,0:0:0:0:
248,296,42767,2,0,P|240:260|244:220,1,56.2500021457673,4|8,0:0|0:0,0:0:0:0:
400,360,43196,1,4,0:0:0:0:
196,88,43410,1,8,0:0:0:0:
204,76,43839,37,10,0:2:0:0:
116,352,44053,1,6,0:2:0:0:
416,144,44267,1,10,0:2:0:0:
84,192,44482,1,6,0:2:0:0:
400,360,44696,22,0,P|392:320|396:288,1,56.2500021457673,12|0,0:0|0:0,0:0:0:0:
416,144,45125,1,8,0:0:0:0:
468,244,45339,1,4,0:0:0:0:
356,240,45553,2,0,P|328:244|288:276,1,56.2500021457673,12|0,0:0|0:0,0:0:0:0:
232,360,45982,1,8,0:0:0:0:
176,264,46196,1,0,0:0:0:0:
172,152,46410,6,0,P|216:156|244:180,1,56.2500021457673,12|0,0:0|0:0,0:0:0:0:
176,264,46839,1,8,0:0:0:0:
68,236,47053,1,0,0:0:0:0:
28,132,47267,2,0,B|45:108|45:108|82:84,1,56.2500021457673,12|0,0:0|0:0,0:0:0:0:
172,152,47696,1,8,0:0:0:0:
256,68,47910,1,6,0:0:0:0:
96,356,48125,38,0,B|124:364|156:356|156:356|184:368|184:368|196:352|184:332,1,112.500004291535,14|8,0:0|0:0,0:0:0:0:
172,152,48767,1,6,0:0:0:0:
440,340,48982,2,0,P|456:304|456:264,1,56.2500021457673,14|0,0:0|0:0,0:0:0:0:
328,140,49410,2,0,P|332:179|352:213,1,56.2500021457673,10|0,0:0|0:0,0:0:0:0:
404,102,49839,6,0,P|383:72|348:62,1,56.2500021457673,8|0,0:0|0:0,0:0:0:0:
321,225,50267,2,0,P|357:221|383:196,1,56.2500021457673,8|0,0:0|0:0,0:0:0:0:
257,92,50696,2,0,P|241:125|251:159,1,56.2500021457673,8|0,0:0|0:0,0:0:0:0:
328,140,51125,1,10,0:0:0:0:
88,72,51339,1,6,0:0:0:0:
168,328,51553,5,12,0:0:0:0:
193,315,51660,1,0,0:0:0:0:
219,306,51767,1,4,0:0:0:0:
247,301,51874,1,0,0:0:0:0:
275,300,51981,1,4,0:0:0:0:
303,303,52088,1,0,0:0:0:0:
331,310,52195,1,4,0:0:0:0:
357,320,52302,1,0,0:0:0:0:
381,333,52410,6,0,L|372:296,1,28.1250010728836,8|0,0:0|0:0,0:0:0:0:
328,188,52625,2,0,L|327:216,1,28.1250010728836,8|0,0:0|0:0,0:0:0:0:
472,228,52839,2,0,L|482:191,1,28.1250010728836,8|0,0:0|0:0,0:0:0:0:
388,80,53053,2,0,L|368:112,1,28.1250010728836,8|0,0:0|0:0,0:0:0:0:
436,139,53267,37,4,0:0:0:0:
460,105,53374,1,0,0:0:0:0:
463,63,53482,1,4,0:0:0:0:
443,27,53589,1,0,0:0:0:0:
407,5,53695,1,4,0:0:0:0:
366,6,53802,1,0,0:0:0:0:
330,28,53909,1,4,0:0:0:0:
312,65,54016,1,0,0:0:0:0:
315,107,54125,6,0,L|288:84,1,28.1250010728836,8|0,0:0|0:0,0:0:0:0:
180,172,54339,2,0,L|212:156,1,28.1250010728836,8|0,0:0|0:0,0:0:0:0:
344,232,54553,2,0,L|308:225,1,28.1250010728836,8|0,0:0|0:0,0:0:0:0:
156,280,54767,2,0,L|192:283,1,28.1250010728836,8|0,0:0|0:0,0:0:0:0:
352,360,54982,37,8,0:0:0:0:
298,342,55089,1,4,0:0:0:0:
242,340,55196,1,8,0:0:0:0:
188,354,55303,1,4,0:0:0:0:
140,383,55410,5,8,0:0:0:0:
84,384,55517,1,4,0:0:0:0:
35,356,55624,1,8,0:0:0:0:
23,300,55731,1,4,0:0:0:0:
53,250,55839,37,8,0:0:0:0:
27,195,55946,1,4,0:0:0:0:
42,136,56053,1,8,0:0:0:0:
91,101,56160,1,4,0:0:0:0:
152,104,56267,5,8,0:0:0:0:
214,122,56374,1,4,0:0:0:0:
278,126,56482,1,8,0:0:0:0:
342,115,56588,1,4,0:0:0:0:
401,90,56696,5,12,0:0:0:0:
407,100,57126,5,4,0:0:0:0:
415,108,57554,37,4,0:0:0:0:
331,256,57768,1,4,0:0:0:0:
68,92,57983,1,12,0:0:0:0:
53,69,58410,22,0,B|86:81|86:81|58:97,1,56.25,12|0,0:0|0:0,0:0:0:0:
304,160,58839,2,0,B|271:172|271:172|299:188,1,56.25,12|0,0:0|0:0,0:0:0:0:
76,300,59267,2,0,L|68:344,2,37.5,4|0|0,0:0|0:0|0:0,0:0:0:0:
429,323,59910,2,0,B|444:335|444:335|436:299,1,56.25,12|0,0:0|0:0,0:0:0:0:
364,64,60339,5,12,0:0:0:0:
76,300,60553,2,0,B|68:324|68:324|88:336|88:336|84:320,1,56.25,12|0,0:0|0:0,0:0:0:0:
72,284,60982,1,4,0:0:0:0:
344,352,61196,2,0,L|336:316,1,37.5,12|0,0:0|0:0,0:0:0:0:
264,80,61625,1,12,0:0:0:0:
68,268,61839,38,0,B|64:286|64:286|52:262|56:250,1,56.25,12|0,0:0|0:0,0:0:0:0:
172,36,62267,2,0,B|175:17|175:17|187:41|183:53,1,56.25,12|0,0:0|0:0,0:0:0:0:
60,280,62696,1,4,0:0:0:0:
368,136,62910,2,0,P|388:140|364:148,1,56.25,12|0,0:0|0:0,0:0:0:0:
268,292,63339,2,0,P|248:288|272:280,1,56.25,12|0,0:0|0:0,0:0:0:0:
400,376,63767,5,12,0:0:0:0:
248,32,63982,2,0,P|228:52|216:92,1,56.25,12|0,0:0|0:0,0:0:0:0:
264,24,64410,1,4,0:0:0:0:
128,320,64625,2,0,L|160:308,1,18.75,12|0,0:0|0:0,0:0:0:0:
432,216,64839,1,8,0:0:0:0:
72,64,65053,2,0,L|100:76,1,18.75,12|0,0:0|0:0,0:0:0:0:
448,224,65267,38,0,B|440:192|440:192|424:192|424:192|428:204,1,56.25,12|0,0:0|0:0,0:0:0:0:
452,320,65696,2,0,B|460:352|460:352|476:352|476:352|472:340,1,56.25,12|0,0:0|0:0,0:0:0:0:
296,312,66125,2,0,P|284:336|284:356,2,37.5,4|0|0,0:0|0:0|0:0,0:0:0:0:
244,36,66767,2,0,B|248:24|232:12|224:36|240:56|240:56|232:76,1,56.25,12|0,0:0|0:0,0:0:0:0:
240,248,67196,5,12,0:0:0:0:
440,64,67410,2,0,B|452:88|440:108|424:104|428:84,1,56.25,12|0,0:0|0:0,0:0:0:0:
436,48,67839,1,4,0:0:0:0:
228,256,68053,2,0,P|212:236|208:212,1,37.5,12|0,0:0|0:0,0:0:0:0:
432,344,68482,1,12,0:0:0:0:
108,312,68696,38,0,L|100:252,1,56.25,12|0,0:0|0:0,0:0:0:0:
235,200,69125,2,0,L|227:260,1,56.25,12|0,0:0|0:0,0:0:0:0:
120,112,69553,1,4,0:0:0:0:
240,368,69767,2,0,B|256:356|256:332|256:332|236:344,1,56.25,12|0,0:0|0:0,0:0:0:0:
232,384,70196,5,12,0:0:0:0:
448,280,70410,2,0,L|456:276,3,6.25,8|0|0|0,0:0|0:0|0:0|0:0,0:0:0:0:
372,228,70625,1,4,0:0:0:0:
432,180,70732,2,0,L|438:174,3,6.25,8|0|0|0,0:0|0:0|0:0|0:0,0:0:0:0:
320,164,70946,1,4,0:0:0:0:
365,102,71053,2,0,L|369:94,3,6.25,8|0|0|0,0:0|0:0|0:0|0:0,0:0:0:0:
252,116,71267,1,4,0:0:0:0:
320,324,71482,1,4,0:0:0:0:
100,224,71696,1,4,0:0:0:0:
59,281,71803,1,4,0:0:0:0:
101,337,71910,1,4,0:0:0:0:
167,314,72017,1,4,0:0:0:0:
166,244,72125,37,12,0:0:0:0:
197,264,72232,1,0,0:0:0:0:
232,275,72339,1,0,0:0:0:0:
269,271,72446,1,0,0:0:0:0:
303,254,72553,1,12,0:0:0:0:
332,231,72660,1,0,0:0:0:0:
366,215,72767,1,0,0:0:0:0:
403,212,72874,1,0,0:0:0:0:
438,224,72982,6,0,P|424:196|424:172,1,37.5,4|0,0:0|0:0,0:0:0:0:
512,252,73196,2,0,P|494:279|473:291,1,37.5,4|0,0:0|0:0,0:0:0:0:
412,104,73410,2,0,P|444:105|465:117,1,37.5,4|0,0:0|0:0,0:0:0:0:
300,152,73625,2,0,L|284:136,2,18.75,12|0|0,0:0|0:0|0:0,0:0:0:0:
366,215,73839,38,0,L|360:244,2,25,4|0|0,0:0|0:0|0:0,0:0:0:0:
424,280,74053,2,0,L|430:309,2,25,12|0|0,0:0|0:0|0:0,0:0:0:0:
376,356,74267,1,12,0:0:0:0:
340,343,74375,1,0,0:0:0:0:
303,337,74481,1,0,0:0:0:0:
266,339,74588,1,0,0:0:0:0:
230,349,74696,6,0,P|244:316|244:300,1,37.5,4|0,0:0|0:0,0:0:0:0:
120,324,74910,2,0,P|116:336|120:348,2,18.75,12|0|0,0:0|0:0|0:0,0:0:0:0:
44,372,75125,2,0,P|36:356|32:328,1,37.5,4|0,0:0|0:0,0:0:0:0:
104,160,75339,1,0,0:0:0:0:
112,176,75446,1,0,0:0:0:0:
120,192,75553,37,12,0:0:0:0:
138,159,75660,1,0,0:0:0:0:
170,142,75767,1,0,0:0:0:0:
207,144,75874,1,0,0:0:0:0:
237,166,75981,1,12,0:0:0:0:
251,200,76088,1,0,0:0:0:0:
245,236,76195,1,0,0:0:0:0:
221,264,76302,1,0,0:0:0:0:
185,274,76410,1,4,0:0:0:0:
336,320,76625,5,12,0:0:0:0:
344,312,76732,1,0,0:0:0:0:
352,304,76839,1,0,0:0:0:0:
360,296,76946,1,0,0:0:0:0:
368,288,77053,2,0,L|392:264,2,18.75,12|0|0,0:0|0:0|0:0,0:0:0:0:
344,188,77267,38,0,L|340:164,2,25,4|0|0,0:0|0:0|0:0,0:0:0:0:
254,203,77482,2,0,L|250:227,2,25,12|0|0,0:0|0:0|0:0,0:0:0:0:
168,188,77696,1,12,0:0:0:0:
115,172,77803,1,0,0:0:0:0:
87,125,77910,1,0,0:0:0:0:
99,71,78017,1,0,0:0:0:0:
145,41,78125,6,0,L|172:32,2,18.75,12|0|0,0:0|0:0|0:0,0:0:0:0:
240,104,78339,2,0,L|266:113,2,18.75,12|0|0,0:0|0:0|0:0,0:0:0:0:
343,61,78553,1,4,0:0:0:0:
364,56,78660,1,0,0:0:0:0:
416,132,78767,1,4,0:0:0:0:
395,127,78875,1,0,0:0:0:0:
464,72,78982,37,12,0:0:0:0:
486,101,79089,1,0,0:0:0:0:
492,138,79196,1,0,0:0:0:0:
480,173,79303,1,0,0:0:0:0:
458,203,79410,1,12,0:0:0:0:
430,228,79517,1,0,0:0:0:0:
418,263,79624,1,0,0:0:0:0:
424,299,79731,1,0,0:0:0:0:
434,335,79839,6,0,P|408:331|384:335,1,37.5,4|0,0:0|0:0,0:0:0:0:
289,381,80053,2,0,P|315:385|339:381,1,37.5,4|0,0:0|0:0,0:0:0:0:
260,248,80267,2,0,P|243:268|234:291,1,37.5,4|0,0:0|0:0,0:0:0:0:
332,172,80482,2,0,L|336:140,2,18.75,12|0|0,0:0|0:0|0:0,0:0:0:0:
204,132,80696,38,0,L|156:124,2,25,4|0|0,0:0|0:0|0:0,0:0:0:0:
260,80,80910,2,0,L|308:72,2,25,12|0|0,0:0|0:0|0:0,0:0:0:0:
216,16,81125,1,12,0:0:0:0:
178,21,81232,1,0,0:0:0:0:
142,30,81339,1,0,0:0:0:0:
107,42,81446,1,0,0:0:0:0:
73,58,81553,6,0,P|68:80|72:104,1,37.5,4|0,0:0|0:0,0:0:0:0:
128,212,81767,2,0,L|124:248,2,18.75,12|0|0,0:0|0:0|0:0,0:0:0:0:
72,300,81982,2,0,P|104:316|112:316,1,37.5,4|0,0:0|0:0,0:0:0:0:
248,280,82196,1,0,0:0:0:0:
256,292,82303,1,0,0:0:0:0:
264,304,82410,37,12,0:0:0:0:
270,267,82517,1,0,0:0:0:0:
299,245,82624,1,0,0:0:0:0:
336,249,82731,1,0,0:0:0:0:
360,276,82839,1,12,0:0:0:0:
384,303,82946,1,0,0:0:0:0:
420,306,83053,1,0,0:0:0:0:
449,284,83160,1,0,0:0:0:0:
456,248,83267,1,4,0:0:0:0:
372,116,83482,5,12,0:0:0:0:
361,118,83589,1,0,0:0:0:0:
351,123,83696,1,0,0:0:0:0:
343,130,83803,1,0,0:0:0:0:
391,186,83910,2,0,L|413:197,2,18.75,12|0|0,0:0|0:0|0:0,0:0:0:0:
335,249,84125,38,0,L|324:260,3,12.5,8|0|0|0,0:0|0:0|0:0|0:0,0:0:0:0:
264,184,84339,1,0,0:0:0:0:
253,259,84446,2,0,L|251:273,3,12.5,8|0|0|0,0:0|0:0|0:0|0:0,0:0:0:0:
148,244,84660,1,0,0:0:0:0:
188,308,84767,2,0,L|197:320,3,12.5,8|0|0|0,0:0|0:0|0:0|0:0,0:0:0:0:
80,328,84982,1,4,0:0:0:0:
391,186,85196,1,4,0:0:0:0:
120,32,85410,1,4,0:0:0:0:
167,85,85517,1,4,0:0:0:0:
142,152,85624,1,4,0:0:0:0:
72,161,85731,1,4,0:0:0:0:
30,103,85839,22,0,P|37:130|32:174,2,56.2500021457673,10|0|8,0:0|0:0|0:0,0:0:0:0:
80,328,86482,1,6,0:0:0:0:
208,216,86696,2,0,P|220:180|220:140,1,56.2500021457673,14|0,0:0|0:0,0:0:0:0:
264,288,87125,2,0,P|252:324|252:364,1,56.2500021457673,14|0,0:0|0:0,0:0:0:0:
440,200,87553,5,8,0:0:0:0:
401,125,87767,1,0,0:0:0:0:
325,159,87982,1,8,0:0:0:0:
363,234,88196,1,0,0:0:0:0:
440,200,88410,1,8,0:0:0:0:
416,80,88625,1,0,0:0:0:0:
325,159,88839,1,8,0:0:0:0:
440,200,89053,1,6,0:0:0:0:
80,70,89267,38,0,B|70:91|74:120|74:120|70:143|70:143|91:156|91:156|89:137,1,112.500004291535,14|8,0:0|0:0,0:0:0:0:
301,37,89910,1,6,0:0:0:0:
192,304,90125,2,0,P|210:336|237:355,1,56.2500021457673,14|0,0:0|0:0,0:0:0:0:
363,264,90553,2,0,P|337:251|310:247,1,56.2500021457673,10|0,0:0|0:0,0:0:0:0:
108,308,90982,6,0,L|102:364,1,56.2500021457673,8|0,0:0|0:0,0:0:0:0:
29,215,91410,2,0,L|34:271,1,56.2500021457673,8|0,0:0|0:0,0:0:0:0:
202,199,91839,2,0,L|196:255,1,56.2500021457673,8|0,0:0|0:0,0:0:0:0:
23,137,92267,1,14,0:0:0:0:
187,332,92482,1,6,0:0:0:0:
336,192,92696,5,12,0:0:0:0:
360,164,92803,1,0,0:0:0:0:
395,152,92910,1,4,0:0:0:0:
431,162,93017,1,0,0:0:0:0:
456,189,93125,1,4,0:0:0:0:
464,225,93232,1,0,0:0:0:0:
451,259,93339,1,4,0:0:0:0:
421,282,93446,1,0,0:0:0:0:
385,286,93553,6,0,L|336:280,1,37.5,8|0,0:0|0:0,0:0:0:0:
200,216,93767,2,0,L|249:222,1,37.5,8|0,0:0|0:0,0:0:0:0:
333,341,93982,2,0,L|302:302,1,37.5,8|0,0:0|0:0,0:0:0:0:
251,160,94196,2,0,L|282:199,1,37.5,8|0,0:0|0:0,0:0:0:0:
264,368,94410,37,4,0:0:0:0:
209,380,94517,1,0,0:0:0:0:
153,374,94624,1,4,0:0:0:0:
103,350,94731,1,0,0:0:0:0:
63,310,94838,1,4,0:0:0:0:
39,260,94945,1,0,0:0:0:0:
34,204,95052,1,4,0:0:0:0:
47,149,95159,1,0,0:0:0:0:
77,102,95267,6,0,P|88:80|92:52,1,37.5,8|0,0:0|0:0,0:0:0:0:
251,160,95482,2,0,P|248:134|238:108,1,37.5,8|0,0:0|0:0,0:0:0:0:
160,144,95696,2,0,P|164:119|160:91,1,37.5,8|0,0:0|0:0,0:0:0:0:
344,148,95910,2,0,P|335:124|318:101,1,37.5,8|0,0:0|0:0,0:0:0:0:
432,112,96125,37,8,0:0:0:0:
438,167,96232,1,4,0:0:0:0:
412,216,96339,1,8,0:0:0:0:
363,242,96446,1,4,0:0:0:0:
308,238,96553,5,8,0:0:0:0:
356,270,96660,1,4,0:0:0:0:
358,328,96767,1,8,0:0:0:0:
314,365,96874,1,4,0:0:0:0:
258,352,96982,37,8,0:0:0:0:
197,334,97089,1,4,0:0:0:0:
133,328,97196,1,8,0:0:0:0:
70,334,97303,1,4,0:0:0:0:
9,352,97410,5,8,0:0:0:0:
63,313,97517,1,4,0:0:0:0:
96,254,97624,1,8,0:0:0:0:
99,188,97731,1,4,0:0:0:0:
72,126,97839,38,0,L|104:132,1,18.75,12|0,0:0|0:0,0:0:0:0:
114,257,98053,2,0,L|95:253,1,18.75,12|0,0:0|0:0,0:0:0:0:
72,126,98267,1,4,0:0:0:0:
204,168,98482,1,8,0:0:0:0:
208,180,98589,1,0,0:0:0:0:
212,192,98696,2,0,L|228:172,1,18.75,12|0,0:0|0:0,0:0:0:0:
196,84,98910,2,0,L|189:102,1,18.75,12|0,0:0|0:0,0:0:0:0:
360,244,99125,1,12,0:0:0:0:
372,232,99553,6,0,P|389:208|393:173,1,56.25,12|0,0:0|0:0,0:0:0:0:
279,135,99982,2,0,P|291:161|319:182,1,56.25,12|0,0:0|0:0,0:0:0:0:
372,92,100410,1,4,0:0:0:0:
176,214,100625,2,0,P|166:179|165:169,1,37.5
243,254,101053,38,0,L|240:277,1,18.75,12|0,0:0|0:0,0:0:0:0:
160,300,101267,2,0,P|138:308|104:289,1,56.25,12|0,0:0|0:0,0:0:0:0:
84,208,101696,2,0,P|108:206|136:234,1,56.25,12|0,0:0|0:0,0:0:0:0:
137,362,102125,2,0,P|125:359|115:343,1,18.75,4|0,0:0|0:0,0:0:0:0:
243,254,102339,2,0,P|254:256|264:272,1,18.75,12|0,0:0|0:0,0:0:0:0:
54,296,102553,1,8,0:0:0:0:
47,283,102982,6,0,L|59:215,1,56.25,12|0,0:0|0:0,0:0:0:0:
137,362,103410,2,0,L|125:294,1,56.25,12|0,0:0|0:0,0:0:0:0:
28,364,103839,1,4,0:0:0:0:
200,214,104053,2,0,P|220:232|236:265,1,56.25,12|0,0:0|0:0,0:0:0:0:
125,231,104482,38,0,P|123:215|125:208,1,18.75,12|0,0:0|0:0,0:0:0:0:
28,363,104696,2,0,P|30:354|35:347,1,18.75,12|0,0:0|0:0,0:0:0:0:
142,317,104910,2,0,P|140:326|139:335,1,18.75,12|0,0:0|0:0,0:0:0:0:
36,188,105125,2,0,P|60:156|76:147,1,56.25,12|0,0:0|0:0,0:0:0:0:
125,231,105553,1,4,0:0:0:0:
387,231,105767,2,0,P|389:215|387:208,1,18.75,12|0,0:0|0:0,0:0:0:0:
492,276,105982,2,0,P|489:260|486:253,1,18.75
432,384,106196,2,0,P|433:367|431:360,1,18.75,12|0,0:0|0:0,0:0:0:0:
387,231,106410,6,0,P|375:261|380:292,1,56.25,12|0,0:0|0:0,0:0:0:0:
274,339,106839,2,0,P|286:309|281:278,1,56.25,12|0,0:0|0:0,0:0:0:0:
399,378,107267,1,4,0:0:0:0:
209,251,107482,2,0,P|202:272|202:291,1,37.5
245,186,107910,38,0,L|238:165,1,18.75,12|0,0:0|0:0,0:0:0:0:
165,134,108125,2,0,L|174:76,1,56.25,12|0,0:0|0:0,0:0:0:0:
232,200,108553,2,0,L|209:254,1,56.25,12|0,0:0|0:0,0:0:0:0:
113,116,108982,2,0,L|131:93,1,18.75,4|0,0:0|0:0,0:0:0:0:
245,186,109196,2,0,L|226:208,1,18.75,12|0,0:0|0:0,0:0:0:0:
268,43,109410,1,8,0:0:0:0:
271,24,109839,6,0,L|261:87,1,56.25,12|0,0:0|0:0,0:0:0:0:
368,162,110267,2,0,L|358:99,1,56.25,12|0,0:0|0:0,0:0:0:0:
245,186,110696,1,4,0:0:0:0:
394,314,110910,2,0,P|361:328|337:329,1,56.25,12|0,0:0|0:0,0:0:0:0:
278,268,111339,2,0,L|252:277,1,18.75,12|0,0:0|0:0,0:0:0:0:
183,283,111553,38,0,L|182:291,3,6.25,8|0|0|0,0:0|0:0|0:0|0:0,0:0:0:0:
138,186,111767,1,4,0:0:0:0:
122,112,111875,2,0,L|121:104,3,6.25,8|0|0|0,0:0|0:0|0:0|0:0,0:0:0:0:
73,238,112089,1,4,0:0:0:0:
64,312,112196,2,0,L|63:320,3,6.25,8|0|0|0,0:0|0:0|0:0|0:0,0:0:0:0:
17,156,112410,1,4,0:0:0:0:
136,348,112625,1,4,0:0:0:0:
293,199,112839,1,4,0:0:0:0:
362,192,112946,1,4,0:0:0:0:
391,256,113053,1,4,0:0:0:0:
339,303,113160,1,4,0:0:0:0:
278,268,113267,21,12,0:0:0:0:
276,275,113696,5,12,0:0:0:0:
274,282,114125,5,12,0:0:0:0:
183,176,114339,1,0,0:0:0:0:
183,185,114446,1,0,0:0:0:0:
184,194,114553,1,0,0:0:0:0:
185,204,114660,1,0,0:0:0:0:
185,213,114767,5,12,0:0:0:0:
130,210,114874,1,0,0:0:0:0:
86,242,114981,1,0,0:0:0:0:
72,296,115088,1,0,0:0:0:0:
94,346,115195,1,0,0:0:0:0:
144,370,115302,1,0,0:0:0:0:
198,358,115410,1,12,0:0:0:0:
253,347,115517,1,0,0:0:0:0:
309,347,115624,1,0,0:0:0:0:
364,357,115731,1,0,0:0:0:0:
416,377,115839,38,0,L|435:387,2,18.75,4|0|0,0:0|0:0|0:0,0:0:0:0:
481,324,116053,2,0,P|468:302|459:279,1,37.5,12|0,0:0|0:0,0:0:0:0:
487,104,116267,1,0,0:0:0:0:
492,111,116374,1,0,0:0:0:0:
496,119,116481,1,0,0:0:0:0:
501,128,116588,1,0,0:0:0:0:
504,136,116695,5,12,0:0:0:0:
512,83,116803,1,0,0:0:0:0:
497,32,116910,1,0,0:0:0:0:
449,5,117017,1,0,0:0:0:0:
394,13,117124,1,12,0:0:0:0:
356,53,117231,1,0,0:0:0:0:
350,108,117338,1,0,0:0:0:0:
379,155,117445,1,0,0:0:0:0:
430,174,117553,38,0,L|460:182,2,18.75,4|0|0,0:0|0:0|0:0,0:0:0:0:
383,242,117767,1,12,0:0:0:0:
347,254,117874,1,0,0:0:0:0:
310,253,117981,1,0,0:0:0:0:
275,240,118088,1,0,0:0:0:0:
247,216,118196,1,12,0:0:0:0:
218,191,118303,1,0,0:0:0:0:
183,178,118410,1,0,0:0:0:0:
146,178,118517,1,0,0:0:0:0:
110,190,118625,6,0,P|77:202|64:201,1,37.5,12|0,0:0|0:0,0:0:0:0:
176,80,118839,2,0,P|202:103|208:115,1,37.5,12|0,0:0|0:0,0:0:0:0:
78,85,119053,1,0,0:0:0:0:
73,73,119160,1,0,0:0:0:0:
66,62,119267,1,4,0:0:0:0:
75,201,119482,37,12,0:0:0:0:
78,256,119589,1,0,0:0:0:0:
60,309,119696,2,0,L|49:333,2,18.75,4|4|4,0:0|0:0|0:0,0:0:0:0:
114,374,119910,2,0,P|131:355|137:331,1,37.5,12|0,0:0|0:0,0:0:0:0:
168,237,120125,6,0,L|177:203,2,25,8|0|0,0:0|0:0|0:0,0:0:0:0:
252,210,120339,2,0,L|269:179,2,25,8|0|0,0:0|0:0|0:0,0:0:0:0:
217,129,120553,2,0,L|241:104,2,25,12|0|0,0:0|0:0|0:0,0:0:0:0:
304,143,120767,2,0,L|334:125,2,25,8|0|0,0:0|0:0|0:0,0:0:0:0:
312,54,120982,38,0,L|339:46,1,18.75,4|0,0:0|0:0,0:0:0:0:
408,27,121196,2,0,P|411:46|409:65,1,37.5
325,167,121410,2,0,P|323:148|325:130,1,37.5
407,147,121625,1,12,0:0:0:0:
434,195,121732,1,0,0:0:0:0:
430,250,121839,1,0,0:0:0:0:
398,295,121946,1,0,0:0:0:0:
346,316,122053,1,0,0:0:0:0:
328,310,122160,1,0,0:0:0:0:
310,305,122267,1,12,0:0:0:0:
258,322,122374,1,0,0:0:0:0:
205,304,122481,1,0,0:0:0:0:
173,259,122588,1,0,0:0:0:0:
174,203,122696,6,0,L|179:176,2,18.75,4|0|0,0:0|0:0|0:0,0:0:0:0:
102,183,122910,2,0,L|93:133,1,37.5,12|0,0:0|0:0,0:0:0:0:
202,39,123125,1,0,0:0:0:0:
200,48,123232,1,0,0:0:0:0:
198,57,123339,1,0,0:0:0:0:
197,66,123446,1,0,0:0:0:0:
195,75,123553,37,12,0:0:0:0:
247,56,123660,1,0,0:0:0:0:
301,70,123767,1,0,0:0:0:0:
338,111,123874,1,0,0:0:0:0:
345,166,123981,1,12,0:0:0:0:
320,215,124088,1,0,0:0:0:0:
272,243,124195,1,0,0:0:0:0:
217,238,124302,1,0,0:0:0:0:
174,203,124410,6,0,L|151:179,2,18.75,4|0|0,0:0|0:0|0:0,0:0:0:0:
110,252,124625,1,12,0:0:0:0:
121,287,124732,1,0,0:0:0:0:
113,323,124839,1,0,0:0:0:0:
86,348,124946,1,0,0:0:0:0:
50,356,125053,2,0,L|95:363,1,37.5,12|0,0:0|0:0,0:0:0:0:
197,332,125267,38,0,L|219:328,3,12.5,8|0|0|0,0:0|0:0|0:0|0:0,0:0:0:0:
304,252,125482,1,4,0:0:0:0:
229,240,125589,2,0,L|206:236,3,12.5,8|0|0|0,0:0|0:0|0:0|0:0,0:0:0:0:
129,159,125803,1,4,0:0:0:0:
205,147,125910,2,0,L|227:143,3,12.5,8|0|0|0,0:0|0:0|0:0|0:0,0:0:0:0:
259,33,126125,1,4,0:0:0:0:
48,220,126339,1,4,0:0:0:0:
390,125,126553,1,4,0:0:0:0:
378,195,126660,1,4,0:0:0:0:
435,239,126767,1,4,0:0:0:0:
500,209,126874,1,4,0:0:0:0:
505,138,126981,5,12,0:0:0:0:
256,192,127089,12,0,130196,0:0:0:0:
505,138,130410,6,0,B|464:192|384:204|328:152|324:92|324:92|328:144|304:184|272:208|272:208|280:264|336:332|392:356,1,562.5,12|4,0:0|0:0,0:0:0:0:
421,82,133839,6,0,B|404:112|396:156|416:192|444:216|444:216|440:256|408:284|408:284|360:256|332:200|324:160|328:112|328:112|296:136|256:136|228:132|200:104,1,562.5,12|4,0:0|0:0,0:0:0:0:
268,32,137267,37,12,0:0:0:0:
264,48,137696,1,8,0:0:0:0:
280,152,138553,1,8,0:0:0:0:
236,248,139410,1,8,0:0:0:0:
304,328,140267,1,8,0:0:0:0:
280,152,140482,1,4,0:0:0:0:
236,248,140696,5,12,0:0:0:0:
256,240,141125,1,8,0:0:0:0:
360,256,141982,1,8,0:0:0:0:
460,224,142839,1,8,0:0:0:0:
236,248,143696,2,0,L|204:244,1,28.125,12|0,0:0|0:0,0:0:0:0:
256,240,144125,37,12,0:0:0:0:
332,120,144339,1,0,0:0:0:0:
360,208,144553,1,8,0:0:0:0:
208,168,144767,1,0,0:0:0:0:
336,112,144982,1,8,0:0:0:0:
260,232,145196,1,0,0:0:0:0:
252,92,145410,1,8,0:0:0:0:
328,288,145625,1,0,0:0:0:0:
208,168,145839,6,0,P|184:200|180:240,1,75,12|0,0:0|0:0,0:0:0:0:
136,304,146160,1,4,0:0:0:0:
132,312,146267,1,8,0:0:0:0:
260,232,146482,1,4,0:0:0:0:
116,132,146696,2,0,L|32:120,1,75,8|0,0:0|0:0,0:0:0:0:
248,40,147125,2,0,L|164:52,1,75,8|0,0:0|0:0,0:0:0:0:
388,108,147553,37,8,0:0:0:0:
360,256,147767,1,0,0:0:0:0:
312,144,147982,1,8,0:0:0:0:
492,132,148196,1,0,0:0:0:0:
356,264,148410,1,8,0:0:0:0:
480,212,148625,1,0,0:0:0:0:
388,100,148839,1,8,0:0:0:0:
440,292,149053,1,0,0:0:0:0:
280,220,149267,6,0,L|196:232,1,75,12|0,0:0|0:0,0:0:0:0:
220,152,149589,1,4,0:0:0:0:
208,148,149696,1,8,0:0:0:0:
248,304,149910,1,4,0:0:0:0:
128,203,150125,2,0,P|124:240|136:276,1,75,8|0,0:0|0:0,0:0:0:0:
196,144,150553,2,0,P|160:116|84:124,1,112.5,12|0,0:0|0:0,0:0:0:0:
128,204,150982,37,12,0:0:0:0:
184,44,151196,1,0,0:0:0:0:
20,156,151410,2,0,P|12:192|24:252,1,75,8|0,0:0|0:0,0:0:0:0:
196,333,151839,2,0,P|200:296|192:260,1,75,8|0,0:0|0:0,0:0:0:0:
68,304,152267,1,8,0:0:0:0:
280,292,152482,1,0,0:0:0:0:
160,168,152696,5,8,0:0:0:0:
200,344,152910,1,0,0:0:0:0:
272,176,153125,1,8,0:0:0:0:
68,204,153339,1,0,0:0:0:0:
191,259,153553,1,8,0:0:0:0:
68,304,153767,1,0,0:0:0:0:
160,168,153982,1,8,0:0:0:0:
120,368,154196,1,0,0:0:0:0:
80,108,154410,37,8,0:0:0:0:
252,188,154625,1,0,0:0:0:0:
68,304,154839,2,0,P|84:268|112:240,1,75,8|0,0:0|0:0,0:0:0:0:
264,352,155267,2,0,L|352:336,1,75,8|0,0:0|0:0,0:0:0:0:
180,268,155696,1,8,0:0:0:0:
448,320,155910,22,0,L|456:212,1,101.249996910095,4|0,0:0|0:0,0:0:0:0:
465,202,156339,6,0,L|472:292,1,90,4|0,0:0|0:0,0:0:0:0:
452,264,156767,38,0,L|460:164,1,78.7499975967408,4|0,0:0|0:0,0:0:0:0:
464,172,157196,6,0,L|470:239,1,67.4999979400635,4|0,0:0|0:0,0:0:0:0:
477,362,157625,38,0,L|480:344,1,18.75,4|0,0:0|0:0,0:0:0:0:
384,208,157839,22,0,B|372:176|368:128|416:92|440:88|440:88|376:80|340:128|340:128|320:80|320:80|284:104|236:88|236:88|204:100|204:100|160:88|160:88|176:68|200:76,1,525,12|0,0:0|0:0,0:0:0:0:
272,12,161267,22,0,L|324:84,1,84.3750032186509,10|0,0:0|0:0,0:0:0:0:
160,88,161696,2,0,L|228:144,1,84.3750032186509,10|0,0:0|0:0,0:0:0:0:
72,192,162125,1,12,0:0:0:0:
100,200,162232,1,0,0:0:0:0:
232,304,162446,1,4,0:0:0:0:
260,296,162553,1,8,0:0:0:0:
92,316,162767,2,0,P|96:344|112:376,1,56.2500021457673,0|8,0:0|0:0,0:0:0:0:
184,228,163196,1,4,0:0:0:0:
36,44,163410,1,8,0:0:0:0:
32,36,163839,5,10,0:2:0:0:
324,176,164053,1,6,0:2:0:0:
72,240,164267,1,10,0:2:0:0:
204,48,164482,1,6,0:2:0:0:
224,300,164696,38,0,P|180:312|136:296,1,84.3750032186509,10|0,0:0|0:0,0:0:0:0:
312,256,165125,2,0,P|357:255|395:282,1,84.3750032186509,10|0,0:0|0:0,0:0:0:0:
232,200,165553,1,12,0:0:0:0:
236,172,165660,1,0,0:0:0:0:
368,64,165875,1,4,0:0:0:0:
372,92,165982,1,8,0:0:0:0:
168,84,166196,2,0,L|224:80,1,56.2500021457673,0|8,0:0|0:0,0:0:0:0:
84,204,166625,1,4,0:0:0:0:
284,312,166839,1,8,0:0:0:0:
292,316,167267,5,10,0:2:0:0:
76,200,167482,1,6,0:2:0:0:
296,88,167696,1,10,0:2:0:0:
136,332,167910,1,6,0:2:0:0:
392,200,168125,38,0,B|400:256|400:256|392:296,1,84.3750032186509,10|0,0:0|0:0,0:0:0:0:
476,364,168553,2,0,B|468:308|468:308|476:268,1,84.3750032186509,10|0,0:0|0:0,0:0:0:0:
360,352,168982,1,12,0:0:0:0:
332,356,169089,1,0,0:0:0:0:
232,220,169303,1,4,0:0:0:0:
260,224,169410,1,8,0:0:0:0:
148,352,169625,2,0,L|156:276,1,56.2500021457673,0|8,0:0|0:0,0:0:0:0:
260,140,170053,1,4,0:0:0:0:
44,280,170267,1,8,0:0:0:0:
36,284,170696,5,10,0:2:0:0:
296,280,170910,1,6,0:2:0:0:
80,116,171125,1,10,0:2:0:0:
208,352,171339,1,6,0:2:0:0:
300,68,171553,38,0,B|304:56|304:56|288:52|288:52|284:80|296:112,1,84.3750032186509,10|0,0:0|0:0,0:0:0:0:
364,196,171982,2,0,B|360:208|360:208|376:212|376:212|380:184|368:152,1,84.3750032186509,10|0,0:0|0:0,0:0:0:0:
256,240,172410,1,12,0:0:0:0:
260,268,172517,1,0,0:0:0:0:
420,328,172732,1,4,0:0:0:0:
416,356,172839,1,8,0:0:0:0:
364,196,173053,2,0,P|352:240|352:272,1,56.2500021457673,0|8,0:0|0:0,0:0:0:0:
472,152,173482,1,4,0:0:0:0:
244,88,173696,1,8,0:0:0:0:
232,84,174125,5,10,0:2:0:0:
488,48,174339,1,6,0:2:0:0:
332,312,174553,1,10,0:2:0:0:
352,20,174767,1,6,0:2:0:0:
480,276,174982,6,0,L|412:264,1,56.2500021457673,12|0,0:0|0:0,0:0:0:0:
336,128,175410,1,8,0:0:0:0:
444,156,175625,1,0,0:0:0:0:
344,224,175839,2,0,P|332:264|340:296,1,56.2500021457673,12|0,0:0|0:0,0:0:0:0:
444,364,176267,1,8,0:0:0:0:
332,376,176482,1,0,0:0:0:0:
236,320,176696,6,0,P|224:348|224:400,1,56.2500021457673,12|0,0:0|0:0,0:0:0:0:
344,224,177125,1,8,0:0:0:0:
252,160,177339,1,0,0:0:0:0:
424,172,177553,2,0,P|444:140|452:112,1,56.2500021457673,12|0,0:0|0:0,0:0:0:0:
264,240,177982,1,8,0:0:0:0:
356,304,178196,1,0,0:0:0:0:
188,336,178410,38,0,L|120:324,1,56.2500021457673,12|0,0:0|0:0,0:0:0:0:
108,160,178839,1,8,0:0:0:0:
176,248,179053,1,0,0:0:0:0:
264,132,179267,2,0,L|196:144,1,56.2500021457673,12|0,0:0|0:0,0:0:0:0:
356,304,179696,1,8,0:0:0:0:
412,208,179910,1,0,0:0:0:0:
400,96,180125,6,0,P|440:96|464:112,1,56.2500021457673,12|0,0:0|0:0,0:0:0:0:
324,200,180553,1,8,0:0:0:0:
228,260,180767,1,0,0:0:0:0:
356,304,180982,2,0,L|280:312,1,56.2500021457673,12|0,0:0|0:0,0:0:0:0:
264,132,181410,1,8,0:0:0:0:
152,148,181625,1,0,0:0:0:0:
197,306,181839,38,0,P|215:285|228:260,1,56.2500021457673,12|0,0:0|0:0,0:0:0:0:
40,196,182267,2,0,L|48:264,1,56.2500021457673,12|0,0:0|0:0,0:0:0:0:
152,148,182696,2,0,P|132:116|104:92,1,56.2500021457673,12|0,0:0|0:0,0:0:0:0:
140,316,183125,2,0,L|196:308,1,56.2500021457673,12|0,0:0|0:0,0:0:0:0:
384,240,183553,6,0,L|376:312,1,56.2500021457673,12|0,0:0|0:0,0:0:0:0:
280,176,183982,2,0,L|288:248,1,56.2500021457673,12|0,0:0|0:0,0:0:0:0:
400,100,184410,2,0,L|392:172,1,56.2500021457673,12|0,0:0|0:0,0:0:0:0:
260,40,184839,2,0,P|220:48|188:40,1,56.2500021457673,12|0,0:0|0:0,0:0:0:0:
56,96,185267,38,0,L|52:156,1,56.2500021457673,12|0,0:0|0:0,0:0:0:0:
232,232,185696,2,0,L|228:175,1,56.2500021457673,12|0,0:0|0:0,0:0:0:0:
48,92,186125,2,0,L|44:152,1,56.2500021457673,12|0,0:0|0:0,0:0:0:0:
240,236,186554,2,0,L|236:179,1,56.2500021457673,12|0,0:0|0:0,0:0:0:0:
32,324,186982,6,0,L|100:328,1,56.2500021457673,12|0,0:0|0:0,0:0:0:0:
112,204,187410,2,0,L|180:200,1,56.2500021457673,12|0,0:0|0:0,0:0:0:0:
212,332,187839,2,0,L|280:336,1,56.2500021457673,12|0,0:0|0:0,0:0:0:0:
308,192,188267,2,0,L|376:188,1,56.2500021457673,12|0,0:0|0:0,0:0:0:0:
404,344,188696,37,14,0:0:0:0:
500,184,188910,2,0,L|492:239,1,56.2500021457673,14|8,0:0|0:0,0:0:0:0:
304,52,189339,1,6,0:0:0:0:
264,288,189553,2,0,L|192:296,1,56.2500021457673,14|8,0:0|0:0,0:0:0:0:
104,168,189982,2,0,L|159:174,1,56.2500021457673,14|8,0:0|0:0,0:0:0:0:
64,304,190410,5,12,0:0:0:0:
276,288,190625,1,8,0:0:0:0:
224,140,190839,1,8,0:0:0:0:
164,328,191053,1,8,0:0:0:0:
304,196,191267,1,8,0:0:0:0:
96,164,191482,1,8,0:0:0:0:
288,288,191696,1,8,0:0:0:0:
112,40,191910,1,14,0:0:0:0:
452,64,192125,38,0,P|444:104|424:132,2,56.2500021457673,14|8|8,0:0|0:0|0:0,0:0:0:0:
240,216,192767,1,14,0:0:0:0:
440,324,192982,2,0,L|364:336,1,56.2500021457673,14|8,0:0|0:0,0:0:0:0:
304,120,193410,2,0,L|359:128,1,56.2500021457673,14|8,0:0|0:0,0:0:0:0:
264,300,193839,5,12,0:0:0:0:
304,108,194053,1,8,0:0:0:0:
376,248,194267,1,8,0:0:0:0:
184,176,194482,1,8,0:0:0:0:
416,140,194696,1,8,0:0:0:0:
264,312,194910,1,8,0:0:0:0:
212,80,195125,1,14,0:0:0:0:
460,292,195339,1,14,0:0:0:0:
56,260,195553,5,12,0:0:0:0:
42,284,195660,1,0,0:0:0:0:
40,312,195767,1,4,0:0:0:0:
49,338,195874,1,0,0:0:0:0:
68,359,195981,1,4,0:0:0:0:
93,370,196088,1,0,0:0:0:0:
121,369,196195,1,4,0:0:0:0:
147,357,196303,1,0,0:0:0:0:
165,336,196410,6,0,L|204:336,1,28.1250010728836,8|0,0:0|0:0,0:0:0:0:
268,216,196625,2,0,L|239:216,1,28.1250010728836,8|0,0:0|0:0,0:0:0:0:
304,340,196839,2,0,L|343:340,1,28.1250010728836,8|0,0:0|0:0,0:0:0:0:
404,220,197053,2,0,L|375:220,1,28.1250010728836,8|0,0:0|0:0,0:0:0:0:
440,332,197267,37,4,0:0:0:0:
476,311,197374,1,0,0:0:0:0:
503,279,197481,1,4,0:0:0:0:
512,239,197588,1,0,0:0:0:0:
512,197,197695,1,4,0:0:0:0:
501,158,197802,1,0,0:0:0:0:
473,127,197909,1,4,0:0:0:0:
435,108,198017,1,0,0:0:0:0:
394,103,198125,6,0,L|396:152,1,28.1250010728836,8|0,0:0|0:0,0:0:0:0:
234,175,198339,2,0,L|220:152,1,28.1250010728836,8|0,0:0|0:0,0:0:0:0:
304,116,198553,2,0,L|312:142,1,28.1250010728836,8|0,0:0|0:0,0:0:0:0:
168,227,198767,2,0,L|148:208,1,28.1250010728836,8|0,0:0|0:0,0:0:0:0:
394,103,198982,37,8,0:0:0:0:
405,144,199089,1,4,0:0:0:0:
404,186,199196,1,8,0:0:0:0:
393,226,199303,1,4,0:0:0:0:
372,263,199410,5,8,0:0:0:0:
360,310,199517,1,4,0:0:0:0:
380,354,199624,1,8,0:0:0:0:
423,377,199731,1,4,0:0:0:0:
470,369,199838,37,8,0:0:0:0:
503,334,199945,1,4,0:0:0:0:
508,286,200052,1,8,0:0:0:0:
483,245,200160,1,4,0:0:0:0:
438,228,200267,5,8,0:0:0:0:
383,235,200374,1,4,0:0:0:0:
346,276,200481,1,8,0:0:0:0:
343,331,200588,1,4,0:0:0:0:
376,375,200695,5,12,0:0:0:0:
356,356,201125,5,4,0:0:0:0:
343,331,201553,37,4,0:0:0:0:
488,260,201767,1,4,0:0:0:0:
264,96,201982,1,12,0:0:0:0:
256,88,202410,22,0,P|256:116|268:104,1,56.25,12|0,0:0|0:0,0:0:0:0:
436,192,202839,2,0,P|436:164|424:176,1,56.25,12|0,0:0|0:0,0:0:0:0:
280,284,203267,2,0,L|276:328,2,37.5,12|0|0,0:0|0:0|0:0,0:0:0:0:
472,352,203910,2,0,L|416:356,1,56.25,12|0,0:0|0:0,0:0:0:0:
256,80,204339,5,12,0:0:0:0:
40,352,204553,2,0,L|96:356,1,56.25,12|0,0:0|0:0,0:0:0:0:
28,340,204982,1,4,0:0:0:0:
60,160,205196,2,0,P|48:184|44:208,1,37.5,12|0,0:0|0:0,0:0:0:0:
180,40,205625,1,12,0:0:0:0:
348,268,205839,38,0,B|352:248|364:232|364:232|352:228|344:240,1,56.25,12|0,0:0|0:0,0:0:0:0:
456,160,206267,2,0,B|452:180|440:196|440:196|452:200|460:188,1,56.25,12|0,0:0|0:0,0:0:0:0:
396,76,206696,1,4,0:0:0:0:
403,263,206910,2,0,B|388:260|388:260|348:268,1,56.25,12|0,0:0|0:0,0:0:0:0:
512,312,207339,6,0,L|504:240,1,56.25,12|0,0:0|0:0,0:0:0:0:
416,376,207767,1,12,0:0:0:0:
505,127,207982,2,0,L|512:72,1,56.25,12|0,0:0|0:0,0:0:0:0:
504,144,208410,1,4,0:0:0:0:
176,336,208625,2,0,L|188:304,1,18.75,12|0,0:0|0:0,0:0:0:0:
256,40,208839,1,4,0:0:0:0:
388,296,209053,2,0,L|376:272,1,18.75,12|0,0:0|0:0,0:0:0:0:
248,28,209267,38,0,B|232:48|240:80|256:72|256:52,1,56.25,12|0,0:0|0:0,0:0:0:0:
140,168,209696,2,0,B|156:148|148:116|132:124|132:144,1,56.25,12|0,0:0|0:0,0:0:0:0:
216,264,210125,2,0,P|216:288|208:308,2,37.5,12|0|0,0:0|0:0|0:0,0:0:0:0:
56,332,210767,2,0,P|44:296|48:272,1,56.25,12|0,0:0|0:0,0:0:0:0:
64,348,211196,5,12,0:0:0:0:
268,168,211410,2,0,B|257:180|257:180|217:184,1,56.25,12|0,0:0|0:0,0:0:0:0:
160,72,211839,1,4,0:0:0:0:
360,208,212053,2,0,P|368:180|368:160,1,37.5,12|0,0:0|0:0,0:0:0:0:
160,288,212482,1,12,0:0:0:0:
308,56,212696,38,0,B|316:92|316:92|324:68,1,56.25,12|0,0:0|0:0,0:0:0:0:
382,189,213125,2,0,B|374:153|374:153|366:177,1,56.25,12|0,0:0|0:0,0:0:0:0:
300,288,213553,1,4,0:0:0:0:
464,68,213767,2,0,L|472:128,1,56.25,12|0,0:0|0:0,0:0:0:0:
460,48,214196,5,12,0:0:0:0:
384,188,214410,2,0,L|388:196,3,6.25,8|0|0|0,0:0|0:0|0:0|0:0,0:0:0:0:
264,168,214625,1,4,0:0:0:0:
244,240,214732,2,0,L|242:248,3,6.25,8|0|0|0,0:0|0:0|0:0|0:0,0:0:0:0:
368,264,214946,1,4,0:0:0:0:
368,338,215053,2,0,L|367:346,3,6.25,8|0|0|0,0:0|0:0|0:0|0:0,0:0:0:0:
232,316,215267,1,4,0:0:0:0:
476,148,215482,1,4,0:0:0:0:
192,64,215696,1,4,0:0:0:0:
185,134,215803,1,4,0:0:0:0:
117,151,215910,1,4,0:0:0:0:
77,93,216017,1,4,0:0:0:0:
119,36,216124,37,12,0:0:0:0:
114,73,216232,1,0,0:0:0:0:
98,107,216339,1,0,0:0:0:0:
72,134,216446,1,0,0:0:0:0:
39,152,216553,1,12,0:0:0:0:
31,188,216660,1,0,0:0:0:0:
35,225,216767,1,0,0:0:0:0:
50,260,216874,1,0,0:0:0:0:
74,288,216982,6,0,P|80:312|76:332,1,37.5,4|0,0:0|0:0,0:0:0:0:
35,225,217196,2,0,P|68:216|80:216,1,37.5,4|0,0:0|0:0,0:0:0:0:
212,312,217410,2,0,L|164:292,1,37.5,4|0,0:0|0:0,0:0:0:0:
232,192,217625,2,0,L|252:168,2,18.75,12|0|0,0:0|0:0|0:0,0:0:0:0:
320,264,217839,38,0,L|360:268,2,25,4|0|0,0:0|0:0|0:0,0:0:0:0:
432,201,218053,2,0,L|408:204,2,25,12|0|0,0:0|0:0|0:0,0:0:0:0:
320,264,218267,1,12,0:0:0:0:
305,229,218374,1,0,0:0:0:0:
303,192,218481,1,0,0:0:0:0:
313,156,218588,1,0,0:0:0:0:
334,125,218696,6,0,P|312:132|288:132,1,37.5,4|0,0:0|0:0,0:0:0:0:
216,56,218910,2,0,L|228:32,2,18.75,12|0|0,0:0|0:0|0:0,0:0:0:0:
136,40,219125,2,0,P|136:64|140:84,1,37.5
192,248,219339,1,12,0:0:0:0:
188,240,219446,1,0,0:0:0:0:
184,232,219553,37,12,0:0:0:0:
147,235,219660,1,0,0:0:0:0:
117,258,219767,1,0,0:0:0:0:
103,292,219874,1,0,0:0:0:0:
108,328,219981,1,12,0:0:0:0:
131,357,220088,1,0,0:0:0:0:
166,370,220195,1,0,0:0:0:0:
202,364,220303,1,0,0:0:0:0:
230,340,220410,1,4,0:0:0:0:
195,157,220625,5,12,0:0:0:0:
192,176,220732,1,0,0:0:0:0:
189,194,220839,1,0,0:0:0:0:
186,213,220946,1,0,0:0:0:0:
184,232,221053,2,0,L|192:252,2,18.75,12|0|0,0:0|0:0|0:0,0:0:0:0:
96,176,221267,38,0,L|64:180,2,25,4|0|0,0:0|0:0|0:0,0:0:0:0:
80,96,221482,2,0,L|48:88,2,25,12|0|0,0:0|0:0|0:0,0:0:0:0:
120,24,221696,1,12,0:0:0:0:
147,48,221803,1,0,0:0:0:0:
182,63,221910,1,0,0:0:0:0:
219,65,222017,1,0,0:0:0:0:
255,55,222125,6,0,L|252:88,2,18.75,4|0|0,0:0|0:0|0:0,0:0:0:0:
324,144,222339,2,0,L|327:176,2,18.75,12|0|0,0:0|0:0|0:0,0:0:0:0:
260,236,222553,1,0,0:0:0:0:
284,264,222660,1,0,0:0:0:0:
384,244,222767,1,12,0:0:0:0:
353,223,222874,1,0,0:0:0:0:
340,318,222982,37,12,0:0:0:0:
375,330,223089,1,0,0:0:0:0:
412,326,223196,1,0,0:0:0:0:
444,307,223303,1,0,0:0:0:0:
465,277,223410,1,12,0:0:0:0:
472,240,223517,1,0,0:0:0:0:
463,204,223624,1,0,0:0:0:0:
440,175,223732,1,0,0:0:0:0:
407,158,223839,6,0,P|436:152|456:136,1,37.5,4|0,0:0|0:0,0:0:0:0:
300,136,224053,2,0,L|292:180,1,37.5,4|0,0:0|0:0,0:0:0:0:
400,60,224267,2,0,L|352:68,1,37.5,4|0,0:0|0:0,0:0:0:0:
220,64,224482,2,0,L|204:44,2,18.75,12|0|0,0:0|0:0|0:0,0:0:0:0:
196,172,224696,38,0,L|176:208,2,25,4|0|0,0:0|0:0|0:0,0:0:0:0:
300,136,224910,2,0,L|312:114,2,25,12|0|0,0:0|0:0|0:0,0:0:0:0:
280,252,225125,1,12,0:0:0:0:
283,288,225232,1,0,0:0:0:0:
306,318,225339,1,0,0:0:0:0:
340,331,225446,1,0,0:0:0:0:
377,325,225553,2,0,P|388:300|388:264,1,37.5,4|0,0:0|0:0,0:0:0:0:
300,136,225767,2,0,L|292:112,2,18.75,12|0|0,0:0|0:0|0:0,0:0:0:0:
360,192,225982,2,0,P|376:168|380:152,1,37.5
296,48,226196,1,12,0:0:0:0:
284,44,226303,1,0,0:0:0:0:
272,40,226410,5,12,0:0:0:0:
238,56,226517,1,0,0:0:0:0:
213,84,226624,1,0,0:0:0:0:
201,119,226731,1,0,0:0:0:0:
202,156,226838,1,12,0:0:0:0:
216,191,226945,1,0,0:0:0:0:
243,217,227052,1,0,0:0:0:0:
277,232,227160,1,0,0:0:0:0:
314,233,227267,1,4,0:0:0:0:
300,136,227482,37,12,0:0:0:0:
308,130,227589,1,0,0:0:0:0:
318,128,227696,1,0,0:0:0:0:
328,128,227803,1,0,0:0:0:0:
337,131,227910,2,0,L|360:136,2,18.75,12|0|0,0:0|0:0|0:0,0:0:0:0:
416,212,228125,6,0,L|436:208,3,12.5,8|0|0|0,0:0|0:0|0:0|0:0,0:0:0:0:
356,300,228339,1,4,0:0:0:0:
408,356,228446,2,0,L|420:368,3,12.5,8|0|0|0,0:0|0:0|0:0|0:0,0:0:0:0:
248,296,228660,1,4,0:0:0:0:
265,370,228767,2,0,L|269:386,3,12.5,8|0|0|0,0:0|0:0|0:0|0:0,0:0:0:0:
152,248,228982,1,4,0:0:0:0:
416,212,229196,1,4,0:0:0:0:
200,64,229410,1,4,0:0:0:0:
266,88,229517,1,4,0:0:0:0:
267,159,229624,1,4,0:0:0:0:
202,186,229731,1,4,0:0:0:0:
153,136,229839,6,0,P|112:120|92:120,2,56.2500021457673,10|0|4,0:0|0:0|0:0,0:0:0:0:
64,296,230482,1,6,0:0:0:0:
260,344,230696,2,0,L|272:268,1,56.2500021457673,14|0,0:0|0:0,0:0:0:0:
153,136,231125,2,0,L|165:212,1,56.2500021457673,14|0,0:0|0:0,0:0:0:0:
408,164,231553,5,8,0:0:0:0:
328,80,231767,1,0,0:0:0:0:
434,141,231982,1,8,0:0:0:0:
301,102,232196,1,0,0:0:0:0:
449,102,232410,1,8,0:0:0:0:
286,141,232625,1,0,0:0:0:0:
391,41,232839,1,8,0:0:0:0:
315,302,233053,1,6,0:0:0:0:
112,72,233267,38,0,B|96:60|96:60|76:88|88:116|88:116|84:136|84:136|88:168,1,112.500004291535,14|8,0:0|0:0,0:0:0:0:
360,212,233910,1,6,0:0:0:0:
96,312,234125,2,0,P|132:328|160:328,1,56.2500021457673,14|0,0:0|0:0,0:0:0:0:
216,192,234553,2,0,P|188:196|163:209,1,56.2500021457673,14|0,0:0|0:0,0:0:0:0:
328,304,234982,6,0,L|268:296,1,56.2500021457673,8|0,0:0|0:0,0:0:0:0:
415,204,235410,2,0,L|355:212,1,56.2500021457673,8|0,0:0|0:0,0:0:0:0:
452,352,235839,2,0,P|464:316|460:272,1,56.2500021457673,8|0,0:0|0:0,0:0:0:0:
264,56,236267,1,14,0:0:0:0:
328,304,236482,1,14,0:0:0:0:
140,132,236696,5,4,0:0:0:0:
130,97,236803,1,0,0:0:0:0:
96,88,236910,1,4,0:0:0:0:
72,115,237017,1,0,0:0:0:0:
84,148,237125,1,4,0:0:0:0:
88,186,237232,1,0,0:0:0:0:
82,223,237339,1,4,0:0:0:0:
68,257,237446,1,0,0:0:0:0:
45,287,237553,6,0,L|92:284,1,37.5,8|0,0:0|0:0,0:0:0:0:
181,342,237767,2,0,L|144:340,1,37.5,8|0,0:0|0:0,0:0:0:0:
248,280,237982,2,0,L|294:276,1,37.5,8|0,0:0|0:0,0:0:0:0:
405,342,238196,2,0,L|368:340,1,37.5,8|0,0:0|0:0,0:0:0:0:
476,268,238410,37,4,0:0:0:0:
488,213,238517,1,0,0:0:0:0:
478,158,238624,1,4,0:0:0:0:
446,112,238731,1,0,0:0:0:0:
399,82,238838,1,4,0:0:0:0:
344,72,238945,1,0,0:0:0:0:
290,86,239052,1,4,0:0:0:0:
246,120,239160,1,0,0:0:0:0:
219,169,239267,6,0,P|216:192|220:216,1,37.5,8|0,0:0|0:0,0:0:0:0:
276,332,239482,2,0,P|279:309|275:285,1,37.5,8|0,0:0|0:0,0:0:0:0:
168,280,239696,2,0,P|190:283|214:279,1,37.5,8|0,0:0|0:0,0:0:0:0:
330,223,239911,2,0,P|307:219|283:223,1,37.5,8|0,0:0|0:0,0:0:0:0:
152,288,240125,37,8,0:0:0:0:
96,282,240232,1,4,0:0:0:0:
50,251,240339,1,8,0:0:0:0:
24,202,240446,1,4,0:0:0:0:
26,146,240553,5,8,0:0:0:0:
53,98,240660,1,4,0:0:0:0:
101,69,240767,1,8,0:0:0:0:
157,66,240875,1,4,0:0:0:0:
207,91,240982,37,8,0:0:0:0:
260,106,241089,1,4,0:0:0:0:
316,101,241196,1,8,0:0:0:0:
366,77,241303,1,4,0:0:0:0:
405,36,241410,5,8,0:0:0:0:
384,98,241517,1,4,0:0:0:0:
386,163,241624,1,8,0:0:0:0:
411,224,241731,1,4,0:0:0:0:
454,273,241839,38,0,L|424:268,1,18.75,12|0,0:0|0:0,0:0:0:0:
368,166,242053,2,0,L|386:162,1,18.75,12|0,0:0|0:0,0:0:0:0:
405,36,242267,1,4,0:0:0:0:
264,188,242482,1,4,0:0:0:0:
260,200,242589,1,4,0:0:0:0:
256,212,242696,2,0,L|244:240,1,18.75,12|0,0:0|0:0,0:0:0:0:
292,316,242910,2,0,L|295:298,1,18.75,12|0,0:0|0:0,0:0:0:0:
72,144,243125,1,12,0:0:0:0:
68,132,243553,6,0,L|52:200,1,56.25,12|0,0:0|0:0,0:0:0:0:
156,236,243982,2,0,L|143:181,1,56.25,12|0,0:0|0:0,0:0:0:0:
76,272,244410,1,4,0:0:0:0:
212,336,244625,2,0,P|188:352|168:356,1,37.5
280,244,245053,38,0,L|288:272,1,18.75,12|0,0:0|0:0,0:0:0:0:
368,328,245267,2,0,P|384:304|392:272,1,56.25,12|0,0:0|0:0,0:0:0:0:
488,296,245696,2,0,P|489:267|480:235,1,56.25,12|0,0:0|0:0,0:0:0:0:
280,244,246125,2,0,L|288:272,1,18.75,4|0,0:0|0:0,0:0:0:0:
380,172,246339,2,0,L|385:153,1,18.75,12|0,0:0|0:0,0:0:0:0:
368,328,246553,1,12,0:0:0:0:
376,336,246982,6,0,L|312:332,1,56.25,12|0,0:0|0:0,0:0:0:0:
416,260,247410,2,0,P|444:284|460:316,1,56.25,12|0,0:0|0:0,0:0:0:0:
280,244,247839,1,4,0:0:0:0:
408,108,248053,2,0,L|412:172,1,56.25,12|0,0:0|0:0,0:0:0:0:
308,128,248482,38,0,L|305:92,1,18.75,12|0,0:0|0:0,0:0:0:0:
280,244,248696,2,0,L|283:208,1,18.75,4|0,0:0|0:0,0:0:0:0:
200,136,248910,2,0,L|201:154,1,18.75,12|0,0:0|0:0,0:0:0:0:
336,292,249125,2,0,P|308:316|280:320,1,56.25,12|0,0:0|0:0,0:0:0:0:
352,200,249553,1,4,0:0:0:0:
176,260,249767,2,0,L|144:252,1,18.75,12|0,0:0|0:0,0:0:0:0:
80,184,249982,2,0,L|48:192,1,18.75
136,72,250196,2,0,L|154:67,1,18.75,12|0,0:0|0:0,0:0:0:0:
48,280,250410,6,0,L|52:344,1,56.25,12|0,0:0|0:0,0:0:0:0:
179,203,250839,2,0,L|175:267,1,56.25,12|0,0:0|0:0,0:0:0:0:
80,184,251267,1,4,0:0:0:0:
200,124,251482,2,0,P|220:132|240:152,1,37.5
80,184,251910,38,0,L|76:160,1,18.75,12|0,0:0|0:0,0:0:0:0:
179,203,252125,2,0,B|175:239|175:239|183:259,1,56.25,12|0,0:0|0:0,0:0:0:0:
108,320,252553,2,0,B|112:284|112:284|104:264,1,56.25,12|0,0:0|0:0,0:0:0:0:
188,340,252982,2,0,L|212:348,1,18.75,4|0,0:0|0:0,0:0:0:0:
293,266,253196,2,0,L|276:272,1,18.75,12|0,0:0|0:0,0:0:0:0:
376,324,253410,1,12,0:0:0:0:
384,332,253839,6,0,P|400:296|400:264,1,56.25,12|0,0:0|0:0,0:0:0:0:
276,213,254267,2,0,P|280:240|293:265,1,56.25,12|0,0:0|0:0,0:0:0:0:
368,144,254696,1,4,0:0:0:0:
184,100,254910,2,0,P|188:127|201:152,1,56.25,12|0,0:0|0:0,0:0:0:0:
296,32,255339,2,0,L|268:24,1,18.75,12|0,0:0|0:0,0:0:0:0:
200,24,255553,38,0,L|192:20,3,6.25,8|0|0|0,0:0|0:0|0:0|0:0,0:0:0:0:
264,108,255767,1,4,0:0:0:0:
216,168,255875,2,0,L|208:176,3,6.25,8|0|0|0,0:0|0:0|0:0|0:0,0:0:0:0:
308,232,256089,1,4,0:0:0:0:
304,308,256196,2,0,L|304:316,3,6.25,8|0|0|0,0:0|0:0|0:0|0:0,0:0:0:0:
420,304,256410,1,4,0:0:0:0:
116,256,256625,1,4,0:0:0:0:
364,72,256839,1,4,0:0:0:0:
387,138,256946,1,4,0:0:0:0:
457,137,257053,1,4,0:0:0:0:
480,70,257160,1,4,0:0:0:0:
424,28,257267,21,12,0:0:0:0:
420,40,257696,5,12,0:0:0:0:
416,52,258125,5,12,0:0:0:0:
264,164,258339,1,0,0:0:0:0:
259,154,258446,1,0,0:0:0:0:
260,144,258553,1,0,0:0:0:0:
264,134,258660,1,0,0:0:0:0:
272,128,258767,5,12,0:0:0:0:
218,111,258874,1,0,0:0:0:0:
164,125,258981,1,0,0:0:0:0:
125,164,259088,1,0,0:0:0:0:
111,218,259195,1,0,0:0:0:0:
126,271,259302,1,0,0:0:0:0:
167,309,259409,1,12,0:0:0:0:
221,321,259517,1,0,0:0:0:0:
274,304,259624,1,0,0:0:0:0:
329,302,259732,1,0,0:0:0:0:
383,314,259839,38,0,P|397:319|410:319,2,18.75,4|0|0,0:0|0:0|0:0,0:0:0:0:
469,285,260053,2,0,P|459:262|440:246,1,37.5,12|0,0:0|0:0,0:0:0:0:
272,128,260268,1,0,0:0:0:0:
264,134,260375,1,0,0:0:0:0:
260,144,260482,1,0,0:0:0:0:
259,154,260589,1,0,0:0:0:0:
264,164,260697,5,12,0:0:0:0:
313,139,260804,1,0,0:0:0:0:
369,140,260911,1,0,0:0:0:0:
418,166,261018,1,0,0:0:0:0:
450,212,261125,1,12,0:0:0:0:
404,180,261232,1,0,0:0:0:0:
377,131,261339,1,0,0:0:0:0:
377,75,261446,1,0,0:0:0:0:
401,25,261553,38,0,P|406:16|407:8,2,18.75,4|0|0,0:0|0:0|0:0,0:0:0:0:
313,26,261767,1,12,0:0:0:0:
276,31,261874,1,0,0:0:0:0:
242,48,261981,1,0,0:0:0:0:
217,75,262088,1,0,0:0:0:0:
202,109,262196,1,12,0:0:0:0:
187,143,262303,1,0,0:0:0:0:
161,170,262410,1,0,0:0:0:0:
128,187,262517,1,0,0:0:0:0:
91,192,262625,6,0,P|63:193|48:186,1,37.5,12|0,0:0|0:0,0:0:0:0:
75,45,262839,2,0,P|86:59|91:77,1,37.5,12|0,0:0|0:0,0:0:0:0:
20,128,263053,1,0,0:0:0:0:
12,112,263160,1,0,0:0:0:0:
8,96,263267,1,4,0:0:0:0:
202,109,263482,37,12,0:0:0:0:
260,112,263589,1,0,0:0:0:0:
316,128,263696,2,0,L|344:140,2,18.75,4|0|0,0:0|0:0|0:0,0:0:0:0:
209,145,263910,2,0,L|202:109,1,37.5,12|0,0:0|0:0,0:0:0:0:
272,192,264125,6,0,P|284:200|308:200,2,25,12|0|0,0:0|0:0|0:0,0:0:0:0:
199,224,264339,2,0,P|187:225|175:221,2,25,4|0|0,0:0|0:0|0:0,0:0:0:0:
264,268,264553,2,0,P|275:272|288:272,2,25,12|0|0,0:0|0:0|0:0,0:0:0:0:
169,293,264767,2,0,P|154:290|137:273,2,25,4|0|0,0:0|0:0|0:0,0:0:0:0:
232,336,264982,38,0,L|256:344,1,18.75,4|0,0:0|0:0,0:0:0:0:
360,296,265196,2,0,L|364:340,1,37.5
444,216,265410,2,0,L|440:260,1,37.5
333,188,265625,1,12,0:0:0:0:
357,137,265732,1,0,0:0:0:0:
402,105,265839,1,0,0:0:0:0:
458,99,265946,1,0,0:0:0:0:
509,120,266053,1,0,0:0:0:0:
504,108,266160,1,0,0:0:0:0:
500,96,266267,1,12,0:0:0:0:
449,75,266374,1,0,0:0:0:0:
393,81,266481,1,0,0:0:0:0:
348,113,266588,1,0,0:0:0:0:
324,164,266696,6,0,L|324:180|324:192,2,18.75,4|0|0,0:0|0:0|0:0,0:0:0:0:
248,128,266910,2,0,L|240:172,1,37.5,12|0,0:0|0:0,0:0:0:0:
324,280,267125,1,0,0:0:0:0:
314,278,267232,1,0,0:0:0:0:
305,277,267339,1,0,0:0:0:0:
296,275,267446,1,0,0:0:0:0:
286,274,267553,37,12,0:0:0:0:
266,326,267660,1,0,0:0:0:0:
222,358,267767,1,0,0:0:0:0:
166,362,267874,1,0,0:0:0:0:
118,334,267981,1,12,0:0:0:0:
92,285,268088,1,0,0:0:0:0:
97,230,268195,1,0,0:0:0:0:
131,186,268302,1,0,0:0:0:0:
183,168,268410,6,0,P|196:168|216:172,2,18.75,4|0|0,0:0|0:0|0:0,0:0:0:0:
188,266,268625,1,12,0:0:0:0:
150,262,268732,1,0,0:0:0:0:
118,243,268839,1,0,0:0:0:0:
95,214,268946,1,0,0:0:0:0:
86,178,269053,2,0,P|90:148|99:133,1,37.5,12|0,0:0|0:0,0:0:0:0:
149,77,269267,38,0,L|165:75,3,12.5,8|0|0|0,0:0|0:0|0:0|0:0,0:0:0:0:
223,146,269482,1,4,0:0:0:0:
298,160,269589,2,0,L|314:162,3,12.5,8|0|0|0,0:0|0:0|0:0|0:0,0:0:0:0:
378,96,269803,1,4,0:0:0:0:
453,82,269910,2,0,L|469:80,3,12.5,8|0|0|0,0:0|0:0|0:0|0:0,0:0:0:0:
512,157,270125,1,4,0:0:0:0:
149,77,270339,1,4,0:0:0:0:
344,288,270553,1,4,0:0:0:0:
387,233,270660,1,4,0:0:0:0:
453,257,270767,1,4,0:0:0:0:
451,327,270874,1,4,0:0:0:0:
384,347,270982,22,0,P|412:348|456:364,2,75,12|12|4,0:0|0:0|0:0,0:0:0:0:
444,128,272482,1,12,0:0:0:0:
304,184,272910,1,12,0:0:0:0:
304,184,273125,2,0,P|280:176|220:180,1,75,12|4,0:0|0:0,0:0:0:0:
253,292,273767,2,0,L|260:256,1,37.5,12|0,0:0|0:0,0:0:0:0:
156,324,274196,1,12,0:0:0:0:
156,324,274410,6,0,L|140:240,2,75,12|12|4,0:0|0:0|0:0,0:0:0:0:
76,200,275482,2,0,P|96:180|144:168,1,75,12|12,0:0|0:0,0:0:0:0:
36,344,276339,1,12,0:0:0:0:
36,344,276553,2,0,B|72:360|72:360|112:356,1,75,12|4,0:0|0:0,0:0:0:0:
180,276,277196,2,0,L|208:280,1,18.75,12|0,0:0|0:0,0:0:0:0:
308,292,277410,1,4,0:0:0:0:
248,136,277625,2,0,L|260:164,1,18.75,12|0,0:0|0:0,0:0:0:0:
312,304,277839,38,0,P|344:316|328:288,2,75,12|12|4,0:0|0:0|0:0,0:0:0:0:
344,192,279017,1,8,0:0:0:0:
348,180,279125,1,8,0:0:0:0:
412,240,279339,2,0,L|428:156,1,75,12|12,0:0|0:0,0:0:0:0:
416,80,279875,1,8,0:0:0:0:
420,68,279982,2,0,P|364:56|332:64,1,75,12|4,0:0|0:0,0:0:0:0:
290,224,280625,2,0,P|338:192|355:164,1,75,12|12,0:0|0:0,0:0:0:0:
160,104,281267,6,0,L|164:184,2,75,12|12|4,0:0|0:0|0:0,0:0:0:0:
52,248,282339,2,0,L|56:168,1,75,12|12,0:0|0:0,0:0:0:0:
164,292,282982,6,0,L|168:300,3,6.25,8|0|0|0,0:0|0:0|0:0|0:0,0:0:0:0:
260,232,283196,1,4,0:0:0:0:
328,264,283303,2,0,L|336:268,3,6.25,8|0|0|0,0:0|0:0|0:0|0:0,0:0:0:0:
352,156,283517,1,4,0:0:0:0:
428,156,283625,2,0,L|436:156,3,6.25,8|0|0|0,0:0|0:0|0:0|0:0,0:0:0:0:
424,44,283839,1,4,0:0:0:0:
492,244,284053,1,4,0:0:0:0:
272,128,284267,5,4,0:0:0:0:
208,114,284375,1,4,0:0:0:0:
152,118,284482,1,4,0:0:0:0:
107,131,284589,1,4,0:0:0:0:
75,151,284696,6,0,P|50:178|37:220,2,75,12|12|4,0:0|0:0|0:0,0:0:0:0:
122,223,286196,2,0,L|129:308,1,75,12|12,0:0|0:0,0:0:0:0:
224,236,286839,2,0,L|252:316,1,75,12|4,0:0|0:0,0:0:0:0:
328,224,287482,2,0,L|376:294,1,75,12|4,0:0|0:0,0:0:0:0:
436,192,288125,6,0,P|452:160|456:120,2,75,12|12|4,0:0|0:0|0:0,0:0:0:0:
376,136,289196,2,0,B|340:152|340:152|300:152,2,75,12|12|12,0:0|0:0|0:0,0:0:0:0:
298,77,290267,2,0,P|298:117|306:157,1,75,12|4,0:0|0:0,0:0:0:0:
208,148,290910,2,0,P|218:186|236:223,1,75,12|12,0:0|0:0,0:0:0:0:
140,240,291553,38,0,B|84:236|84:236|64:216,2,75,12|12|4,0:0|0:0|0:0,0:0:0:0:
280,316,293053,2,0,B|224:320|224:320|204:340,1,75,12|12,0:0|0:0,0:0:0:0:
352,360,293696,2,0,P|364:332|360:288,1,75,12|4,0:0|0:0,0:0:0:0:
269,244,294339,2,0,P|264:274|279:315,1,75,12|12,0:0|0:0,0:0:0:0:
360,188,294982,6,0,P|388:152|400:116,2,75,12|12|4,0:0|0:0|0:0,0:0:0:0:
336,72,296053,2,0,P|360:52|412:44,1,75,12|12,0:0|0:0,0:0:0:0:
328,160,296696,6,0,L|328:168,3,6.25,8|0|0|0,0:0|0:0|0:0|0:0,0:0:0:0:
216,176,296910,1,4,0:0:0:0:
256,240,297017,2,0,L|260:248,3,6.25,8|0|0|0,0:0|0:0|0:0|0:0,0:0:0:0:
148,268,297232,1,4,0:0:0:0:
204,316,297339,2,0,L|208:320,3,6.25,8|0|0|0,0:0|0:0|0:0|0:0,0:0:0:0:
108,372,297553,1,4,0:0:0:0:
288,320,297767,1,4,0:0:0:0:
60,174,297982,5,4,0:0:0:0:
64,238,298089,1,4,0:0:0:0:
75,294,298196,1,4,0:0:0:0:
91,339,298303,1,4,0:0:0:0:
108,372,298410,5,4,0:0:0:0:
256,192,298517,12,0,300125,0:0:0:0:
