osu file format v12

[General]
AudioFilename: Flower.mp3
AudioLeadIn: 0
PreviewTime: 20239
Countdown: 0
SampleSet: Normal
StackLeniency: 0.7
Mode: 0
LetterboxInBreaks: 0

[Editor]
Bookmarks: 61890,122364,137521
DistanceSpacing: 1
BeatDivisor: 4
GridSize: 4

[Metadata]
Title:Toki wo Tomete
TitleUnicode:時をとめて
Artist:Tiara feat. WISE
ArtistUnicode:Tiara feat. WISE
Creator:Autumn
Version:Normal
Source:
Tags:KwaiMay TIM2012 Jeff Miyahara
BeatmapID:251759
BeatmapSetID:64633

[Difficulty]
HPDrainRate:3
CircleSize:4
OverallDifficulty:3
ApproachRate:4
SliderMultiplier:1.6
SliderTickRate:2

[Events]
//Background and Video events
0,0,"BG.jpg",0,0
Video,0,"Video.avi"
//Break Periods
2,62123,67866
2,122754,128498
2,181807,184392
//Storyboard Layer 0 (Background)
//Storyboard Layer 1 (Fail)
//Storyboard Layer 2 (Pass)
//Storyboard Layer 3 (Foreground)
//Storyboard Sound Samples
//Background Colour Transformations
3,100,163,162,255

[TimingPoints]
11397,631.578947368421,4,1,1,60,1,0
21502,-100,4,1,1,60,0,1
21660,-100,4,1,1,60,0,0
42344,-100,4,2,1,60,0,0
80239,-100,4,1,1,60,0,0
82133,-100,4,1,1,60,0,1
102344,-100,4,2,1,60,0,0
122554,-100,4,2,1,60,0,0
140870,-100,4,1,1,60,0,0
142765,-100,4,1,1,60,0,1
160133,-100,4,1,1,60,0,1
162975,-100,4,2,1,60,0,0
184449,-100,4,2,1,40,0,0
205923,-100,4,1,1,80,0,1
226133,-100,4,2,1,40,0,0
234975,-100,4,2,1,20,0,0

[Colours]
Combo1 : 255,255,0
Combo2 : 131,252,131
Combo3 : 86,86,252
Combo4 : 252,86,86

[HitObjects]
112,216,20239,2,0,B|188:156|188:156|212:216|256:236|308:216,1,240
272,144,21502,2,0,P|336:148|376:240,1,160,4|8,0:0|0:0,0:0:0:0:
348,300,22449,1,0,0:0:0:0:
272,328,22765,2,0,B|200:328|200:328|152:348|104:320,1,160,0|8,0:0|0:0,0:0:0:0:
160,172,24028,2,0,L|160:264,2,80,0|0|8,0:0|0:0|0:0,0:0:0:0:
304,100,25291,6,0,B|348:140|348:204|304:244,1,160,0|8,0:0|0:0,0:0:0:0:
160,172,26554,2,0,L|256:172,2,80,0|0|8,0:0|0:0|0:0,0:0:0:0:
80,180,27502,2,0,B|84:220|112:244|144:252|144:252|144:324,1,160
224,308,28449,2,0,B|288:308|288:308|344:328|388:308,1,160,8|0,0:0|0:0,0:0:0:0:
344,156,29712,1,8,0:0:0:0:
400,212,30028,6,0,P|332:236|268:184,1,160
220,124,30975,2,0,L|136:168,1,80,8|0,0:0|0:0,0:0:0:0:
76,196,31607,1,4,0:0:0:0:
76,356,32239,1,8,0:0:0:0:
216,280,32870,6,0,L|120:280,2,80,0|0|8,0:0|0:0|0:0,0:0:0:0:
376,280,34133,2,0,P|304:244|288:164,1,160,0|8,0:0|0:0,0:0:0:0:
424,88,35397,2,0,B|376:104|360:128|360:128|320:72|248:76|216:124,1,240
176,188,36660,5,4,0:0:0:0:
264,324,37291,1,8,0:0:0:0:
104,340,37923,2,0,P|144:348|184:340,2,80,0|0|8,0:0|0:0|0:0,0:0:0:0:
144,268,38870,1,0,0:0:0:0:
256,192,39186,12,4,41712,0:2:0:0:
160,192,42344,5,8,0:0:0:0:
320,192,42975,2,0,L|228:192,2,80,0|2|8,0:0|0:0|0:0,0:0:0:0:
480,192,44239,1,0,0:0:0:0:
360,300,44870,2,0,P|320:308|272:296,1,80,8|0,0:0|0:0,0:0:0:0:
212,260,45502,2,0,L|164:332,2,80,0|2|8,0:0|0:0|0:0,0:0:0:0:
256,192,46449,1,2,0:2:0:0:
336,196,46765,6,0,P|264:112|176:180,1,240
144,248,48028,2,0,P|104:236|64:164,2,120,0|0|2,0:0|0:0|0:0,0:0:0:0:
224,260,49291,2,0,B|276:260|276:260|328:236|328:236|384:236,1,160,0|8,0:0|0:0,0:0:0:0:
404,88,50554,2,0,P|372:116|320:128,1,80
256,140,51186,1,8,0:0:0:0:
144,240,51818,6,0,B|176:268|212:268|256:252|256:252|296:268|332:268|372:240,1,240,4|0,0:0|0:0,0:0:0:0:
408,172,53081,2,0,L|492:204,2,80,0|2|8,0:0|0:0|0:0,0:0:0:0:
256,120,54344,2,0,B|224:148|192:156|155:137|155:137|120:144|100:176,1,160,0|8,0:0|0:0,0:0:0:0:
72,228,55291,1,0,0:0:0:0:
72,308,55607,2,0,P|112:340|144:344,1,80,0|0,0:0|0:0,0:0:0:0:
216,316,56239,6,0,P|296:304|366:337,1,160,8|4,0:0|0:1,0:0:0:0:
270,209,57502,1,8,0:0:0:0:
366,337,58133,2,0,P|354:273|390:185,1,160,2|8,0:0|0:0,0:0:0:0:
256,192,59397,12,4,61923,0:0:0:0:
256,192,69186,12,0,71397,0:0:0:0:
108,280,72028,6,0,B|164:252|220:304|276:268,1,160,4|8,0:0|0:0,0:0:0:0:
316,212,72975,2,0,P|344:180|352:128,2,80,0|0|2,0:0|0:0|0:0,0:0:0:0:
276,144,73923,2,0,P|288:104|316:76,1,80,8|0,0:0|0:0,0:0:0:0:
376,28,74554,6,0,B|392:80|452:76|452:76|480:104|464:144,1,160,2|8,0:0|0:0,0:0:0:0:
444,208,75502,1,0,0:0:0:0:
384,260,75818,2,0,B|348:280|308:268|280:244|280:244|240:276,1,160,0|8,0:0|0:0,0:0:0:0:
192,212,76765,2,0,P|228:192|260:156,1,80,0|2,0:0|0:0,0:0:0:0:
256,192,78028,12,0,80239,0:0:0:0:
132,120,80870,6,0,L|232:120,1,80
220,200,81502,2,0,L|296:160,1,80,0|0,0:2|0:0,0:0:0:0:
364,132,82133,6,0,P|400:172|468:180,2,120,4|2|0,0:0|0:2|0:0,0:0:0:0:
320,64,83397,1,2,0:2:0:0:
324,224,84028,2,0,L|252:272,1,80,8|0,0:0|0:0,0:0:0:0:
176,272,84660,2,0,P|236:296|264:368,2,120,0|2|0,0:0|0:2|0:0,0:0:0:0:
104,308,85923,6,0,P|96:268|112:220,1,80,2|0,0:2|0:0,0:0:0:0:
176,196,86554,2,0,P|216:184|248:148,1,80,8|0,0:0|0:0,0:0:0:0:
180,108,87186,2,0,P|208:84|256:76,1,80
324,108,87818,2,0,P|344:128|428:124,1,80,8|0,0:0|0:0,0:0:0:0:
468,164,88449,2,0,L|452:216,1,40
360,276,89081,2,0,P|404:268|456:288,2,80,8|0|0,0:0|0:0|0:0,0:0:0:0:
204,328,90344,6,0,P|164:312|132:276,1,80,8|0,0:0|0:0,0:0:0:0:
112,256,90818,2,0,P|76:300|8:312,1,120,0|0,0:0|0:0,0:0:0:0:
36,236,91607,2,0,P|56:200|100:180,1,80,8|0,0:0|0:0,0:0:0:0:
168,176,92239,1,4,0:0:0:0:
320,228,92870,1,8,0:0:0:0:
248,196,93186,6,0,P|316:148|384:180,1,160,0|0,0:0|0:0,0:0:0:0:
400,252,94133,2,0,P|384:288|336:312,1,80,8|0,0:0|0:0,0:0:0:0:
272,300,94765,1,0,0:0:0:0:
208,152,95397,1,8,0:0:0:0:
236,228,95712,6,0,P|160:220|128:144,1,160
160,80,96660,2,0,P|200:64|240:72,2,80,8|0|4,0:0|0:0|0:0,0:0:0:0:
220,228,97923,1,8,0:0:0:0:
116,352,98554,2,0,P|164:364|208:352,1,80
164,284,99186,2,0,P|124:272|64:284,1,80,8|0,0:0|0:0,0:0:0:0:
256,192,99818,12,8,101712,0:2:0:0:
276,224,102344,6,0,P|264:180|276:144,1,80
344,188,102975,2,0,P|356:228|344:268,1,80,8|0,0:0|0:0,0:0:0:0:
279,303,103607,2,0,B|227:305|198:270|193:230|193:230|142:260,1,160,0|8,0:0|0:0,0:0:0:0:
95,285,104554,1,0,0:0:0:0:
96,205,104870,1,0,0:0:0:0:
57,134,105186,6,0,P|97:121|133:132,2,80,0|8|0,0:0|0:0|0:0,0:0:0:0:
96,204,106133,2,0,P|136:216|172:204,1,80
244,172,106765,2,0,B|280:164|312:144|312:144|336:188|388:184,1,160,8|0,0:0|0:0,0:0:0:0:
312,40,108028,2,0,L|232:72,1,80,8|0,0:0|0:0,0:0:0:0:
172,112,108660,6,0,B|192:160|176:212|124:232|124:232|176:244|216:264,1,240
288,292,109923,1,0,0:0:0:0:
336,139,110554,1,8,0:0:0:0:
440,260,111186,2,0,B|384:276|364:256|364:256|340:208|292:208,1,160,0|8,0:0|0:0,0:0:0:0:
168,292,112449,6,0,P|192:256|196:212,1,80,4|0,0:0|0:0,0:0:0:0:
116,228,113081,1,8,0:0:0:0:
268,280,113712,2,0,B|352:280|352:280|380:312|440:304,1,160,0|8,0:0|0:0,0:0:0:0:
412,224,114660,1,0,0:0:0:0:
336,204,114975,2,0,L|176:204,1,160,0|8,0:0|0:0,0:0:0:0:
192,44,116239,6,0,P|212:80|260:100,2,80,0|0|8,0:0|0:0|0:0,0:0:0:0:
268,20,117186,1,0,0:0:0:0:
328,72,117502,2,0,P|324:116|304:152,1,80,4|0,0:0|0:0,0:0:0:0:
252,204,118133,2,0,P|292:212|324:240,1,80,8|0,0:0|0:0,0:0:0:0:
256,284,118765,2,0,P|304:320|380:320,2,120
184,248,120028,6,0,P|108:268|52:212,1,160,0|8,0:0|0:0,0:0:0:0:
127,185,120975,1,0,0:0:0:0:
60,136,121291,2,0,B|80:100|140:80|188:112|204:152|204:152|232:180|284:172,1,240
340,176,122554,1,4,0:0:0:0:
256,192,129818,12,0,132028,0:0:0:0:
176,204,132660,6,0,P|208:252|276:264,2,120
256,192,133923,2,0,P|300:200|328:224,1,80
332,300,134554,2,0,P|308:328|264:340,1,80,8|0,0:0|0:0,0:0:0:0:
188,340,135186,6,0,B|108:340|108:340|68:356|32:332,1,160,0|8,0:0|0:0,0:0:0:0:
76,268,136133,1,0,0:0:0:0:
42,193,136449,2,0,P|135:215|155:267,1,160,0|8,0:0|0:0,0:0:0:0:
236,256,137397,2,0,L|324:236,1,80,0|4,0:0|0:0,0:0:0:0:
212,116,138344,5,8,0:0:0:0:
276,164,138660,2,0,P|288:92|224:36,1,160
152,64,139607,2,0,P|132:136|192:192,1,160,8|4,0:0|0:0,0:0:0:0:
388,192,141502,6,0,L|304:228,1,80
324,304,142133,2,0,L|236:288,1,80,2|0,0:2|0:0,0:0:0:0:
164,288,142765,6,0,P|188:236|248:212,2,120,4|2|0,0:0|0:2|0:0,0:0:0:0:
84,272,144028,2,0,L|40:264,1,40
64,146,144660,2,0,P|100:186|144:194,2,80,8|0|0,0:0|0:0|0:0,0:0:0:0:
223,129,145923,1,8,0:0:0:0:
184,284,146554,6,0,P|224:312|264:312,1,80
332,288,147186,2,0,P|372:284|416:300,1,80,8|0,0:0|0:0,0:0:0:0:
484,328,147818,2,0,B|500:299|476:248|476:248|476:171,1,160,0|8,0:0|0:0,0:0:0:0:
424,112,148765,2,0,P|376:136|292:116,1,120
216,56,149712,5,8,0:0:0:0:
140,84,150028,1,0,0:0:0:0:
88,144,150344,2,0,P|56:196|68:252,2,120,0|2|0,0:0|0:2|0:0,0:0:0:0:
136,208,151607,2,0,P|148:260|128:300,1,80,0|0,0:0|0:0,0:0:0:0:
216,304,152239,2,0,B|288:304|288:304|332:328|332:328|400:328,1,160,8|4,0:0|0:0,0:0:0:0:
388,168,153502,5,8,0:0:0:0:
324,212,153818,2,0,P|368:244|448:216,2,120,0|0|8,0:0|0:0|0:0,0:0:0:0:
272,152,155081,1,0,0:0:0:0:
192,156,155397,2,0,P|124:196|96:268,1,160,0|8,0:0|0:0,0:0:0:0:
152,324,156344,1,0,0:0:0:0:
228,300,156660,6,0,L|304:252,1,80
340,192,157291,2,0,P|376:228|428:240,1,80,8|0,0:0|0:0,0:0:0:0:
412,160,157923,1,4,0:0:0:0:
288,60,158554,1,8,0:0:0:0:
268,220,159186,6,0,P|232:240|184:236,2,80,0|0|8,0:0|0:0|0:0,0:0:0:0:
216,160,160133,1,2,0:2:0:0:
256,192,160449,12,8,162344,0:2:0:0:
184,272,162975,6,0,P|240:288|300:272,2,120,4|0|0,0:0|0:0|0:0,0:0:0:0:
136,208,164239,2,0,P|96:228|68:260,2,80,0|0|8,0:0|0:0|0:0,0:0:0:0:
264,112,165502,2,0,B|256:172|288:200|288:200|340:216|360:252,1,160,0|8,0:0|0:0,0:0:0:0:
388,300,166449,1,0,0:0:0:0:
316,336,166765,2,0,P|276:348|216:336,2,80,0|0|8,0:0|0:0|0:0,0:0:0:0:
272,268,167712,1,0,0:0:0:0:
192,252,168028,6,0,P|132:256|88:296,2,120,4|0|0,0:0|0:0|0:0,0:0:0:0:
252,196,169291,2,0,P|260:148|240:108,2,80,0|0|8,0:0|0:0|0:0,0:0:0:0:
212,40,170554,2,0,B|260:28|260:28|296:40|296:40|348:36,2,120
144,84,171818,2,0,P|120:120|116:160,1,80
128,236,172449,2,0,P|84:224|40:236,1,80,8|0,0:0|0:0,0:0:0:0:
88,304,173081,6,0,B|136:332|180:308|196:280|196:280|252:280,1,160,4|0,0:0|0:0,0:0:0:0:
224,120,174344,2,0,B|244:164|296:172,2,80,0|0|8,0:0|0:0|0:0,0:0:0:0:
300,92,175291,1,0,0:0:0:0:
360,144,175607,6,0,P|388:172|396:216,1,80
464,256,176239,2,0,P|432:284|380:288,1,80,8|0,0:0|0:0,0:0:0:0:
320,320,176870,2,0,P|316:268|328:240,2,80,0|0|8,0:0|0:0|0:0,0:0:0:0:
239,314,177818,5,0,0:0:0:0:
164,280,178133,2,0,L|284:172,1,160,0|8,0:0|0:0,0:0:0:0:
124,200,179397,2,0,L|242:92,1,160,0|8,0:0|0:0,0:0:0:0:
308,136,180344,2,0,P|392:160|448:108,1,160
370,86,181291,1,0,0:0:0:0:
295,57,181607,1,4,0:0:0:0:
148,192,185712,5,2,0:0:0:0:
308,192,186344,1,0,0:0:0:0:
192,300,186975,1,2,0:0:0:0:
352,300,187607,1,0,0:0:0:0:
228,200,188239,2,0,P|288:116|388:180,1,240,2|0,0:0|0:0,0:0:0:0:
308,192,189502,5,2,0:0:0:0:
212,320,190133,1,0,0:0:0:0:
104,200,190765,2,0,P|184:200|244:248,1,160,2|0,0:0|0:0,0:0:0:0:
292,312,191712,2,0,P|364:264|380:196,1,160,2|0,0:0|0:0,0:0:0:0:
324,136,192660,2,0,B|268:172|220:104|156:156,1,160,2|0,0:0|0:0,0:0:0:0:
116,300,193923,5,8,0:0:0:0:
196,304,194239,2,0,P|272:300|344:344,1,160
420,336,195186,2,0,P|464:320|492:284,2,80,2|0|0,0:0|0:0|0:0,0:0:0:0:
372,184,196449,1,8,0:0:0:0:
396,260,196765,6,0,P|316:240|292:168,1,160
236,116,197712,2,0,P|276:96|311:98,2,80,2|0|0,0:0|0:0|0:0,0:0:0:0:
220,276,198975,1,8,0:0:0:0:
276,220,199291,6,0,P|200:200|144:256,1,160,0|0,0:0|0:0,0:0:0:0:
152,332,200239,2,0,P|188:360|240:360,1,80,2|0,0:0|0:0,0:0:0:0:
296,332,200870,1,4,0:0:0:0:
384,200,201502,5,2,0:0:0:0:
228,228,202133,2,0,P|264:248|312:248,1,80
284,172,202765,2,0,P|252:152|200:151,1,80,8|0,0:0|0:0,0:0:0:0:
256,192,203397,12,0,205291,0:0:0:0:
328,280,205923,6,0,P|388:264|424:208,2,120,4|2|0,0:0|0:2|0:0,0:0:0:0:
340,200,207186,2,0,P|284:208|248:256,1,120
236,296,207818,2,0,P|208:320|164:332,1,80,8|0,0:0|0:0,0:0:0:0:
164,252,208449,6,0,P|112:212|56:216,2,120,0|2|0,0:0|0:2|0:0,0:0:0:0:
216,192,209712,2,0,L|280:136,1,80
208,100,210344,2,0,L|272:44,1,80,8|0,0:0|0:0,0:0:0:0:
344,80,210975,2,0,P|392:124|452:128,2,120,0|2|0,0:0|0:2|0:0,0:0:0:0:
420,56,212239,6,0,P|408:124|356:156,1,120
332,168,212870,2,0,P|288:168|248:196,1,80,8|0,0:0|0:0,0:0:0:0:
208,248,213502,2,0,B|184:288|184:288|144:308|144:308|128:332,2,120,0|2|0,0:0|0:2|0:0,0:0:0:0:
284,276,214765,6,0,P|320:308|368:312,2,80,0|0|8,0:0|0:0|0:0,0:0:0:0:
352,236,215712,1,0,0:0:0:0:
420,276,216028,2,0,P|428:216|344:156,1,160,4|8,0:0|0:0,0:0:0:0:
280,180,216975,5,0,0:0:0:0:
248,204,217133,2,0,P|200:220|132:204,1,120,2|0,0:2|0:0,0:0:0:0:
80,144,217923,2,0,P|40:168|20:204,2,80,8|0|0,0:0|0:0|0:0,0:0:0:0:
152,288,219186,1,8,0:0:0:0:
80,320,219502,5,0,0:0:0:0:
76,280,219660,2,0,P|100:228|164:212,1,120,2|0,0:2|0:0,0:0:0:0:
236,196,220449,2,0,P|280:184|312:148,1,80,8|0,0:0|0:0,0:0:0:0:
240,116,221081,5,4,0:0:0:0:
312,260,221712,1,8,0:0:0:0:
429,153,222344,2,0,P|353:77|240:116,1,240,0|0,0:0|0:0,0:0:0:0:
256,192,223607,12,0,226133,0:0:0:0:
176,272,227397,6,0,P|256:292|332:272,1,160,2|0,0:0|0:0,0:0:0:0:
384,216,228344,1,0,0:0:0:0:
408,292,228660,2,0,P|464:244|440:160,1,160,2|0,0:0|0:0,0:0:0:0:
376,136,229607,1,0,0:0:0:0:
312,188,229923,2,0,P|276:204|216:196,2,80,2|0|0,0:0|0:0|0:0,0:0:0:0:
258,128,230870,1,0,0:0:0:0:
180,140,231186,6,0,P|152:224|208:284,1,160,2|2,0:0|0:0,0:0:0:0:
264,248,232133,1,0,0:0:0:0:
312,312,232449,2,0,P|368:332|424:312,2,120,2|0|0,0:0|0:0|0:0,0:0:0:0:
368,256,233712,1,2,0:0:0:0:
144,88,234975,6,0,B|176:116|212:116|256:100|256:100|296:116|332:116|370:88,1,240,2|0,0:0|0:0,0:0:0:0:
