osu file format v12

[General]
AudioFilename: Flower.mp3
AudioLeadIn: 0
PreviewTime: 20239
Countdown: 0
SampleSet: Normal
StackLeniency: 0.7
Mode: 0
LetterboxInBreaks: 0

[Editor]
Bookmarks: 61890,122364,137521,162312,205891
DistanceSpacing: 1.5
BeatDivisor: 4
GridSize: 4

[Metadata]
Title:Toki wo Tomete
TitleUnicode:時をとめて
Artist:Tiara feat. WISE
ArtistUnicode:Tiara feat. WISE
Creator:Autumn
Version:Hard
Source:
Tags:KwaiMay TIM2012 Jeff Miyahara
BeatmapID:244437
BeatmapSetID:64633

[Difficulty]
HPDrainRate:7
CircleSize:4
OverallDifficulty:7
ApproachRate:8
SliderMultiplier:2.6
SliderTickRate:1

[Events]
//Background and Video events
0,0,"BG.jpg",0,0
Video,0,"Video.avi"
//Break Periods
2,62122,69383
2,122754,130015
2,181806,184962
//Storyboard Layer 0 (Background)
//Storyboard Layer 1 (Fail)
//Storyboard Layer 2 (Pass)
//Storyboard Layer 3 (Foreground)
//Storyboard Sound Samples
//Background Colour Transformations
3,100,163,162,255

[TimingPoints]
11397,631.578947368421,4,1,1,60,1,0
21502,-100,4,1,1,60,0,1
21660,-100,4,1,1,60,0,0
42028,-100,4,2,1,60,0,0
79607,-200,4,2,1,60,0,0
80239,-100,4,2,1,60,0,0
82133,-100,4,1,1,60,0,1
102344,-100,4,2,1,60,0,0
140239,-200,4,2,1,60,0,0
140870,-100,4,2,1,60,0,0
142765,-100,4,1,1,60,0,1
162975,-100,4,2,1,60,0,0
184449,-100,4,2,1,40,0,0
205923,-100,4,1,1,60,0,1
226133,-100,4,2,1,30,0,0
235291,-100,4,2,1,10,0,0
235607,-100,4,2,1,20,0,0
235923,-100,4,2,1,10,0,0

[Colours]
Combo1 : 255,255,0
Combo2 : 131,252,131
Combo3 : 86,86,252
Combo4 : 252,86,86

[HitObjects]
96,116,20239,2,0,P|152:152|224:148,1,130
56,232,20870,2,0,P|96:176|96:116,1,130,2|0,0:2|0:0,0:0:0:0:
176,256,21502,2,0,L|236:292,2,65,4|0|0,0:1|0:0|0:0,0:0:0:0:
32,344,22133,1,8,0:0:0:0:
108,200,22449,2,0,L|140:144,2,65
304,272,23081,1,2,0:2:0:0:
136,288,23397,2,0,P|180:240|252:236,1,130,8|0,0:0|0:0,0:0:0:0:
428,319,24028,6,0,L|368:344,1,65
376,260,24344,2,0,P|396:200|380:136,1,130,0|8,0:0|0:0,0:0:0:0:
216,104,24975,1,0,0:0:0:0:
216,188,25133,1,0,0:0:0:0:
292,148,25291,2,0,P|296:80|264:28,1,130,0|2,0:0|0:2,0:0:0:0:
140,144,25923,2,0,P|132:208|172:264,1,130,8|2,0:0|0:2,0:0:0:0:
352,292,26554,6,0,P|296:316|228:300,1,130,0|2,0:0|0:2,0:0:0:0:
288,236,27028,2,0,P|348:208|412:232,1,130,8|0,0:0|0:0,0:0:0:0:
439,305,27502,2,0,L|432:176,1,130,0|2,0:0|0:2,0:0:0:0:
352,44,27975,2,0,L|360:176,1,130,8|0,0:0|0:0,0:0:0:0:
276,156,28449,5,8,0:0:0:0:
432,176,28765,1,0,0:0:0:0:
280,252,29081,2,0,L|216:288,2,65
356,216,29554,1,2,0:2:0:0:
356,216,29712,2,0,P|388:272|448:296,1,130,8|0,0:0|0:0,0:0:0:0:
444,208,30186,6,0,P|416:148|352:128,1,130,0|2,0:0|0:2,0:0:0:0:
280,156,30660,2,0,L|300:84,1,65,0|2,0:0|0:2,0:0:0:0:
204,240,30975,1,8,0:0:0:0:
460,296,31291,1,0,0:0:0:0:
292,260,31607,5,4,0:0:0:0:
376,276,31765,1,0,0:0:0:0:
348,196,31923,1,0,0:0:0:0:
312,360,32239,1,8,0:0:0:0:
168,280,32554,6,0,L|224:316,1,65,0|2,0:0|0:2,0:0:0:0:
64,252,33028,2,0,L|80:188,1,65,0|2,0:0|0:2,0:0:0:0:
239,94,33502,2,0,P|176:92|120:124,1,130,8|0,0:0|0:0,0:0:0:0:
216,264,34133,1,0,0:0:0:0:
244,184,34291,1,0,0:0:0:0:
160,200,34449,1,0,0:0:0:0:
188,344,34765,1,8,0:0:0:0:
348,276,35081,5,0,0:0:0:0:
348,276,35239,2,0,P|416:296|484:280,1,130,0|2,0:0|0:2,0:0:0:0:
368,214,35712,2,0,L|348:276,1,65,0|2,0:0|0:2,0:0:0:0:
324,356,36028,1,8,0:0:0:0:
288,192,36344,1,0,0:0:0:0:
144,300,36660,6,0,P|208:304|264:272,1,130,4|0,0:0|0:0,0:0:0:0:
408,164,37291,2,0,P|344:160|288:192,1,130,8|0,0:0|0:0,0:0:0:0:
376,332,37923,1,2,0:2:0:0:
288,192,38239,1,0,0:0:0:0:
444,256,38554,1,8,0:0:0:0:
284,296,38870,1,0,0:0:0:0:
396,160,39186,1,4,0:0:0:0:
256,192,39344,12,4,41712,0:0:0:0:
172,228,42028,6,0,P|224:264|296:264,1,130,0|8,0:0|0:0,0:0:0:0:
364,224,42502,2,0,P|317:258|301:326,1,130,0|0,0:0|0:0,0:0:0:0:
384,308,42975,2,0,P|440:268|452:208,1,130,0|2,0:0|0:0,0:0:0:0:
280,137,43607,2,0,P|312:200|364:224,1,130,8|0,0:0|0:0,0:0:0:0:
324,60,44239,1,0,0:0:0:0:
160,104,44554,6,0,L|212:160,1,65,0|0,0:0|0:0,0:0:0:0:
124,184,44870,2,0,L|148:252,1,65,8|0,0:0|0:0,0:0:0:0:
64,268,45186,2,0,L|48:332,1,65
132,312,45502,2,0,P|200:336|264:320,2,130,0|2|0,0:0|0:0|0:0,0:0:0:0:
332,296,46449,1,0,0:0:0:0:
132,312,46765,6,0,P|200:288|240:240,1,130,0|0,0:0|0:0,0:0:0:0:
160,212,47239,2,0,L|292:220,1,130,0|0,0:0|0:0,0:0:0:0:
376,224,47712,1,0,0:0:0:0:
261,338,48028,2,0,P|256:272|288:220,1,130,0|2,0:0|0:0,0:0:0:0:
344,156,48502,2,0,L|144:144,1,195,0|2,0:0|0:0,0:0:0:0:
322,94,49291,6,0,L|344:156,1,65,0|0,0:0|0:0,0:0:0:0:
184,216,49765,2,0,L|248:196,1,65,0|8,0:0|0:0,0:0:0:0:
84,248,50239,1,0,0:0:0:0:
248,280,50554,2,0,P|252:208|296:156,1,130
180,320,51186,2,0,L|310:324,1,130,8|0,0:0|0:0,0:0:0:0:
468,332,51818,6,0,B|424:324|392:280|404:224|404:224|352:192,1,195,4|0,0:0|0:0,0:0:0:0:
340,112,52449,2,0,P|332:176|280:228,1,130,8|0,0:0|0:0,0:0:0:0:
172,100,53081,1,2,0:0:0:0:
168,268,53397,1,0,0:0:0:0:
16,192,53712,2,0,P|72:216|140:192,1,130,8|0,0:0|0:0,0:0:0:0:
216,168,54186,1,0,0:0:0:0:
216,168,54344,2,0,P|264:224|272:280,1,130,0|0,0:0|0:0,0:0:0:0:
408,176,54975,6,0,L|332:188,1,65,8|0,0:0|0:0,0:0:0:0:
360,104,55291,2,0,L|392:44,1,65
240,72,55607,2,0,P|240:140|280:192,1,130,0|2,0:0|0:0,0:0:0:0:
424,272,56239,1,8,0:0:0:0:
248,272,56554,1,2,0:0:0:0:
404,181,56870,2,0,P|348:225|336:280,1,130,4|0,0:0|0:0,0:0:0:0:
336,280,57344,2,0,P|323:225|267:181,1,130
154,144,57818,1,2,0:0:0:0:
154,144,58133,6,0,P|203:184|267:181,1,130
232,104,58607,2,0,B|276:80|336:104|352:164|352:164|400:184,1,195,0|2,0:0|0:0,0:0:0:0:
452,24,59397,2,0,L|428:88,2,65
472,192,60028,5,8,0:0:0:0:
308,228,60344,1,0,0:0:0:0:
456,308,60660,1,2,0:0:0:0:
292,356,60975,1,0,0:0:0:0:
144,276,61291,2,0,P|204:304|264:288,2,130,8|0|4,0:0|0:0|0:0,0:0:0:0:
256,192,70133,12,0,71397,0:0:0:0:
376,260,72028,6,0,L|444:248,1,65,0|0,0:0|0:0,0:0:0:0:
376,260,72344,2,0,L|368:328,1,65,0|2,0:0|0:0,0:0:0:0:
384,180,72660,1,8,0:0:0:0:
232,252,72975,1,0,0:0:0:0:
148,264,73133,1,0,0:0:0:0:
64,280,73291,2,0,L|56:352,2,65,0|2|0,0:0|0:0|0:0,0:0:0:0:
84,112,73923,2,0,P|144:92|208:120,1,130,8|0,0:0|0:0,0:0:0:0:
372,96,74554,6,0,P|340:148|344:216,1,130,0|0,0:0|0:0,0:0:0:0:
205,307,75186,2,0,P|228:280|236:252,1,65,8|0,0:0|0:0,0:0:0:0:
156,236,75502,2,0,L|94:219,1,65,2|0,0:0|0:0,0:0:0:0:
304,272,75818,2,0,L|366:289,1,65,0|0,0:0|0:0,0:0:0:0:
240,168,76133,2,0,L|177:150,1,65,2|0,0:0|0:0,0:0:0:0:
320,184,76449,2,0,P|388:172|432:132,2,130,8|0|0,0:0|0:0|0:0,0:0:0:0:
112,272,77712,5,8,0:0:0:0:
228,144,78028,2,0,B|165:192|165:192|104:160|32:188|20:264,1,260,0|0,0:0|0:0,0:0:0:0:
123,359,78975,2,0,P|180:331|200:272,1,130,8|0,0:0|0:0,0:0:0:0:
92,200,79607,6,0,L|201:273,1,130,4|0,0:0|0:0,0:0:0:0:
92,200,80870,5,2,0:0:0:0:
200,272,81186,1,0,0:0:0:0:
152,140,81502,1,2,0:0:0:0:
123,277,81818,1,0,0:0:0:0:
224,184,82133,6,0,P|280:224|284:288,1,130,4|2,0:0|0:2,0:0:0:0:
228,344,82607,2,0,P|284:312|364:324,1,130,8|0,0:0|0:0,0:0:0:0:
420,356,83081,2,0,L|472:224,1,130,0|2,0:0|0:2,0:0:0:0:
432,112,83554,2,0,L|384:232,1,130,8|0,0:0|0:0,0:0:0:0:
300,224,84028,6,0,P|240:240|172:220,1,130,8|0,0:0|0:0,0:0:0:0:
300,104,84660,1,0,0:0:0:0:
240,164,84818,1,0,0:0:0:0:
184,104,84975,1,0,0:0:0:0:
240,284,85291,1,8,0:0:0:0:
72,320,85607,2,0,L|136:288,1,65
188,352,85923,6,0,P|252:364|312:328,1,130,0|2,0:0|0:2,0:0:0:0:
456,252,86554,2,0,P|400:288|376:348,1,130,0|2,0:0|0:2,0:0:0:0:
276,208,87186,2,0,L|240:148,2,65,0|0|0,0:0|0:0|0:0,0:0:0:0:
317,280,87660,2,0,P|249:288|204:252,1,130,8|0,0:0|0:0,0:0:0:0:
106,323,88133,2,0,P|168:304|204:252,1,130,0|2,0:0|0:2,0:0:0:0:
252,188,88607,2,0,P|196:172|132:212,1,130,8|0,0:0|0:0,0:0:0:0:
252,188,89081,6,0,P|320:188|372:136,1,130,8|0,0:0|0:0,0:0:0:0:
340,68,89554,1,0,0:0:0:0:
340,68,89712,2,0,P|276:68|225:106,1,130,0|0,0:0|0:0,0:0:0:0:
176,168,90186,2,0,L|176:240,2,65,2|8|0,0:2|0:0|0:0,0:0:0:0:
172,88,90660,5,0,0:0:0:0:
172,88,90818,2,0,P|128:136|60:148,1,130,0|2,0:0|0:2,0:0:0:0:
52,224,91291,2,0,L|72:288,1,65,0|2,0:0|0:2,0:0:0:0:
92,360,91607,1,8,0:0:0:0:
288,248,91923,1,0,0:0:0:0:
136,240,92239,2,0,P|196:264|224:332,1,130,4|0,0:0|0:0,0:0:0:0:
308,324,92712,1,0,0:0:0:0:
308,324,92870,2,0,L|384:320,1,65,8|0,0:0|0:0,0:0:0:0:
404,244,93186,5,0,0:0:0:0:
404,244,93344,2,0,L|368:368,1,130,0|2,0:0|0:2,0:0:0:0:
404,244,93818,1,0,0:0:0:0:
248,176,94133,1,8,0:0:0:0:
124,292,94449,1,0,0:0:0:0:
248,176,94765,2,0,P|192:200|124:184,1,130,0|0,0:0|0:0,0:0:0:0:
184,120,95239,1,0,0:0:0:0:
184,120,95397,2,0,P|240:92|304:116,1,130,8|0,0:0|0:0,0:0:0:0:
360,172,95870,6,0,P|312:220|288:280,1,130,0|2,0:0|0:2,0:0:0:0:
160,304,96344,2,0,P|188:280|204:244,1,65,0|2,0:0|0:2,0:0:0:0:
232,184,96660,1,8,0:0:0:0:
76,300,96975,1,0,0:0:0:0:
256,372,97291,1,4,0:0:0:0:
424,252,97923,1,8,0:0:0:0:
156,240,98554,5,2,0:2:0:0:
340,312,98870,1,0,0:0:0:0:
324,216,99186,1,8,0:0:0:0:
168,340,99502,1,0,0:0:0:0:
256,192,99818,12,8,101712,0:0:0:0:
256,192,102344,5,4,0:2:0:0:
120,147,102660,2,0,P|159:103|227:91,1,130,0|8,0:0|0:0,0:0:0:0:
227,287,103133,2,0,P|159:275|120:232,1,130
208,192,103607,2,0,P|276:200|320:248,2,130,0|2|8,0:0|0:0|0:0,0:0:0:0:
296,328,104554,1,0,0:0:0:0:
424,236,104870,6,0,P|416:304|460:364,1,130,0|0,0:0|0:0,0:0:0:0:
496,284,105344,1,0,0:0:0:0:
424,236,105502,2,0,L|364:192,1,65,8|0,0:0|0:0,0:0:0:0:
308,246,105818,2,0,L|256:208,1,65
160,236,106133,1,0,0:0:0:0:
300,144,106449,1,2,0:0:0:0:
308,320,106765,6,0,P|372:340|436:320,1,130,8|0,0:0|0:0,0:0:0:0:
372,164,107397,2,0,L|372:228,2,65
224,108,108028,2,0,P|288:96|336:52,1,130,8|0,0:0|0:0,0:0:0:0:
264,208,108660,2,0,P|228:136|124:100,1,195
100,180,109291,2,0,P|132:232|196:256,1,130,8|0,0:0|0:0,0:0:0:0:
354,204,109923,2,0,P|346:236|348:268,1,65,0|2,0:0|0:0,0:0:0:0:
356,120,110397,1,0,0:0:0:0:
356,120,110554,6,0,P|296:144|272:216,2,130,8|0|0,0:0|0:0|0:0,0:0:0:0:
272,296,111502,1,0,0:0:0:0:
148,161,111818,2,0,L|272:201,1,130,8|0,0:0|0:0,0:0:0:0:
108,236,112449,6,0,P|64:180|72:116,1,130,4|0,0:0|0:0,0:0:0:0:
228,52,112923,1,0,0:0:0:0:
160,108,113081,2,0,L|104:64,1,65,8|0,0:0|0:0,0:0:0:0:
188,204,113397,2,0,L|239:244,1,65
308,192,113712,2,0,P|284:260|304:316,2,130,2|0|8,0:0|0:0|0:0,0:0:0:0:
208,328,114660,1,0,0:0:0:0:
364,256,114975,6,0,L|424:224,1,65
428,140,115291,2,0,L|370:170,1,65
296,128,115607,2,0,L|353:97,1,65,8|0,0:0|0:0,0:0:0:0:
212,112,115923,2,0,L|155:143,1,65
84,96,116239,2,0,P|128:152|124:212,2,130,2|0|8,0:0|0:0|0:0,0:0:0:0:
208,212,117186,1,0,0:0:0:0:
84,96,117502,6,0,B|128:120|168:120|204:100|204:100|240:80|280:92,1,195,4|0,0:2|0:0,0:0:0:0:
350,118,118133,2,0,P|308:164|244:168,1,130,8|0,0:0|0:0,0:0:0:0:
348,40,118765,2,0,P|380:44|408:64,2,65,2|0|0,0:0|0:0|0:0,0:0:0:0:
244,168,119397,2,0,P|304:208|368:204,1,130,8|0,0:0|0:0,0:0:0:0:
204,276,120028,2,0,L|140:288,2,65,0|0|0,0:0|0:0|0:0,0:0:0:0:
135,91,120660,6,0,L|200:204,1,130,8|0,0:0|0:0,0:0:0:0:
266,92,121291,2,0,L|136:92,1,130,0|0,0:0|0:0,0:0:0:0:
200,204,121923,2,0,L|265:91,1,130,8|0,0:0|0:0,0:0:0:0:
200,280,122554,1,4,0:2:0:0:
256,192,130765,12,0,132028,0:0:0:0:
136,232,132660,6,0,L|192:196,1,65,4|0,0:2|0:0,0:0:0:0:
264,156,132975,1,2,0:0:0:0:
224,80,133133,1,0,0:0:0:0:
264,156,133291,2,0,P|304:204|396:224,1,130,8|0,0:0|0:0,0:0:0:0:
448,208,133765,1,0,0:0:0:0:
416,284,133923,2,0,L|384:348,1,65
260,300,134239,2,0,L|328:296,1,65,0|0,0:0|0:0,0:0:0:0:
192,256,134554,2,0,P|164:312|100:328,1,130,8|0,0:0|0:0,0:0:0:0:
112,244,135028,1,0,0:0:0:0:
164,176,135186,6,0,L|308:192,1,130,0|0,0:0|0:0,0:0:0:0:
154,93,135818,2,0,L|284:108,1,130,8|0,0:0|0:0,0:0:0:0:
368,10,136449,2,0,L|282:108,1,130,0|0,0:0|0:0,0:0:0:0:
444,52,137081,2,0,L|357:149,1,130,8|0,0:0|0:0,0:0:0:0:
412,216,137712,2,0,P|348:232|291:207,2,130,0|2|8,0:0|0:0|0:0,0:0:0:0:
252,268,138660,6,0,B|288:216|272:148|236:124|236:124|328:92,1,195,0|2,0:0|0:0,0:0:0:0:
352,88,139291,2,0,L|276:68,1,65,0|2,0:0|0:0,0:0:0:0:
416,132,139607,2,0,P|444:192|440:260,1,130,8|0,0:0|0:0,0:0:0:0:
252,268,140239,6,0,L|380:300,1,130,4|0,0:2|0:0,0:0:0:0:
378,299,141502,5,2,0:0:0:0:
252,268,141818,1,0,0:0:0:0:
388,168,142133,1,2,0:0:0:0:
252,268,142449,1,2,0:0:0:0:
184,112,142765,6,0,P|252:132|280:200,1,130,4|2,0:0|0:2,0:0:0:0:
196,196,143239,2,0,P|132:180|100:124,1,130,8|0,0:0|0:0,0:0:0:0:
184,112,143712,2,0,L|100:224,1,130,0|2,0:0|0:2,0:0:0:0:
52,280,144186,2,0,P|112:256|180:276,1,130,8|0,0:0|0:0,0:0:0:0:
240,324,144660,2,0,P|308:336|368:304,1,130,8|0,0:0|0:0,0:0:0:0:
252,180,145291,5,0,0:0:0:0:
296,252,145449,1,0,0:0:0:0:
332,176,145607,1,0,0:0:0:0:
136,288,145923,1,8,0:0:0:0:
80,128,146239,2,0,L|116:192,1,65
60,252,146554,2,0,P|108:212|172:216,1,130,0|2,0:0|0:2,0:0:0:0:
300,104,147186,2,0,P|252:144|188:139,1,130,8|2,0:0|0:2,0:0:0:0:
332,48,147818,6,0,P|324:120|356:184,1,130,4|2,0:0|0:2,0:0:0:0:
272,212,148291,2,0,L|416:192,1,130,8|0,0:0|0:0,0:0:0:0:
344,256,148765,2,0,L|416:148,1,130,0|2,0:0|0:2,0:0:0:0:
396,64,149239,2,0,P|432:120|512:136,1,130,8|0,0:0|0:0,0:0:0:0:
484,48,149712,1,8,0:0:0:0:
304,80,150028,1,0,0:0:0:0:
424,224,150344,6,0,L|464:276,1,65
320,232,150660,2,0,L|360:284,1,65,0|2,0:0|0:2,0:0:0:0:
316,148,150975,2,0,P|280:200|208:224,1,130,8|0,0:0|0:0,0:0:0:0:
144,184,151449,2,0,L|209:296,1,130,0|2,0:0|0:2,0:0:0:0:
96,256,151923,2,0,L|160:288,1,65,0|2,0:0|0:2,0:0:0:0:
272,332,152239,1,8,0:0:0:0:
104,348,152554,1,0,0:0:0:0:
272,332,152870,6,0,P|332:296|352:228,1,130,4|0,0:0|0:0,0:0:0:0:
400,354,153502,2,0,L|272:332,1,130,8|0,0:0|0:0,0:0:0:0:
248,252,153975,2,0,P|224:312|168:340,1,130,0|2,0:0|0:2,0:0:0:0:
108,224,154449,2,0,L|176:264,1,65,0|2,0:0|0:2,0:0:0:0:
28,236,154765,2,0,P|44:176|100:144,1,130,8|0,0:0|0:0,0:0:0:0:
121,304,155397,6,0,P|68:296|28:236,1,130,4|0,0:0|0:0,0:0:0:0:
108,224,155870,1,0,0:0:0:0:
108,224,156028,2,0,P|176:240|204:296,1,130,8|0,0:0|0:0,0:0:0:0:
196,375,156502,2,0,L|288:284,1,130,0|2,0:0|0:2,0:0:0:0:
353,287,156975,2,0,L|288:284,1,65,0|2,0:0|0:2,0:0:0:0:
200,276,157291,1,8,0:0:0:0:
432,292,157607,1,0,0:0:0:0:
200,276,157923,6,0,P|256:248|288:184,1,130,4|0,0:0|0:0,0:0:0:0:
286,361,158554,2,0,P|256:304|200:276,1,130,8|0,0:0|0:0,0:0:0:0:
116,264,159028,1,0,0:0:0:0:
115,264,159186,2,0,P|159:208|168:152,1,130
281,198,159818,2,0,P|216:192|168:152,1,130,8|0,0:0|0:0,0:0:0:0:
256,192,160449,12,8,162344,0:0:0:0:
348,128,162975,6,0,P|412:184|400:296,2,195,4|0|0,0:0|0:0|0:0,0:0:0:0:
236,256,164239,1,0,0:0:0:0:
408,288,164554,1,2,0:0:0:0:
348,128,164870,1,10,0:0:0:0:
316,296,165186,5,0,0:0:0:0:
316,296,165344,1,0,0:0:0:0:
316,296,165502,1,0,0:0:0:0:
260,136,165818,2,0,L|300:196,1,65
212,192,166133,2,0,P|244:128|236:72,1,130,8|0,0:0|0:0,0:0:0:0:
108,130,166765,2,0,P|148:178|212:192,1,130,0|2,0:0|0:0,0:0:0:0:
108,253,167397,2,0,P|148:205|212:192,1,130,8|0,0:0|0:0,0:0:0:0:
380,160,168028,6,0,B|435:191|435:191|406:213|408:248,1,130,4|0,0:0|0:0,0:0:0:0:
492,280,168502,2,0,P|448:332|384:336,1,130
304,328,168975,2,0,P|316:292|334:273,1,65,0|0,0:0|0:0,0:0:0:0:
252,260,169291,2,0,P|192:280|128:260,2,130,0|2|8,0:0|0:0|0:0,0:0:0:0:
404,184,170239,6,0,L|344:216,1,65
272,176,170554,2,0,L|348:296,1,130
392,356,171028,1,0,0:0:0:0:
392,356,171186,2,0,B|428:328|428:284|428:284|476:308,1,130,8|0,0:0|0:0,0:0:0:0:
304,348,171818,2,0,P|240:336|196:272,1,130
184,204,172291,1,0,0:0:0:0:
184,204,172449,2,0,P|160:276|115:301,1,130,8|0,0:0|0:0,0:0:0:0:
144,132,173081,6,0,P|236:136|264:224,2,195,4|0|0,0:0|0:0|0:0,0:0:0:0:
184,204,174186,1,0,0:0:0:0:
184,204,174344,2,0,P|200:276|244:304,1,130,0|2,0:0|0:0,0:0:0:0:
352,172,174975,1,8,0:0:0:0:
184,204,175291,5,0,0:0:0:0:
273,343,175607,2,0,L|332:316,2,65
436,300,176239,2,0,P|368:284|332:240,1,130,8|0,0:0|0:0,0:0:0:0:
184,204,176870,2,0,P|252:188|284:140,1,130
200,120,177344,1,0,0:0:0:0:
200,120,177502,2,0,P|132:132|100:184,1,130,8|0,0:0|0:0,0:0:0:0:
166,321,178133,6,0,P|198:261|184:204,1,130,0|2,0:0|0:0,0:0:0:0:
166,321,178765,2,0,P|229:304|269:251,1,130,8|0,0:0|0:0,0:0:0:0:
268,168,179239,1,0,0:0:0:0:
268,255,179397,2,0,P|306:304|369:321,1,130,0|2,0:0|0:0,0:0:0:0:
352,203,180028,2,0,P|338:261|370:321,1,130,8|0,0:0|0:0,0:0:0:0:
436,168,180660,6,0,B|412:120|356:100|312:124|312:124|264:104,1,195
304,28,181291,2,0,P|256:72|188:88,1,130,8|4,0:0|0:0,0:0:0:0:
256,192,185712,6,0,L|384:148,1,130
280,64,186344,2,0,L|256:192,1,130,2|0,0:0|0:0,0:0:0:0:
378,149,186975,2,0,L|280:64,1,130
157,107,187607,2,0,L|280:64,1,130,2|0,0:0|0:0,0:0:0:0:
158,107,188239,6,0,L|133:235,1,130
299,202,188870,1,2,0:0:0:0:
133,234,189186,1,0,0:0:0:0:
276,324,189502,1,0,0:0:0:0:
184,312,189818,1,0,0:0:0:0:
348,276,190133,1,2,0:0:0:0:
212,180,190449,1,0,0:0:0:0:
348,276,190765,6,0,L|471:330,1,130,0|0,0:0|0:0,0:0:0:0:
452,199,191397,2,0,L|348:276,1,130,2|0,0:0|0:0,0:0:0:0:
467,328,192028,2,0,L|453:199,1,130,0|0,0:0|0:0,0:0:0:0:
426,31,192660,5,2,0:0:0:0:
296,138,192975,1,0,0:0:0:0:
453,199,193291,1,2,0:0:0:0:
72,216,194239,5,0,0:0:0:0:
72,216,194397,2,0,B|124:196|124:196|136:236|176:248,1,130,2|0,0:0|0:0,0:0:0:0:
252,220,194870,2,0,P|239:198|207:174,1,65,2|0,0:0|0:0,0:0:0:0:
228,296,195186,2,0,P|296:284|332:232,2,130,2|0|4,0:0|0:0|0:0,0:0:0:0:
324,156,196133,1,2,0:0:0:0:
324,156,196449,2,0,B|360:152|384:168|400:196|400:196|448:192,1,130,8|0,0:0|0:0,0:0:0:0:
448,276,196923,6,0,L|312:288,1,130,2|0,0:0|0:0,0:0:0:0:
284,236,197397,2,0,P|316:272|320:304,1,65,2|0,0:0|0:0,0:0:0:0:
236,304,197712,2,0,P|200:248|224:180,2,130,2|0|4,0:0|0:0|0:0,0:0:0:0:
360,348,198660,1,2,0:0:0:0:
236,304,198975,2,0,P|172:292|116:320,1,130,8|0,0:0|0:0,0:0:0:0:
36,348,199449,6,0,P|64:276|56:212,1,130,2|0,0:0|0:0,0:0:0:0:
35,150,199923,2,0,P|34:117|47:88,2,65,0|0|2,0:0|0:0|0:0,0:0:0:0:
227,118,200554,1,0,0:0:0:0:
99,36,200870,6,0,P|143:90|141:156,1,130,4|2,0:0|0:0,0:0:0:0:
145,315,201502,2,0,P|100:260|102:194,1,130,2|0,0:0|0:0,0:0:0:0:
259,252,202133,2,0,L|144:313,1,130
374,312,202765,2,0,L|252:250,1,130,2|0,0:0|0:0,0:0:0:0:
256,192,203397,12,0,205291,0:0:0:0:
60,96,205923,6,0,L|136:128,1,65,4|0,0:0|0:0,0:0:0:0:
204,100,206239,2,0,B|160:112|132:164|144:220,1,130,0|8,0:0|0:0,0:0:0:0:
312,216,206870,1,0,0:0:0:0:
232,184,207028,1,0,0:0:0:0:
244,268,207186,2,0,B|276:304|316:308|364:288|364:288|340:348,1,195,0|0,0:0|0:0,0:0:0:0:
396,220,207818,2,0,P|436:164|500:140,1,130,8|0,0:0|0:0,0:0:0:0:
320,136,208449,5,0,0:0:0:0:
244,100,208607,1,0,0:0:0:0:
196,24,208765,1,0,0:0:0:0:
128,236,209081,1,8,0:0:0:0:
128,236,209397,2,0,L|64:250,1,65
212,224,209712,6,0,P|272:252|340:252,1,130,0|2,0:0|0:2,0:0:0:0:
212,224,210344,2,0,P|240:284|296:320,1,130,8|2,0:0|0:2,0:0:0:0:
212,224,210975,6,0,L|168:272,2,65,4|0|2,0:0|0:0|0:2,0:0:0:0:
276,168,211449,2,0,L|416:200,1,130,8|0,0:0|0:0,0:0:0:0:
372,116,211923,2,0,L|288:232,1,130,0|2,0:0|0:2,0:0:0:0:
327,303,212397,2,0,L|403:197,1,130,8|0,0:0|0:0,0:0:0:0:
456,132,212870,5,8,0:0:0:0:
327,303,213186,1,0,0:0:0:0:
468,208,213502,2,0,P|432:204|400:184,1,65
236,152,213975,1,0,0:0:0:0:
236,152,214133,2,0,P|304:160|340:224,1,130,8|0,0:0|0:0,0:0:0:0:
257,234,214607,6,0,P|189:222|156:176,1,130,0|2,0:0|0:2,0:0:0:0:
159,112,215081,2,0,P|163:152|156:176,1,65,0|2,0:0|0:2,0:0:0:0:
80,140,215397,1,8,0:0:0:0:
240,88,215712,1,0,0:0:0:0:
80,140,216028,2,0,L|48:204,2,65,4|0|0,0:0|0:0|0:0,0:0:0:0:
132,300,216660,1,8,0:0:0:0:
276,212,216975,5,0,0:0:0:0:
276,212,217133,2,0,P|260:272|192:304,1,130,0|2,0:0|0:2,0:0:0:0:
140,188,217607,2,0,L|196:220,1,65,0|2,0:0|0:2,0:0:0:0:
340,288,217923,1,8,0:0:0:0:
140,188,218239,1,0,0:0:0:0:
312,100,218554,2,0,L|372:64,2,65
140,188,219186,1,8,0:0:0:0:
292,325,219502,5,0,0:0:0:0:
292,325,219660,2,0,P|288:261|248:212,1,130,0|2,0:0|0:2,0:0:0:0:
196,251,220133,2,0,L|248:212,1,65,0|2,0:0|0:2,0:0:0:0:
316,164,220449,2,0,P|252:160|212:108,1,130,8|0,0:0|0:0,0:0:0:0:
384,108,221081,5,4,0:0:0:0:
404,188,221239,1,0,0:0:0:0:
344,248,221397,1,0,0:0:0:0:
204,195,221712,2,0,P|252:155|316:164,2,130,8|0|2,0:0|0:0|0:2,0:0:0:0:
344,248,222660,5,0,0:0:0:0:
320,80,222975,1,8,0:0:0:0:
205,195,223291,1,2,0:2:0:0:
256,192,223607,12,0,226133,0:0:0:0:
244,160,226449,6,0,L|252:224,1,65
296,291,226765,2,0,P|240:255|180:264,1,130,2|0,0:0|0:0,0:0:0:0:
62,270,227397,2,0,P|118:290|180:264,1,130,2|0,0:0|0:0,0:0:0:0:
108,112,228028,1,0,0:0:0:0:
63,271,228344,1,0,0:0:0:0:
224,308,228660,1,2,0:0:0:0:
224,308,228975,6,0,L|292:284,1,65
328,360,229291,2,0,L|376:300,1,65
440,352,229607,2,0,L|452:280,1,65
408,220,229923,2,0,P|359:179|342:117,1,130,2|0,0:0|0:0,0:0:0:0:
450,57,230554,2,0,P|400:104|342:117,1,130
168,44,231186,2,0,P|232:52|272:108,1,130,2|0,0:0|0:0,0:0:0:0:
188,128,231660,2,0,B|128:136|104:108|88:76|88:76|32:132,1,195
168,44,232449,6,0,P|232:52|272:108,1,130,2|0,0:0|0:0,0:0:0:0:
300,184,232923,2,0,L|484:120,1,195
372,248,233712,2,0,P|320:96|208:220,1,390,2|0,0:0|0:0,0:0:0:0:
372,248,234975,5,2,0:0:0:0:
300,184,235291,1,2,0:0:0:0:
206,215,235607,1,2,0:0:0:0:
280,284,235923,1,2,0:0:0:0:
