osu file format v12

[General]
AudioFilename: BALLOONPV.mp3
AudioLeadIn: 0
PreviewTime: 69056
Countdown: 0
SampleSet: Normal
StackLeniency: 0.7
Mode: 0
LetterboxInBreaks: 0
WidescreenStoryboard: 0

[Editor]
Bookmarks: 16556,31556,57056,69056,93806,119306,131306
DistanceSpacing: 1.2
BeatDivisor: 4
GridSize: 4

[Metadata]
Title:BALLOON
TitleUnicode:BALLOON
Artist:Tiara
ArtistUnicode:てぃあら
Creator:captin1
Version:Red
Source:
Tags:Vocaloid hatsune miku vocaloid2 studio@tiara append Tashihun Output-P Shinri Hizumi
BeatmapID:245849
BeatmapSetID:90664

[Difficulty]
HPDrainRate:6
CircleSize:4
OverallDifficulty:6
ApproachRate:7
SliderMultiplier:1.5
SliderTickRate:2

[Events]
//Background and Video events
0,0,"Konachan.com - 98431 hatsune_miku penchop vocaloid.jpg",0,0
//Break Periods
2,81263,91788
//Storyboard Layer 0 (Background)
//Storyboard Layer 1 (Fail)
//Storyboard Layer 2 (Pass)
//Storyboard Layer 3 (Foreground)
//Storyboard Sound Samples
//Background Colour Transformations
3,100,163,162,255

[TimingPoints]
1563,375,4,2,2,70,1,0
19563,-100,4,2,2,80,0,0
19750,-100,4,2,2,70,0,0
42063,-100,4,2,1,70,0,0
43563,-100,4,2,2,70,0,0
46750,-100,4,2,1,70,0,0
47688,-100,4,2,2,70,0,0
57063,-133.333333333333,4,2,2,70,0,0
57250,-133.333333333333,4,2,1,70,0,0
62875,-100,4,1,2,70,0,0
67563,-100,4,1,2,70,0,0
69063,-100,4,1,2,70,0,1
74688,-100,4,1,2,50,0,1
74782,-100,4,1,2,55,0,1
74875,-100,4,1,2,60,0,1
74969,-100,4,1,2,65,0,1
75063,-100,4,1,2,70,0,1
81063,-100,4,2,2,70,0,0
93813,375,4,2,2,70,1,0
104313,-100,4,2,1,70,0,0
105813,-100,4,2,2,70,0,0
109000,-100,4,2,1,70,0,0
109563,-100,4,2,2,70,0,0
119313,-133.333333333333,4,2,2,70,0,0
119500,-133.333333333333,4,2,1,70,0,0
125125,-100,4,1,2,70,0,0
129813,-100,4,1,2,70,0,0
131313,-100,4,1,2,70,0,1
136938,-100,4,1,2,50,0,1
137031,-100,4,1,2,55,0,1
137125,-100,4,1,2,60,0,1
137219,-100,4,1,2,65,0,1
137313,-100,4,1,2,70,0,1
143313,-100,4,1,2,70,0,0

[Colours]
Combo1 : 240,5,5
Combo2 : 192,192,192
Combo3 : 5,5,240

[HitObjects]
144,108,16563,1,4,0:3:0:0:
308,324,17125,1,4,0:3:0:0:
348,56,18063,6,0,L|352:160,1,75,2|8,0:0|0:0,0:0:0:0:
288,300,18625,2,0,L|288:252,3,25
376,328,19000,1,0,0:0:0:0:
388,236,19188,5,0,0:0:0:0:
388,236,19281,1,0,0:0:0:0:
388,236,19375,1,0,0:0:0:0:
388,236,19469,1,0,0:0:0:0:
388,236,19563,2,4,L|340:140,1,75
384,72,19938,6,0,L|428:160,1,75,0|8,0:0|0:0,0:0:0:0:
236,160,20500,2,0,L|256:260,2,75,0|8|0,0:0|0:0|0:0,0:0:0:0:
64,108,21250,2,0,L|32:180,1,75
120,200,21625,2,0,L|192:232,1,75
196,140,22000,1,0,0:0:0:0:
460,88,22563,6,0,B|376:104|420:240|320:260,1,225,2|8,0:0|0:0,0:0:0:0:
188,368,23500,2,0,L|108:344,2,75
120,200,24250,2,0,L|72:132,1,75
160,108,24625,1,0,0:0:0:0:
320,192,25000,1,8,0:0:0:0:
408,176,25188,1,8,0:0:0:0:
452,96,25375,1,8,0:0:0:0:
408,16,25563,5,2,0:0:0:0:
328,52,25750,2,0,L|248:0,2,75,0|8|0,0:0|0:0|0:0,0:0:0:0:
268,120,26313,2,0,L|172:114,2,75,0|8|0,0:0|0:0|0:0,0:0:0:0:
320,192,26875,1,0,0:0:0:0:
328,280,27063,2,0,P|228:228|209:193,1,150,2|8,0:0|0:0,0:0:0:0:
120,204,27625,1,0,0:0:0:0:
72,280,27813,2,0,P|28:196|30:143,1,150,2|8,0:0|0:0,0:0:0:0:
84,72,28375,1,0,0:0:0:0:
164,32,28563,5,0,0:0:0:0:
248,60,28750,2,0,L|284:148,1,75,0|8,0:0|0:0,0:0:0:0:
368,136,29125,1,0,0:0:0:0:
316,212,29313,2,0,L|412:248,2,75,0|0|8,0:0|0:0|0:0,0:0:0:0:
228,196,29875,1,0,0:0:0:0:
160,136,30063,2,0,P|128:240|144:312,1,150,4|0,0:0|0:0,0:0:0:0:
200,339,30625,2,0,P|232:235|228:196,1,150,4|0,0:0|0:0,0:0:0:0:
232,104,31188,2,0,L|304:76,1,75,8|8,0:0|0:0,0:0:0:0:
356,148,31563,5,4,0:0:0:0:
452,300,31938,1,0,0:0:0:0:
452,300,32125,2,0,P|360:272|280:288,1,150,2|8,0:0|0:0,0:0:0:0:
288,188,32688,1,2,0:0:0:0:
224,356,33063,2,0,P|129:339|73:303,1,150,2|0,0:0|0:0,0:0:0:0:
88,224,33625,1,8,0:0:0:0:
20,164,33813,2,0,L|76:80,2,75,0|2|0,0:0|0:0|0:0,0:0:0:0:
198,160,34563,6,0,L|124:164,2,75,2|0|0,0:0|0:0|0:0,0:0:0:0:
236,76,35125,1,2,0:0:0:0:
236,76,35313,2,0,P|264:112|304:128,1,75
404,116,35688,2,0,P|380:87|347:70,1,75,10|0,0:0|0:0,0:0:0:0:
364,180,36063,2,0,P|396:248|436:276,2,112.5,2|0|0,0:0|0:0|0:0,0:0:0:0:
272,184,36813,1,0,0:0:0:0:
196,232,37000,2,0,L|112:296,2,75,8|8|8,0:0|0:0|0:0,0:0:0:0:
345,50,37750,6,0,P|312:67|276:76,1,75,4|0,0:0|0:0,0:0:0:0:
316,156,38125,1,2,0:0:0:0:
400,120,38313,2,0,P|448:212|452:272,1,150,0|2,0:0|0:0,0:0:0:0:
368,224,38875,1,2,0:0:0:0:
280,236,39063,2,0,P|248:320|184:340,1,150,2|0,0:0|0:0,0:0:0:0:
156,260,39625,1,10,0:0:0:0:
76,304,39813,2,0,L|116:376,2,75,0|0|2,0:0|0:0|0:0,0:0:0:0:
76,304,40563,6,0,P|84:216|60:128,1,150,2|0,0:0|0:0,0:0:0:0:
148,108,41125,1,8,0:0:0:0:
172,196,41313,2,0,L|252:152,1,75,2|0,0:0|0:0,0:0:0:0:
324,192,41688,2,0,L|368:272,1,75,2|0,0:0|0:0,0:0:0:0:
316,336,42063,5,2,0:0:0:0:
140,292,42438,1,2,0:0:0:0:
252,152,42813,1,2,0:0:0:0:
76,108,43188,1,2,0:0:0:0:
244,48,43563,6,0,P|336:60|388:108,1,150,2|8,0:0|0:0,0:0:0:0:
356,184,44125,2,0,P|376:260|440:304,1,150,2|8,0:0|0:0,0:0:0:0:
336,336,44688,2,0,P|295:280|288:249,1,75
240,196,45063,2,0,P|160:104|104:88,1,150,2|0,0:0|0:0,0:0:0:0:
200,32,45625,2,0,P|272:80|368:80,1,150,2|0,0:0|0:0,0:0:0:0:
313,184,46188,2,8,P|277:194|240:196,1,75
44,200,46750,6,2,L|44:160,3,25
53,302,47125,1,0,0:0:0:0:
124,244,47313,2,0,P|180:268|192:288,1,75
280,216,47688,2,0,P|224:192|212:172,1,75,8|0,0:0|0:0,0:0:0:0:
224,92,48063,2,0,P|156:36|104:32,2,112.5,2|0|8,0:0|0:0|0:0,0:0:0:0:
184,172,49188,5,0,0:0:0:0:
184,172,49563,2,0,P|152:284|160:316,1,150,2|8,0:0|0:0,0:0:0:0:
244,280,50125,2,0,P|268:232|244:112,1,150,2|0,0:0|0:0,0:0:0:0:
224,56,50688,1,8,0:0:0:0:
136,64,50875,1,0,0:0:0:0:
52,100,51063,2,0,P|32:136|40:184,2,75,2|0|8,0:0|0:0|0:0,0:0:0:0:
136,64,51625,2,0,P|196:152|236:176,1,150,2|0,0:0|0:0,0:0:0:0:
160,228,52188,2,8,P|100:224|56:236,2,75,8|8|0,0:0|0:0|0:0,0:0:0:0:
220,312,52750,5,0,0:0:0:0:
220,312,52938,2,0,P|256:300|316:300,1,75,8|0,0:0|0:0,0:0:0:0:
296,208,53313,1,0,0:0:0:0:
296,208,53500,2,0,P|333:201|380:204,1,75,0|8,0:0|0:0,0:0:0:0:
404,120,53875,1,0,0:0:0:0:
328,76,54063,2,4,P|252:30|206:36,2,112.5
256,192,55938,12,4,57063,0:0:0:0:
212,144,57438,5,0,0:0:0:0:
308,240,57813,1,2,0:0:0:0:
212,144,58188,1,0,0:0:0:0:
324,72,58563,2,0,P|387:96|418:153,1,112.500004291535,2|0,0:0|0:0,0:0:0:0:
448,188,59125,1,0,0:3:0:0:
448,188,59313,2,0,P|461:253|431:310,1,112.500004291535,2|0,0:0|0:0,0:3:0:0:
420,368,59875,6,0,L|375:335,1,56.2500021457673,0|2,0:0|0:0,0:0:0:0:
259,262,60438,2,0,L|304:296,2,56.2500021457673,0|0|2,0:0|0:0|0:0,0:0:0:0:
352,168,61188,1,0,0:0:0:0:
220,188,61563,1,2,0:0:0:0:
112,108,61938,1,0,0:0:0:0:
156,56,62125,1,0,0:0:0:0:
220,40,62313,2,0,P|312:28|340:40,1,112.500004291535,2|0,0:0|0:0,0:0:0:0:
284,112,62875,6,0,L|300:192,1,75
460,104,63438,2,0,P|444:212|480:272,1,150,0|8,0:0|0:0,0:0:0:0:
284,292,64188,1,0,0:0:0:0:
108,320,64563,6,0,P|104:232|88:200,1,112.5,2|2,0:0|0:0,0:0:0:0:
132,184,64938,2,0,L|168:256,1,75,0|2,0:0|0:0,0:0:0:0:
248,212,65313,1,8,0:0:0:0:
96,116,65688,1,0,0:0:0:0:
152,48,65875,6,0,L|232:40,1,75,0|2,0:0|0:0,0:0:0:0:
380,136,66438,2,0,L|444:200,2,75,0|0|8,0:0|0:0|0:0,0:0:0:0:
208,196,67188,1,0,0:0:0:0:
320,52,67563,5,2,0:0:0:0:
236,84,67750,1,2,0:0:0:0:
152,48,67938,1,10,0:0:0:0:
140,136,68125,2,0,P|116:216|72:292,1,150,2|0,0:0|0:0,0:0:0:0:
148,344,68688,2,8,P|172:300|196:276,1,75
208,196,69063,5,4,0:0:0:0:
404,104,69438,1,0,0:0:0:0:
404,104,69625,2,0,P|456:164|472:260,1,150,2|0,0:0|0:0,0:0:0:0:
432,328,70188,2,0,P|378:270|372:248,1,75,8|0,0:0|0:0,0:0:0:0:
312,196,70563,2,0,P|268:248|236:332,1,150,2|0,0:0|0:0,0:0:0:0:
148,272,71125,1,0,0:0:0:0:
124,168,71313,2,0,P|132:96|192:32,1,150,8|0,0:0|0:0,0:0:0:0:
280,8,71875,1,0,0:0:0:0:
372,60,72063,6,0,P|284:100|232:104,1,150,2|8,0:0|0:0,0:0:0:0:
168,20,72625,1,2,0:0:0:0:
36,224,73000,1,0,0:0:0:0:
36,224,73188,2,0,P|92:168|168:144,1,150,8|2,0:0|0:0,0:0:0:0:
144,352,73938,2,0,L|56:320,2,75,0|0|8,0:0|0:0|0:0,0:0:0:0:
232,296,74500,1,0,0:0:0:0:
256,192,74688,5,0,0:0:0:0:
256,192,74781,1,0,0:0:0:0:
256,192,74875,1,0,0:0:0:0:
256,192,74969,1,0,0:0:0:0:
256,192,75063,1,4,0:0:0:0:
76,84,75438,5,0,0:0:0:0:
76,84,75625,2,0,P|156:80|232:92,1,150,2|0,0:0|0:0,0:0:0:0:
156,168,76188,1,8,0:0:0:0:
332,56,76563,2,0,P|308:128|348:188,1,150,2|0,0:0|0:0,0:0:0:0:
420,112,77125,1,0,0:0:0:0:
432,216,77313,2,0,L|376:272,2,75,8|0|2,0:0|0:0|0:0,0:0:0:0:
448,320,77875,1,2,0:0:0:0:
448,320,78063,6,0,P|356:324|276:348,1,150,2|8,0:0|0:0,0:0:0:0:
196,344,78625,2,0,P|120:280|120:204,1,150,2|2,0:0|0:0,0:0:0:0:
176,148,79188,1,8,0:0:0:0:
272,192,79375,1,0,0:0:0:0:
272,192,79563,2,8,P|344:156|396:92,1,150,2|8,0:0|0:0,0:0:0:0:
300,52,80125,1,0,0:0:0:0:
196,64,80313,2,0,P|120:80|88:164,2,150,0|2|4,0:0|0:0|0:0,0:0:0:0:
256,192,92688,12,4,93813,0:0:0:0:
208,80,94188,6,0,P|260:68|303:40,1,75,0|8,0:0|0:0,0:0:0:0:
364,28,94563,1,0,0:0:0:0:
352,116,94750,1,0,0:0:0:0:
284,172,94938,1,0,0:0:0:0:
208,224,95125,1,8,0:0:0:0:
208,224,95219,1,8,0:0:0:0:
208,224,95313,2,0,P|240:272|276:304,2,75,8|0|0,0:0|0:0|0:0,0:0:0:0:
132,176,95875,1,2,0:0:0:0:
96,92,96063,2,0,P|48:144|60:232,1,150,8|2,0:0|0:0,0:0:0:0:
96,296,96625,1,2,0:0:0:0:
176,336,96813,6,0,P|232:312|276:316,1,75,2|8,0:0|0:0,0:0:0:0:
336,320,97188,1,0,0:0:0:0:
392,248,97375,2,0,L|312:236,1,75,2|0,0:0|0:0,0:0:0:0:
248,176,97750,1,0,0:0:0:0:
332,140,97938,1,8,0:0:0:0:
420,156,98125,1,0,0:0:0:0:
476,224,98313,2,0,P|496:312|512:340,2,112.5,2|0|0,0:0|0:0|0:0,0:0:0:0:
420,156,99063,1,0,0:0:0:0:
292,52,99438,5,0,0:0:0:0:
292,52,99531,1,0,0:0:0:0:
292,52,99625,2,0,L|292:92,1,25
128,84,100000,5,4,0:0:0:0:
128,84,100188,2,0,P|153:115|167:180,2,75
68,164,100750,1,0,0:0:0:0:
20,240,100938,2,0,P|40:304|56:324,2,75,8|0|2,0:0|0:0|0:0,0:0:0:0:
108,244,101500,1,0,0:0:0:0:
184,284,101688,2,0,P|192:252|188:208,1,75,0|8,0:0|0:0,0:0:0:0:
264,264,102063,1,8,0:0:0:0:
328,328,102250,1,0,0:0:0:0:
416,308,102438,1,2,0:0:0:0:
440,132,102813,6,0,P|384:156|284:172,1,150,2|8,0:0|0:0,0:0:0:0:
244,96,103375,1,0,0:0:0:0:
332,88,103563,2,0,P|312:32|320:0,1,75,2|0,0:0|0:0,0:0:0:0:
404,32,103938,1,8,0:0:0:0:
488,56,104125,1,0,0:0:0:0:
512,144,104313,5,2,0:0:0:0:
340,204,104688,1,2,0:0:0:0:
236,352,105063,1,2,0:0:0:0:
56,328,105438,1,2,0:0:0:0:
208,236,105813,6,0,P|192:116|172:100,1,150,2|8,0:0|0:0,0:0:0:0:
112,168,106375,2,0,P|92:248|24:280,1,150,2|0,0:0|0:0,0:0:0:0:
24,188,106938,1,8,0:0:0:0:
40,100,107125,1,0,0:0:0:0:
128,80,107313,2,0,P|208:80|288:60,1,150,2|8,0:0|0:0,0:0:0:0:
308,144,107875,2,0,P|344:228|400:280,1,150,2|0,0:0|0:0,0:0:0:0:
320,352,108438,2,8,P|280:292|256:280,1,75
80,244,109000,6,0,L|88:280,3,25,2|2|2|2,0:0|0:0|0:0|0:0,0:0:0:0:
44,160,109375,1,0,0:0:0:0:
132,176,109563,2,0,P|164:196|216:188,1,75,0|0,0:0|0:0,0:0:0:0:
192,92,109938,2,0,P|214:62|247:44,1,75,8|0,0:0|0:0,0:0:0:0:
280,140,110313,2,0,P|360:208|400:212,2,112.5,0|0|8,0:0|0:0|0:0,0:0:0:0:
460,324,111438,5,0,0:0:0:0:
460,324,111813,2,0,P|360:272|288:268,1,150,2|8,0:0|0:0,0:0:0:0:
380,196,112375,2,0,P|328:160|312:52,1,150,2|0,0:0|0:0,0:0:0:0:
224,120,112938,1,8,0:0:0:0:
136,104,113125,1,0,0:0:0:0:
72,168,113313,2,0,P|104:188|128:248,2,75,2|0|8,0:0|0:0|0:0,0:0:0:0:
40,248,113875,2,0,P|84:304|160:300,1,150,2|0,0:0|0:0,0:0:0:0:
228,260,114438,1,8,0:0:0:0:
292,324,114625,1,8,0:0:0:0:
416,192,115000,5,0,0:0:0:0:
416,192,115188,2,0,P|360:176|312:172,1,75,8|0,0:0|0:0,0:0:0:0:
332,72,115563,2,0,P|284:44|256:8,1,75
172,64,115938,2,0,P|124:80|96:108,1,75
184,164,116313,2,4,P|168:244|180:276,2,112.5
256,192,118188,12,4,119313,0:0:0:0:
188,212,119688,5,0,0:0:0:0:
324,212,120063,1,0,0:0:0:0:
188,212,120438,1,0,0:0:0:0:
256,328,120813,2,0,P|348:312|380:320,1,112.500004291535,2|0,0:0|0:0,0:0:0:0:
432,336,121375,1,0,0:0:0:0:
464,276,121563,2,0,P|468:220|480:140,1,112.500004291535,0|2,0:0|0:0,0:0:0:0:
420,116,122125,6,0,L|376:76,1,56.2500021457673,0|2,0:0|0:0,0:0:0:0:
264,148,122688,2,0,L|312:192,2,56.2500021457673,0|0|2,0:0|0:0|0:0,0:0:0:0:
148,80,123438,2,0,P|72:144|64:164,1,112.500004291535,0|2,0:0|0:0,0:0:0:0:
28,280,124188,1,0,0:0:0:0:
76,332,124375,1,0,0:0:0:0:
144,320,124563,2,0,P|216:248|248:236,1,112.500004291535,2|0,0:0|0:0,0:0:0:0:
292,300,125125,5,0,0:0:0:0:
292,300,125313,1,0,0:0:0:0:
448,212,125688,1,0,0:0:0:0:
292,120,126063,2,0,P|240:104|168:32,1,150,8|0,0:0|0:0,0:0:0:0:
72,188,126813,6,0,P|96:248|104:312,1,112.5,2|2,0:0|0:0,0:0:0:0:
148,300,127188,2,0,L|152:220,1,75,0|2,0:0|0:0,0:0:0:0:
240,248,127563,1,8,0:0:0:0:
292,76,127938,1,0,0:0:0:0:
380,60,128125,6,0,L|460:88,1,75,0|2,0:0|0:0,0:0:0:0:
300,184,128688,2,0,P|208:144|188:96,1,150,0|8,0:0|0:0,0:0:0:0:
360,164,129438,1,0,0:0:0:0:
188,204,129813,5,2,0:0:0:0:
192,292,130000,1,2,0:0:0:0:
276,324,130188,1,10,0:0:0:0:
268,236,130375,2,0,P|336:220|416:220,1,150,2|0,0:0|0:0,0:0:0:0:
456,140,130938,1,8,0:0:0:0:
392,80,131125,1,8,0:0:0:0:
308,44,131313,5,4,0:0:0:0:
100,56,131688,1,0,0:0:0:0:
100,56,131875,2,0,P|168:140|156:208,1,150,2|0,0:0|0:0,0:0:0:0:
68,156,132438,2,0,P|56:224|64:252,1,75,8|0,0:0|0:0,0:0:0:0:
156,264,132813,2,0,P|244:296|300:340,1,150,2|0,0:0|0:0,0:0:0:0:
280,224,133375,1,0,0:0:0:0:
384,244,133563,2,0,P|432:200|440:104,1,150,8|2,0:0|0:0,0:0:0:0:
344,144,134125,1,2,0:0:0:0:
344,144,134313,6,0,P|252:160|192:156,1,150,2|8,0:0|0:0,0:0:0:0:
236,60,134875,1,2,0:0:0:0:
84,208,135250,1,0,0:0:0:0:
84,208,135438,2,0,P|128:280|184:324,1,150,8|2,0:0|0:0,0:0:0:0:
136,116,136188,2,0,L|208:176,2,75,0|0|8,0:0|0:0|0:0,0:0:0:0:
204,36,136750,1,0,0:0:0:0:
276,116,136938,5,0,0:0:0:0:
276,116,137031,1,0,0:0:0:0:
276,116,137125,1,0,0:0:0:0:
276,116,137219,1,0,0:0:0:0:
276,116,137313,1,4,0:0:0:0:
204,312,137688,5,8,0:0:0:0:
204,312,137875,2,0,P|176:244|164:160,1,150,2|0,0:0|0:0,0:0:0:0:
84,236,138438,2,0,P|56:184|52:144,1,75,8|0,0:0|0:0,0:0:0:0:
52,64,138813,2,0,P|144:96|224:100,1,150,2|0,0:0|0:0,0:0:0:0:
272,28,139375,1,0,0:0:0:0:
352,96,139563,2,0,P|364:128|400:168,2,75,8|0|2,0:0|0:0|0:0,0:0:0:0:
456,116,140125,1,2,0:0:0:0:
456,220,140313,6,0,P|364:248|308:256,1,150,2|8,0:0|0:0,0:0:0:0:
220,204,140875,2,0,P|128:224|68:264,1,150,2|0,0:0|0:0,0:0:0:0:
68,356,141438,1,8,0:0:0:0:
168,324,141625,1,0,0:0:0:0:
168,324,141813,2,0,P|272:336|344:356,1,150,2|8,0:0|0:0,0:0:0:0:
365,254,142375,1,0,0:0:0:0:
468,236,142563,2,0,P|467:115|445:76,2,150,0|0|4,0:0|0:0|0:0,0:0:0:0:
