osu file format v12

[General]
AudioFilename: BALLOONPV.mp3
AudioLeadIn: 0
PreviewTime: 69056
Countdown: 0
SampleSet: Soft
StackLeniency: 0.7
Mode: 0
LetterboxInBreaks: 0
WidescreenStoryboard: 0

[Editor]
Bookmarks: 16556,31556,57056,69056,93800,119306,131306
DistanceSpacing: 1
BeatDivisor: 4
GridSize: 4

[Metadata]
Title:BALLOON
TitleUnicode:BALLOON
Artist:Tiara
ArtistUnicode:てぃあら
Creator:captin1
Version:Blue
Source:
Tags:Vocaloid hatsune miku vocaloid2 studio@tiara append Tashihun Output-P Shinri Hizumi
BeatmapID:245848
BeatmapSetID:90664

[Difficulty]
HPDrainRate:3
CircleSize:3
OverallDifficulty:3
ApproachRate:4
SliderMultiplier:1
SliderTickRate:1

[Events]
//Background and Video events
0,0,"Konachan.com - 98431 hatsune_miku penchop vocaloid.jpg",0,0
//Break Periods
2,54825,55743
2,81263,90805
2,117075,117993
//Storyboard Layer 0 (Background)
//Storyboard Layer 1 (Fail)
//Storyboard Layer 2 (Pass)
//Storyboard Layer 3 (Foreground)
//Storyboard Sound Samples
//Background Colour Transformations
3,100,163,162,255

[TimingPoints]
1563,375,4,2,2,70,1,0
42063,-100,4,2,1,70,0,0
42438,-100,4,2,2,70,0,0
42813,-100,4,2,1,70,0,0
43188,-100,4,2,2,70,0,0
57063,-100,4,2,1,70,0,0
63063,-100,4,1,2,70,0,0
69063,-100,4,1,2,70,0,1
81063,-100,4,1,2,70,0,0
93813,375,4,2,2,70,1,0
104313,-100,4,2,1,70,0,0
104688,-100,4,2,2,70,0,0
105063,-100,4,2,1,70,0,0
105438,-100,4,2,2,70,0,0
119313,-100,4,2,1,70,0,0
125313,-100,4,1,2,70,0,0
131313,-100,4,1,2,70,0,1
143313,-100,4,1,2,70,0,0

[Colours]
Combo1 : 240,5,5
Combo2 : 192,192,192
Combo3 : 5,5,240

[HitObjects]
296,188,16563,2,0,P|304:280|272:348,2,150,2|0|0,0:0|0:0|0:0,0:0:0:0:
200,160,18063,2,0,P|190:86|213:15,2,150,2|0|0,0:0|0:0|0:0,0:0:0:0:
296,188,19563,6,0,P|372:200|416:272,2,150,4|0|8,0:0|0:0|0:0,0:0:0:0:
256,216,20875,2,0,P|220:244|156:252,1,100
76,292,21625,2,0,P|40:212|64:136,1,150,2|8,0:0|0:0,0:0:0:0:
112,72,22563,6,0,P|148:152|124:228,1,150,2|0,0:0|0:0,0:0:0:0:
264,128,23688,1,8,0:0:0:0:
360,152,24063,2,0,L|440:236,1,100,2|8,0:0|0:0,0:0:0:0:
372,308,24813,2,0,L|264:260,1,100,2|8,0:0|0:0,0:0:0:0:
180,276,25563,5,4,0:0:0:0:
40,220,26125,2,0,P|24:144|60:72,1,150,2|8,0:0|0:0,0:0:0:0:
140,32,27063,2,0,P|184:56|248:68,1,100,2|8,0:0|0:0,0:0:0:0:
332,88,27813,2,0,P|416:148|432:244,1,200,0|2,0:0|0:0,0:0:0:0:
384,328,28938,5,8,0:0:0:0:
304,268,29313,2,0,P|264:328|148:304,1,200,0|4,0:0|0:0,0:0:0:0:
212,228,30438,2,0,P|160:206|105:218,1,100,8|0,0:0|0:0,0:0:0:0:
28,256,31188,1,8,0:0:0:0:
36,156,31563,6,0,P|88:84|200:80,1,200,4|2,0:0|0:0,0:0:0:0:
212,176,32688,1,2,0:0:0:0:
136,244,33063,2,0,P|204:276|280:252,1,150,2|2,0:0|0:0,0:0:0:0:
320,252,33813,2,0,P|380:260|416:288,1,100,2|2,0:0|0:0,0:0:0:0:
440,380,34563,6,0,P|488:340|504:252,1,150,2|0,0:0|0:0,0:0:0:0:
468,224,35313,2,0,P|421:204|384:162,1,100,0|2,0:0|0:0,0:0:0:0:
476,120,36063,6,0,P|412:84|288:128,1,200
224,184,37188,2,0,P|132:200|68:172,1,150,0|4,0:0|0:0,0:0:0:0:
28,320,38313,6,0,P|104:328|136:320,1,100,0|2,0:0|0:0,0:0:0:0:
216,300,39063,2,0,P|292:264|340:144,1,200,2|8,0:0|0:0,0:0:0:0:
304,72,40188,1,0,0:0:0:0:
212,36,40563,2,0,P|136:72|88:192,1,200,2|8,0:0|0:0,0:0:0:0:
124,268,41688,1,8,0:0:0:0:
208,212,42063,6,0,L|272:120,1,100,2|8,0:0|0:0,0:0:0:0:
304,224,42813,2,0,L|240:316,1,100,2|8,0:0|0:0,0:0:0:0:
320,376,43563,6,0,P|380:336|408:264,1,150,2|0,0:0|0:0,0:0:0:0:
416,164,44500,2,0,P|416:96|384:56,1,100,0|0,0:0|0:0,0:0:0:0:
348,68,45063,2,0,P|262:73|199:45,2,150
324,164,46563,6,0,P|281:189|232:198,1,100,2|8,0:0|0:0,0:0:0:0:
156,264,47313,2,0,P|198:289|247:298,1,100,0|8,0:0|0:0,0:0:0:0:
348,300,48063,2,0,P|388:300|428:283,2,75,2|0|0,0:0|0:0|0:0,0:0:0:0:
204,336,49188,5,0,0:0:0:0:
260,252,49563,2,0,P|312:172|364:148,1,150,2|2,0:0|0:0,0:0:0:0:
444,200,50500,2,0,P|420:212|384:240,1,50,0|8,0:0|0:0,0:0:0:0:
392,328,51063,2,0,P|327:349|236:317,2,150,2|2|8,0:0|0:0|0:0,0:0:0:0:
428,236,52563,6,0,P|482:216|509:173,1,100,0|8,0:0|0:0,0:0:0:0:
498,85,53313,2,0,P|444:105|417:148,1,100,0|8,0:0|0:0,0:0:0:0:
334,193,54063,2,0,P|286:181|258:153,2,75,4|4|4,0:0|0:0|0:0,0:0:0:0:
432,256,57063,5,4,0:0:0:0:
388,64,57813,1,0,0:0:0:0:
188,72,58563,2,0,P|204:172|276:232,1,200,2|0,0:0|0:0,0:0:0:0:
472,196,60063,5,2,0:0:0:0:
292,284,60813,1,2,0:0:0:0:
300,84,61563,2,0,P|188:60|92:104,1,200,2|2,0:0|0:0,0:0:0:0:
64,288,63063,5,0,0:0:0:0:
240,192,63813,1,8,0:0:0:0:
432,252,64563,2,0,P|460:296|464:332,2,75,0|0|0,0:0|0:0|0:0,0:0:0:0:
392,224,65313,1,8,0:0:0:0:
264,76,66063,5,0,0:0:0:0:
280,276,66813,1,0,0:0:0:0:
84,252,67563,2,0,L|48:200,2,50,0|0|8,0:0|0:0|0:0,0:0:0:0:
112,292,68125,2,0,P|156:332|216:336,1,100
244,340,68688,1,8,0:0:0:0:
340,312,69063,6,0,P|384:240|388:168,1,150,6|2,0:0|0:0,0:0:0:0:
240,196,70188,2,0,P|164:204|128:196,1,100,8|0,0:0|0:0,0:0:0:0:
128,100,70938,1,0,0:0:0:0:
200,32,71313,1,8,0:0:0:0:
372,136,72063,6,0,P|412:208|392:280,2,150,2|2|8,0:0|0:0|0:0,0:0:0:0:
284,88,73563,2,0,P|232:80|176:100,1,100,0|8,0:0|0:0,0:0:0:0:
240,180,74313,1,0,0:0:0:0:
156,236,74688,2,0,P|124:292|128:348,1,100,0|4,0:0|0:0,0:0:0:0:
272,332,75625,6,0,P|352:300|428:308,1,150,0|8,0:0|0:0,0:0:0:0:
428,208,76563,1,0,0:0:0:0:
328,208,76938,2,0,P|268:232|216:232,1,100,2|8,0:0|0:0,0:0:0:0:
48,164,78063,6,0,P|44:268|68:328,2,150,2|2|8,0:0|0:0|0:0,0:0:0:0:
144,132,79563,2,0,B|184:136|172:196|208:204,1,100,0|8,0:0|0:0,0:0:0:0:
305,203,80313,2,0,B|340:196|328:136|368:132,1,100,0|8,0:0|0:0,0:0:0:0:
464,164,81063,1,4,0:0:0:0:
256,192,92125,12,4,93813,0:0:0:0:
112,112,94563,6,0,P|160:100|224:120,1,100,2|0,0:0|0:0,0:0:0:0:
164,200,95313,2,0,P|192:284|292:308,1,200,2|8,0:0|0:0,0:0:0:0:
264,212,96438,1,2,0:0:0:0:
292,116,96813,6,0,P|372:76|432:72,2,150,2|2|8,0:0|0:0|0:0,0:0:0:0:
200,72,98313,2,0,P|144:136|116:248,1,200,2|0,0:0|0:0,0:0:0:0:
212,220,99438,6,0,P|288:244|360:220,1,150,0|4,0:0|0:0,0:0:0:0:
484,148,100563,2,0,P|464:76|432:44,1,100
356,92,101313,2,0,P|284:128|184:68,1,200,2|8,0:0|0:0,0:0:0:0:
96,32,102438,1,0,0:0:0:0:
100,132,102813,2,0,P|92:224|68:288,2,150,2|2|8,0:0|0:0|0:0,0:0:0:0:
184,188,104313,6,0,P|184:244|216:300,1,100,2|8,0:0|0:0,0:0:0:0:
280,224,105063,2,0,P|301:275|353:314,1,100,2|8,0:0|0:0,0:0:0:0:
432,324,105813,5,2,0:0:0:0:
472,180,106375,2,0,P|436:108|352:92,1,150,2|8,0:0|0:0,0:0:0:0:
368,192,107313,2,0,P|266:153|230:114,2,150
316,276,108813,6,0,P|284:316|240:332,1,100,2|8,0:0|0:0,0:0:0:0:
140,344,109563,2,0,P|140:294|161:249,1,100,0|8,0:0|0:0,0:0:0:0:
252,204,110313,2,0,P|280:188|344:184,2,75,2|0|8,0:0|0:0|0:0,0:0:0:0:
116,144,111438,5,0,0:0:0:0:
220,132,111813,2,0,P|186:63|104:41,2,150,2|0|8,0:0|0:0|0:0,0:0:0:0:
208,232,113313,2,0,P|114:270|48:250,2,150
308,240,114813,6,0,P|308:184|328:120,1,100,0|8,0:0|0:0,0:0:0:0:
412,104,115563,2,0,P|412:160|392:224,1,100,0|8,0:0|0:0,0:0:0:0:
388,304,116313,2,4,P|428:300|464:280,2,75
120,156,119313,5,0,0:0:0:0:
232,320,120063,1,0,0:0:0:0:
428,276,120813,2,0,P|396:160|324:108,1,200,2|0,0:0|0:0,0:0:0:0:
144,52,122313,5,2,0:0:0:0:
36,220,123063,1,2,0:0:0:0:
236,220,123813,2,0,P|348:272|404:328,1,200,2|2,0:0|0:0,0:0:0:0:
444,128,125313,5,2,0:0:0:0:
244,120,126063,1,8,0:0:0:0:
376,268,126813,2,0,P|448:280|456:284,2,75
326,273,127563,1,8,0:0:0:0:
288,76,128313,5,2,0:0:0:0:
124,176,129063,1,8,0:0:0:0:
304,264,129813,2,8,L|332:320,2,50,0|0|8,0:0|0:0|0:0,0:0:0:0:
296,216,130375,2,0,P|260:160|212:136,1,100
184,128,130938,1,8,0:0:0:0:
92,92,131313,6,0,P|64:184|80:256,1,150,6|2,0:0|0:0,0:0:0:0:
212,184,132438,2,0,P|264:232|276:276,1,100,8|0,0:0|0:0,0:0:0:0:
372,252,133188,1,0,0:0:0:0:
384,152,133563,1,8,0:0:0:0:
208,60,134313,6,0,P|196:124|144:196,2,150,2|2|8,0:0|0:0|0:0,0:0:0:0:
308,76,135813,2,0,P|344:144|348:184,1,100
396,252,136563,1,8,0:0:0:0:
316,312,136938,2,0,P|240:344|216:364,1,100,0|4,0:0|0:0,0:0:0:0:
104,268,137875,6,0,P|60:148|28:124,1,150,2|8,0:0|0:0,0:0:0:0:
104,52,138813,1,0,0:0:0:0:
184,112,139188,2,0,P|200:172|232:204,1,100,0|8,0:0|0:0,0:0:0:0:
380,324,140313,6,0,L|404:164,2,150,2|2|8,0:0|0:0|0:0,0:0:0:0:
280,316,141813,2,0,B|248:288|200:356|164:312,1,100,2|8,0:0|0:0,0:0:0:0:
132,240,142563,2,0,B|164:268|212:200|248:244,1,100,2|8,0:0|0:0,0:0:0:0:
288,148,143313,1,4,0:0:0:0:
