osu file format v9

[General]
AudioFilename: party night.mp3
AudioLeadIn: 1000
PreviewTime: 68080
Countdown: 0
SampleSet: Normal
StackLeniency: 0.4
Mode: 1
LetterboxInBreaks: 1

[Editor]
Bookmarks: 37895,57747,189413
DistanceSpacing: 1
BeatDivisor: 4
GridSize: 8

[Metadata]
Title:Party Night
Artist:Tianshi
Creator:spboxer3
Version:Taiko
Source:
Tags:Megurine Luka vocaloid2 alace

[Difficulty]
HPDrainRate:6
CircleSize:4
OverallDifficulty:5
ApproachRate:6
SliderMultiplier:1.4
SliderTickRate:2

[Events]
//Background and Video events
0,0,"TaikoBG.png"
//Break Periods
//Storyboard Layer 0 (Background)
//Storyboard Layer 1 (Fail)
//Storyboard Layer 2 (Pass)
//Storyboard Layer 3 (Foreground)
//Storyboard Sound Samples
//Background Colour Transformations
3,100,163,162,255

[TimingPoints]
1297,444.444444444444,4,1,0,80,1,0
68852,-100,4,1,0,80,0,1
83074,-100,4,1,0,80,0,0
118630,-100,4,1,0,80,0,1
132852,-100,4,1,0,80,0,0
184408,-100,4,1,0,80,0,1
196741,-100,4,1,0,80,0,0
196852,-100,4,1,0,80,0,1
196963,-100,4,1,0,80,0,0
197741,-100,4,1,0,80,0,1
198630,-100,4,1,0,80,0,0

[Colours]
Combo1 : 128,255,255
Combo2 : 255,128,255
SliderBorder : 222,222,222

[HitObjects]
256,192,1297,1,0
256,192,1519,1,0
256,192,1741,1,8
256,192,1963,1,8
256,192,2185,1,0
256,192,2408,1,0
256,192,2630,1,8
256,192,2852,1,8
256,192,3074,1,0
256,192,3296,1,0
256,192,3519,1,8
256,192,3741,1,0
256,192,3963,1,0
256,192,4408,1,8
256,192,4852,2,0,B|416:192,7,140
256,192,8408,1,0
256,192,8630,1,0
256,192,8852,1,8
256,192,9074,1,8
256,192,9296,1,0
256,192,9519,1,0
256,192,9741,1,8
256,192,9963,1,8
256,192,10185,1,0
256,192,10407,1,0
256,192,10630,1,8
256,192,10852,1,0
256,192,11074,1,0
256,192,11519,1,8
256,192,11963,2,0,B|96:192,3,140
256,192,13741,12,0,15408
256,192,15519,5,0
256,192,15741,1,0
256,192,15963,1,8
256,192,16185,1,0
256,192,16296,1,0
256,192,16519,1,8
256,192,16741,1,0
256,192,16852,1,0
256,192,17074,1,8
256,192,17296,5,0
256,192,17518,1,0
256,192,17740,1,8
256,192,17962,1,0
256,192,18073,1,0
256,192,18296,1,8
256,192,18518,1,0
256,192,18629,1,0
256,192,18851,1,8
256,192,19074,5,0
256,192,19296,1,0
256,192,19518,1,8
256,192,19740,1,0
256,192,19851,1,0
256,192,20074,1,8
256,192,20296,1,0
256,192,20407,1,0
256,192,20629,1,8
256,192,20852,5,0
256,192,21074,1,8
256,192,21296,1,0
256,192,21518,1,8
256,192,21629,1,0
256,192,21852,1,0
256,192,21963,1,8
256,192,22185,1,0
256,192,22296,1,8
256,192,22407,1,8
256,192,22630,5,0
256,192,22852,1,0
256,192,23074,1,8
256,192,23296,1,0
256,192,23407,1,0
256,192,23630,1,8
256,192,23852,1,0
256,192,23963,1,0
256,192,24185,1,8
256,192,24408,5,0
256,192,24630,1,0
256,192,24852,1,8
256,192,25074,1,0
256,192,25185,1,0
256,192,25408,1,8
256,192,25630,1,0
256,192,25741,1,0
256,192,25963,1,8
256,192,26185,5,0
256,192,26407,1,0
256,192,26629,1,8
256,192,26851,1,0
256,192,26962,1,0
256,192,27185,1,8
256,192,27407,1,0
256,192,27518,1,0
256,192,27740,1,8
256,192,27963,2,0,B|408:192,3,140
256,192,29741,12,0,30408
256,192,30630,5,4
256,192,31074,5,0
256,192,31185,1,0
256,192,31296,1,8
256,192,31408,1,8
256,192,31519,1,8
256,192,31741,1,0
256,192,31963,1,8
256,192,32185,1,0
256,192,32296,1,8
256,192,32519,1,0
256,192,32741,1,0
256,192,32852,1,8
256,192,33074,1,0
256,192,33296,1,8
256,192,33519,1,0
256,192,33741,1,8
256,192,33963,1,0
256,192,34074,1,8
256,192,34296,1,8
256,192,34519,1,0
256,192,34630,1,8
256,192,34852,1,0
256,192,35074,1,8
256,192,35296,1,0
256,192,35519,1,8
256,192,35741,1,0
256,192,35852,1,0
256,192,36074,1,8
256,192,36296,1,0
256,192,36408,1,0
256,192,36630,1,8
256,192,36741,1,8
256,192,36852,1,0
256,192,37074,1,0
256,192,37296,1,8
256,192,37408,1,8
256,192,37630,1,0
256,192,37852,1,0
256,192,38074,1,0
256,192,38185,1,8
256,192,38408,1,0
256,192,38630,5,8
256,192,38852,1,0
256,192,39074,1,8
256,192,39296,1,0
256,192,39407,1,8
256,192,39630,1,0
256,192,39852,1,0
256,192,39963,1,8
256,192,40185,1,8
256,192,40408,5,8
256,192,40630,1,0
256,192,40852,1,8
256,192,41074,1,0
264,160,41185,1,0
256,192,41408,1,8
256,192,41630,1,0
256,192,41741,1,0
256,192,41963,1,0
256,192,42074,1,0
256,192,42185,5,8
256,192,42407,1,0
256,192,42629,1,8
256,192,42851,1,0
256,192,42962,1,0
256,192,43185,1,8
256,192,43407,1,0
256,192,43518,1,0
256,192,43740,1,8
256,192,43852,1,8
256,192,43963,1,0
256,192,44185,1,0
256,192,44408,1,8
256,192,44519,1,8
256,192,44704,1,0
256,192,45000,1,0
256,192,45296,1,0
256,192,45593,1,0
256,192,45741,12,0,47296
256,192,47519,5,8
256,192,47741,1,0
256,192,47852,1,0
256,192,48074,1,0
256,192,48296,1,8
256,192,48519,1,8
256,192,48741,1,8
256,192,48963,1,0
256,192,49074,1,8
256,192,49296,5,8
256,192,49518,1,0
256,192,49629,1,8
256,192,49851,1,0
256,192,50073,1,8
256,192,50296,1,8
256,192,50518,1,8
256,192,50740,1,8
256,192,50851,1,0
256,192,51074,5,8
256,192,51296,1,0
256,192,51407,1,8
256,192,51629,1,0
256,192,51851,1,0
256,192,52074,1,8
256,192,52296,1,0
256,192,52408,1,0
256,192,52629,1,8
256,192,52852,1,0
256,192,52963,1,0
256,192,53074,1,8
256,192,53296,1,0
256,192,53519,1,0
256,192,53741,1,0
256,192,53852,1,8
256,192,54074,1,8
256,192,54296,1,0
256,192,54408,1,8
256,192,54630,5,8
256,192,54852,1,0
256,192,54963,1,8
256,192,55185,1,0
256,192,55407,1,8
256,192,55630,1,8
256,192,55852,1,8
256,192,56074,1,8
256,192,56185,1,0
256,192,56407,5,8
256,192,56629,1,0
256,192,56740,1,8
256,192,56962,1,0
256,192,57184,1,8
256,192,57407,1,8
256,192,57629,1,8
256,192,57851,1,0
256,192,57962,1,8
256,192,58185,5,8
256,192,58407,1,0
256,192,58518,1,8
256,192,58740,1,0
256,192,58962,1,0
256,192,59185,1,8
256,192,59407,1,0
256,192,59519,1,0
256,192,59740,1,8
256,192,59963,1,0
256,192,60074,1,0
256,192,60185,1,8
256,192,60407,1,8
256,192,60630,1,0
256,192,60852,1,0
256,192,61148,1,0
256,192,61296,1,0
256,192,61445,1,8
256,192,61593,1,0
256,192,61741,1,0
256,192,61963,1,0
256,192,62185,1,8
256,192,62630,1,0
256,192,62852,1,0
256,192,62963,1,0
256,192,63074,1,8
256,192,63296,1,8
256,192,63519,1,0
256,192,63741,1,0
256,192,63963,1,8
256,192,64408,1,0
256,192,64519,1,0
256,192,64630,1,8
256,192,64741,1,0
256,192,64852,1,8
256,192,65296,1,0
256,192,65519,1,0
256,192,65741,1,8
256,192,66185,1,0
256,192,66408,1,8
256,192,66519,1,8
256,192,66630,1,0
256,192,66852,1,0
256,192,67074,12,0,68741
256,192,68852,1,0
256,192,69074,1,0
256,192,69296,1,8
256,192,69518,1,0
256,192,69629,1,0
256,192,69852,1,8
256,192,70074,1,0
256,192,70185,1,0
256,192,70407,1,8
256,192,70519,1,8
256,192,70629,1,0
256,192,70852,1,0
256,192,71074,1,8
256,192,71296,1,0
256,192,71519,1,8
256,192,71629,1,0
256,192,71852,1,0
256,192,71963,1,8
256,192,72185,1,8
256,192,72296,1,8
256,192,72407,1,0
256,192,72629,1,0
256,192,72852,1,8
256,192,73074,1,0
256,192,73296,1,8
256,192,73407,1,0
256,192,73629,1,0
256,192,73741,1,8
256,192,73963,1,0
256,192,74185,1,8
256,192,74407,1,8
256,192,74629,1,0
256,192,74741,1,8
256,192,74963,1,8
256,192,75185,1,8
256,192,75407,1,0
256,192,75518,1,8
256,192,75741,1,0
256,192,75852,1,0
256,192,75963,1,8
256,192,76185,1,0
256,192,76407,1,8
256,192,76629,1,0
256,192,76740,1,0
256,192,76963,1,8
256,192,77185,1,8
256,192,77408,1,0
256,192,77518,1,0
256,192,77740,1,0
256,192,77963,1,8
256,192,78185,1,0
256,192,78407,1,8
256,192,78630,1,8
256,192,78740,1,0
256,192,78963,1,0
256,192,79074,1,8
256,192,79296,1,0
256,192,79408,1,0
256,192,79518,1,8
256,192,79740,1,0
256,192,79963,1,8
256,192,80185,1,0
256,192,80408,1,8
256,192,80518,1,0
256,192,80740,1,0
256,192,80963,1,0
256,192,81074,1,8
256,192,81185,1,0
256,192,81296,1,0
256,192,81518,1,0
256,192,81740,1,0
256,192,82185,1,0
256,192,82334,1,0
256,192,82482,1,0
256,192,82629,1,0
256,192,82852,1,8
256,192,83074,5,4
256,192,83296,1,0
256,192,83519,1,8
256,192,83741,1,0
256,192,83852,1,8
256,192,84074,1,8
256,192,84296,1,0
256,192,84407,1,8
256,192,84629,1,8
256,192,84851,5,0
256,192,85073,1,0
256,192,85295,1,8
256,192,85519,1,0
256,192,85630,1,8
256,192,85851,1,8
256,192,86073,1,0
256,192,86184,1,8
256,192,86408,1,0
256,192,86629,5,0
256,192,86851,1,0
256,192,87073,1,8
256,192,87295,1,0
256,192,87408,1,8
256,192,87629,1,8
256,192,87851,1,0
256,192,87962,1,8
256,192,88184,1,8
256,192,88407,5,0
256,192,88629,1,0
256,192,88851,1,8
256,192,89073,1,0
256,192,89184,1,8
256,192,89407,1,8
256,192,89518,1,0
256,192,89740,1,8
256,192,89851,1,8
256,192,89962,1,8
256,192,90185,5,0
256,192,90407,1,0
256,192,90629,1,8
256,192,90851,1,0
256,192,90962,1,0
256,192,91185,1,8
256,192,91407,1,0
256,192,91518,1,0
256,192,91740,1,8
256,192,91963,5,0
256,192,92185,1,0
256,192,92407,1,8
256,192,92629,1,0
256,192,92740,1,8
256,192,92963,1,8
256,192,93185,1,0
256,192,93296,1,8
256,192,93518,1,0
256,192,93740,5,0
256,192,93962,1,0
256,192,94184,1,8
256,192,94408,1,0
256,192,94519,1,8
256,192,94740,1,8
256,192,94962,1,0
256,192,95073,1,8
256,192,95295,1,8
256,192,95519,12,0,97074
256,192,97296,5,8
256,192,97519,1,0
256,192,97630,1,8
256,192,97852,1,0
256,192,98074,1,8
256,192,98296,1,8
256,192,98519,1,8
256,192,98741,1,0
256,192,98852,1,0
256,192,98963,1,8
256,192,99074,5,0
256,192,99297,1,0
256,192,99408,1,8
256,192,99630,1,0
256,192,99852,1,8
256,192,100074,1,8
256,192,100297,1,0
256,192,100408,1,8
256,192,100556,1,8
256,192,100704,1,8
256,192,100852,1,0
256,192,101074,1,8
256,192,101185,1,0
256,192,101408,1,0
256,192,101630,1,0
256,192,101852,1,8
256,192,102074,1,0
256,192,102296,1,0
256,192,102408,1,8
256,192,102630,1,0
256,192,102852,1,8
256,192,102963,1,0
256,192,103185,1,0
256,192,103408,1,8
256,192,103630,1,8
256,192,103852,1,8
256,192,104074,1,0
256,192,104185,1,8
256,192,104408,1,0
256,192,104519,1,0
256,192,104630,1,8
256,192,104741,1,0
256,192,104963,1,0
256,192,105185,1,8
256,192,105408,1,8
256,192,105630,1,8
256,192,105852,1,0
256,192,105963,1,8
256,192,106185,1,0
256,192,106296,1,8
256,192,106408,1,0
256,192,106519,1,0
256,192,106741,1,0
256,192,106963,1,8
256,192,107185,1,8
256,192,107408,1,8
256,192,107630,1,8
256,192,107741,1,0
256,192,107963,1,0
256,192,108185,1,8
256,192,108296,1,0
256,192,108519,1,0
256,192,108630,1,8
256,192,108852,1,0
256,192,109074,1,8
256,192,109185,1,0
256,192,109408,1,0
256,192,109519,1,8
256,192,109741,1,0
256,192,110185,1,0
256,192,110630,1,0
256,192,110778,1,0
256,192,110926,1,0
256,192,111074,1,8
256,192,111222,1,8
256,192,111371,1,8
256,192,111519,1,0
256,192,111741,1,0
256,192,111963,1,8
256,192,112185,1,0
256,192,112408,1,8
256,192,112630,1,0
256,192,112741,1,0
256,192,113074,1,0
256,192,113185,1,0
256,192,113296,1,8
256,192,113519,1,0
256,192,113741,1,8
256,192,113963,1,0
256,192,114185,1,8
256,192,114408,1,0
256,192,114519,1,8
256,192,114741,1,0
256,192,114852,1,8
256,192,114963,1,0
256,192,115074,1,0
256,192,115296,1,0
256,192,115519,1,8
256,192,115630,1,8
256,192,115741,1,0
256,192,115963,1,0
256,192,116185,1,0
256,192,116296,1,8
256,192,116630,1,0
256,192,116852,12,0,118519
256,192,118630,5,0
256,192,118852,1,0
256,192,119074,1,8
256,192,119296,1,0
256,192,119408,1,8
256,192,119630,1,8
256,192,119852,1,8
256,192,119963,1,0
256,192,120185,1,0
256,192,120296,1,0
256,192,120408,5,8
256,192,120630,1,0
256,192,120852,1,8
256,192,121074,1,0
256,192,121296,1,8
256,192,121408,1,0
256,192,121630,1,0
256,192,121741,1,8
256,192,121963,1,0
256,192,122074,1,0
256,192,122186,1,8
256,192,122408,1,0
256,192,122519,1,0
256,192,122630,1,8
256,192,122852,1,0
256,192,123074,1,8
256,192,123185,1,0
256,192,123408,1,0
256,192,123630,1,0
256,192,123741,1,8
256,192,123963,1,0
256,192,124185,1,0
256,192,124408,1,8
256,192,124519,1,0
256,192,124630,1,0
256,192,124741,1,8
256,192,124963,1,8
256,192,125185,1,0
256,192,125296,1,0
256,192,125519,1,0
256,192,125630,1,8
256,192,125741,1,8
256,192,125963,1,8
256,192,126185,1,0
256,192,126408,1,0
256,192,126519,1,8
256,192,126741,1,8
256,192,126963,1,8
256,192,127185,1,0
256,192,127296,1,8
256,192,127519,1,0
256,192,127741,1,8
256,192,127963,1,8
256,192,128185,1,0
256,192,128408,1,0
256,192,128519,1,8
256,192,128741,1,8
256,192,128963,1,0
256,192,129074,1,8
256,192,129296,1,8
256,192,129408,1,0
256,192,129519,1,8
256,192,129741,1,0
256,192,129963,1,8
256,192,130185,1,8
256,192,130296,1,0
256,192,130519,1,0
256,192,130741,1,0
256,192,130852,1,8
256,192,131074,1,0
256,192,131963,1,8
256,192,132111,1,8
256,192,132259,1,0
256,192,132408,1,8
256,192,132630,1,8
256,192,132852,5,4
256,192,133074,1,0
256,192,133296,1,8
256,192,133518,1,0
256,192,133629,1,0
256,192,133852,1,8
256,192,134074,1,0
256,192,134185,1,0
256,192,134407,1,8
256,192,134629,5,0
256,192,134851,1,8
256,192,135073,1,8
256,192,135295,1,0
256,192,135408,1,0
256,192,135629,1,8
256,192,135851,1,0
256,192,135962,1,8
256,192,136184,1,0
256,192,136407,5,0
256,192,136629,1,8
256,192,136851,1,8
256,192,137073,1,0
256,192,137184,1,0
256,192,137407,1,8
256,192,137629,1,0
256,192,137740,1,0
256,192,137962,1,8
256,192,138185,5,0
256,192,138407,1,0
256,192,138629,1,8
256,192,138741,1,8
256,192,138962,1,0
256,192,139185,1,0
256,192,139296,1,0
256,192,139518,1,8
256,192,139629,1,0
256,192,139740,1,8
256,192,139852,1,0
256,192,139963,5,8
256,192,140185,1,8
256,192,140407,1,0
256,192,140629,1,0
256,192,140740,1,8
256,192,140963,1,0
256,192,141185,1,0
256,192,141296,1,8
256,192,141518,1,8
256,192,141741,5,8
256,192,141963,1,8
256,192,142185,1,0
256,192,142407,1,0
256,192,142518,1,8
256,192,142741,1,8
256,192,142963,1,0
256,192,143074,1,8
256,192,143296,1,0
256,192,143519,5,8
256,192,143740,1,0
256,192,143963,1,8
256,192,144184,1,0
256,192,144295,1,0
256,192,144518,1,8
256,192,144740,1,0
256,192,144851,1,0
256,192,145074,1,8
256,192,145296,12,0,146963
256,192,147074,5,8
256,192,147296,1,0
256,192,147519,1,8
256,192,147741,1,0
256,192,147963,1,12
256,192,148185,1,0
256,192,148296,1,0
256,192,148408,1,8
256,192,148630,1,8
256,192,148852,1,4
256,192,149296,1,8
256,192,149741,1,0
256,192,150074,1,0
256,192,150185,1,8
256,192,150408,1,0
256,192,150630,1,0
256,192,151074,1,8
256,192,151519,1,8
256,192,151630,1,8
256,192,151852,1,0
256,192,151963,1,8
256,192,152185,1,8
256,192,152408,1,0
256,192,152852,1,8
256,192,153297,1,0
256,192,153630,1,0
256,192,153741,1,8
256,192,153964,1,0
256,192,154186,1,8
256,192,154630,1,0
256,192,155074,1,0
256,192,155408,1,0
256,192,155519,1,0
256,192,155741,1,8
256,192,155963,1,0
256,192,156185,1,0
256,192,156408,1,8
256,192,156630,1,0
256,192,156852,1,0
256,192,157185,1,8
256,192,157519,1,0
256,192,157741,1,8
256,192,158037,1,0
256,192,158334,1,8
256,192,158630,1,8
256,192,158926,1,0
256,192,159222,1,0
256,192,159371,1,8
256,192,159519,1,8
256,192,159963,1,8
256,192,160408,1,0
256,192,160741,1,0
256,192,160852,1,8
256,192,161074,1,0
256,192,161296,1,8
256,192,161741,1,0
256,192,162185,1,8
256,192,162334,1,8
256,192,162482,1,8
256,192,162630,1,8
256,192,162852,1,0
256,192,162963,1,0
256,192,163074,1,8
256,192,163296,1,0
256,192,163519,1,0
256,192,163741,1,8
256,192,163963,1,0
256,192,164185,1,8
256,192,164296,1,0
256,192,164630,1,0
256,192,164741,1,0
256,192,164852,1,8
256,192,165074,1,0
256,192,165296,1,0
256,192,165519,1,8
256,192,165741,1,0
256,192,165963,1,0
256,192,166074,1,8
256,192,166296,1,8
256,192,166408,1,0
256,192,166519,1,8
256,192,166630,1,0
256,192,166852,1,0
256,192,167074,1,8
256,192,167296,1,0
256,192,167519,1,8
256,192,167741,1,8
256,192,167852,1,0
256,192,168185,1,0
256,192,168408,12,0,170074
256,192,170185,5,0
256,192,171074,1,0
256,192,171963,1,0
256,192,172852,1,0
256,192,173296,1,0
256,192,173741,1,0
256,192,174630,1,0
256,192,175519,1,0
256,192,176408,1,0
256,192,176556,1,0
256,192,176704,1,0
256,192,176852,1,8
256,192,177000,1,8
256,192,177148,1,8
256,192,177296,1,8
256,192,178185,1,8
256,192,179074,1,8
256,192,179963,1,8
256,192,180852,1,0
256,192,181074,1,0
256,192,181296,1,8
256,192,181519,1,0
256,192,181741,1,0
256,192,181963,1,0
256,192,182185,1,8
256,192,182408,1,0
256,192,182519,1,0
256,192,182630,1,8
256,192,183519,1,0
256,192,183667,1,0
256,192,183815,1,0
256,192,183963,1,8
256,192,184074,1,8
256,192,184185,1,0
256,192,184296,1,0
256,192,184408,5,8
256,192,184630,1,8
256,192,184852,1,0
256,192,185074,1,0
256,192,185186,1,8
256,192,185408,1,8
256,192,185630,1,0
256,192,185741,1,0
256,192,185963,1,8
256,192,186074,1,0
256,192,186186,5,8
256,192,186408,1,8
256,192,186630,1,0
256,192,186852,1,8
256,192,187074,1,8
256,192,187186,1,0
256,192,187408,1,0
256,192,187630,1,8
256,192,187741,1,0
256,192,187852,1,8
256,192,187964,1,0
256,192,188186,1,0
256,192,188297,1,0
256,192,188408,1,8
256,192,188630,1,8
256,192,188852,1,8
256,192,188963,1,0
256,192,189186,1,0
256,192,189408,1,0
256,192,189519,1,8
256,192,189741,1,8
256,192,189963,1,0
256,192,190185,1,8
256,192,190297,1,8
256,192,190408,1,0
256,192,190519,1,8
256,192,190741,1,0
256,192,190963,1,0
256,192,191186,1,0
256,192,191297,1,8
256,192,191519,1,8
256,192,191741,1,8
256,192,191963,1,0
256,192,192186,1,8
256,192,192297,1,0
256,192,192519,1,0
256,192,192741,1,0
256,192,192963,1,0
256,192,193074,1,8
256,192,193297,1,8
256,192,193519,1,8
256,192,193741,1,0
256,192,193963,1,0
256,192,194185,1,8
256,192,194297,1,0
256,192,194519,1,0
256,192,194741,1,0
256,192,194852,1,8
256,192,195074,1,8
256,192,195186,1,0
256,192,195297,1,0
256,192,195519,1,8
256,192,195741,1,0
256,192,195963,1,8
256,192,196074,1,0
256,192,196296,1,0
256,192,196519,1,0
256,192,196630,1,8
256,192,196741,1,0
256,192,196852,1,8
256,192,197741,1,0
256,192,197889,1,0
256,192,198037,1,0
256,192,198185,1,8
256,192,198408,1,8
256,192,198630,5,4
256,192,198852,1,0
256,192,199074,1,8
256,192,199296,1,0
256,192,199407,1,0
256,192,199630,1,8
256,192,199852,1,0
256,192,199963,1,0
256,192,200185,1,8
256,192,200407,5,0
256,192,200629,1,0
256,192,200851,1,8
256,192,201073,1,0
256,192,201184,1,0
256,192,201407,1,8
256,192,201629,1,0
256,192,201740,1,8
256,192,201962,1,0
256,192,202074,1,0
256,192,202185,5,8
256,192,202407,1,0
256,192,202629,1,8
256,192,202851,1,0
256,192,202962,1,0
256,192,203185,1,8
256,192,203407,1,0
256,192,203518,1,0
256,192,203740,1,8
256,192,203963,5,0
256,192,204185,1,0
256,192,204407,1,8
256,192,204519,1,8
256,192,204740,1,0
256,192,204963,1,0
256,192,205074,1,0
256,192,205296,5,0
256,192,205407,5,8
256,192,205518,5,0
256,192,205630,5,8
256,192,205741,5,0
256,192,205963,5,0
256,192,206185,1,8
256,192,206407,1,0
256,192,206518,1,0
256,192,206741,1,8
256,192,206963,1,0
256,192,207074,1,0
256,192,207296,1,8
256,192,207519,5,0
256,192,207741,1,0
256,192,207963,1,0
256,192,208074,1,8
256,192,208296,1,0
256,192,208519,1,0
256,192,208741,1,0
256,192,208852,1,8
256,192,209074,1,0
256,192,209185,1,0
256,192,209296,5,8
256,192,209518,1,0
256,192,209740,1,8
256,192,209962,1,0
256,192,210073,1,0
256,192,210296,1,8
256,192,210518,1,0
256,192,210629,1,0
256,192,210852,1,8
256,192,211074,12,0,212630
256,192,212852,12,0,214408
256,192,214630,5,4
