osu file format v9

[General]
AudioFilename: party night.mp3
AudioLeadIn: 0
PreviewTime: 68080
Countdown: 0
SampleSet: Soft
StackLeniency: 0.4
Mode: 0
LetterboxInBreaks: 1

[Editor]
Bookmarks: 37895,57747,189413
DistanceSpacing: 0.8
BeatDivisor: 4
GridSize: 8

[Metadata]
Title:Party Night
Artist:Tianshi
Creator:spboxer3
Version:Normal
Source:
Tags:Megurine Luka vocaloid2 alace

[Difficulty]
HPDrainRate:5
CircleSize:4
OverallDifficulty:6
ApproachRate:5
SliderMultiplier:1.4
SliderTickRate:1

[Events]
//Background and Video events
0,0,"9484d43.jpg"
//Break Periods
2,83274,94319
2,133052,138763
2,149052,160096
2,170385,179652
2,198830,204541
//Storyboard Layer 0 (Background)
//Storyboard Layer 1 (Fail)
//Storyboard Layer 2 (Pass)
//Storyboard Layer 3 (Foreground)
//Storyboard Sound Samples
//Background Colour Transformations
3,100,163,162,255

[TimingPoints]
1297,444.444444444444,4,2,1,80,1,0
68852,-100,4,2,0,80,0,1
68963,-100,4,2,1,80,0,1
83074,-100,4,2,1,80,0,0
118630,-100,4,2,0,80,0,1
118741,-100,4,2,1,80,0,1
131074,-100,4,2,0,80,0,1
131185,-100,4,2,1,80,0,1
132852,-100,4,2,0,80,0,0
132963,-100,4,2,1,80,0,0
170185,-100,4,2,0,80,0,0
170296,-100,4,2,1,80,0,0
184408,-100,4,2,1,80,0,1
196741,-100,4,2,1,80,0,0
196852,-100,4,2,0,80,0,1
196963,-100,4,2,1,80,0,0
197741,-100,4,2,1,80,0,1
198630,-100,4,2,0,80,0,0
198741,-100,4,2,1,80,0,0
214630,-100,4,2,0,80,0,0

[Colours]
Combo1 : 128,255,255
Combo2 : 255,128,255
SliderBorder : 222,222,222

[HitObjects]
96,128,15519,2,0,B|168:128|168:128|240:88,1,140,4|0
344,168,16408,2,0,B|272:168|272:168|200:208,1,140,0|2
344,240,17296,2,0,B|432:240,2,70
216,288,18185,2,0,B|144:288|144:288|72:248,1,140,0|2
72,112,19074,6,0,B|128:160|128:160|184:152|208:184,1,140,4|0
264,288,19963,2,0,B|208:240|208:240|152:248|128:216,1,140,0|2
240,128,20852,2,0,B|320:128,3,70
384,128,21741,2,0,B|432:128|432:128|480:184|416:224,1,140,0|2
296,224,22630,6,0,B|296:272|264:288|264:288|224:280|184:320,1,140,4|0
224,168,23519,2,0,B|224:120|256:104|256:104|296:112|336:72,1,140,0|2
416,192,24408,2,0,B|496:192,2,70
320,296,25296,2,0,B|256:328|256:328|208:304|160:336,1,140,0|2
64,264,26185,6,0,B|64:208|64:208|56:200|56:200|64:192|64:192|64:112,1,140,4|0
168,40,27074,2,0,B|168:96|168:96|176:104|176:104|168:112|168:112|168:192,1,140,0|2
168,313,27963,2,0,B|232:368|280:336|280:336|299:301|299:301|360:272|416:328,1,280
464,192,29296,1,2
256,192,29741,12,4,31519
256,192,31963,6,0,B|256:112,2,70
144,192,32852,2,0,B|120:240|120:240|144:296|96:328,1,140,2|0
48,224,33741,2,0,B|0:152,2,70
104,128,34630,2,0,B|176:96,1,70,2|0
216,72,35074,6,0,B|288:72|288:72|280:80|280:80|368:80,1,140
448,80,35963,2,0,B|480:136|456:224,1,140,0|2
408,312,36852,2,0,B|384:320|328:312|328:312|256:240|392:256|312:312|312:312|264:328|240:336,1,280
96,256,38408,6,0,B|64:192,1,70,0|4
168,152,39074,1,2
88,80,39519,1,0
64,192,39963,1,2
168,152,40408,2,0,B|216:152|232:96|232:96|304:96,1,140,0|2
392,96,41296,2,0,B|464:96,2,70,0|0|2
336,192,42185,6,0,B|360:272|360:272|368:264|368:264|248:248,1,210
200,240,43074,2,0,B|48:216,1,140
112,120,43963,1,0
256,192,44185,12,4,47519
256,192,47963,6,0,B|302:194|320:144,1,70,0|2
360,128,48408,2,0,B|392:280,1,140
288,312,49296,1,0
184,264,49741,2,0,B|152:264|152:264|120:264|120:312,1,70,0|2
88,328,50186,2,0,B|32:328|24:271|24:271|24:200,1,140
88,136,51074,6,0,B|136:128|184:152|184:152|248:136,1,140,0|2
320,80,51963,2,0,B|272:88|224:64|224:64|160:80,1,140,0|2
88,136,52852,2,0,B|128:192|128:192|136:240|96:256,2,140
176,64,54185,1,2
264,128,54630,6,0,B|360:96,1,70,4|2
384,80,55074,2,0,B|424:136|424:136|440:216,1,140
360,288,55963,1,2
248,256,56408,6,0,B|152:288,1,70,0|2
128,304,56852,2,0,B|88:248|88:248|72:168,1,140
136,80,57741,1,2
248,56,58185,6,0,B|296:64|320:56|320:56|344:64|400:56,1,140,0|2
448,152,59074,2,0,B|400:144|376:152|376:152|352:144|296:152,1,140,0|2
256,192,59963,12,4,61741
256,192,62185,6,0,B|216:184|160:192,1,70
128,192,62630,2,0,B|88:200|48:192,2,70,0|0|2
176,296,63519,2,0,B|208:280|248:280,1,70
296,280,63963,2,0,B|331:280|363:264,1,70
416,240,64408,2,0,B|464:232|480:184|464:112,1,140,0|2
360,96,65296,6,0,B|320:64|264:88|208:48,1,140,4|0
176,48,65963,2,0,B|104:48,3,70,0|0|0|2
256,192,67074,12,4,68852
256,192,69296,6,0,B|280:128|280:128|256:96|256:96|352:136,1,210,0|0
400,160,70185,2,2,B|440:176|440:176|432:224|384:256,1,140,0|0
336,272,70852,1,0
280,280,71074,2,0,B|240:272|192:280,1,70,0|0
152,288,71519,2,0,B|112:296|94:292|94:292|64:288|56:248,1,105
144,152,72408,6,0,B|104:112|104:112|72:112|24:96,2,105,4|0|2
152,208,73296,2,0,B|192:248|192:248|224:248|272:264,2,105,0|0|2
192,168,74185,2,0,B|248:160|248:160|368:104|224:80|272:152|272:152|272:168|352:200,1,280,0|2
448,192,75519,1,0
384,288,75963,6,0,B|320:288|272:288|232:320,1,140,4|2
208,208,76852,2,0,B|183:229|135:229|71:229,1,140,0|2
88,120,77741,2,0,B|160:72,1,70
192,48,78185,2,0,B|216:32|216:32|256:32|256:56,1,70,2|0
280,96,78630,2,0,B|296:152|360:152|384:152,1,105
392,288,79519,6,0,B|447:274|447:274|463:246|477:236,2,105,4|0|2
340,265,80407,2,0,B|284:278|284:278|268:306|254:316,2,105,0|0|2
256,192,81296,12,4,83074
256,192,95519,12,4,97296
256,192,99074,5,0
48,272,99963,2,0,B|64:216|64:216|72:168|40:136,1,140,0|2
144,96,100852,6,0,B|172:67|220:75|220:75|276:91,1,140,4|0
376,144,101741,2,0,B|448:144,2,70,0|0|2
280,208,102630,2,0,B|208:208,2,70
360,288,103519,2,0,B|360:320|384:328|384:328|456:328,2,105,0|0|2
304,288,104408,6,0,B|240:288|232:280|232:280|224:288|160:288,1,140,4|0
96,200,105296,2,0,B|56:136,1,70
104,112,105741,2,0,B|64:48,1,70,2|0
120,24,106185,2,0,B|224:24|224:24|256:104|384:96,1,280
168,192,107963,6,0,B|80:192|80:192|64:240|64:240|80:288|80:288|184:288,1,280,4|0
224,288,109074,2,0,B|304:288,1,70
352,288,109519,2,0,B|400:288|400:288|464:248|464:184|416:128,1,210
408,96,110408,1,0
360,72,110630,6,0,B|280:56,1,70,0|0
280,112,111074,2,0,B|184:88,1,70
160,80,111519,2,0,B|104:64|104:64|56:72|32:120,1,140,4|2
72,208,112408,2,0,B|128:224|128:224|176:216|200:168,1,140,0|2
296,224,113296,2,0,B|313:187|361:179|361:179|417:195,1,140,0|2
440,304,114185,2,0,B|422:340|374:348|374:348|318:332,1,140,0|2
216,280,115074,6,0,B|136:304|136:304|88:288|64:232|96:184|96:184|112:160|104:104,1,280,4|0
192,64,116408,1,2
256,192,116852,12,4,118630
256,192,119074,6,0,B|288:200|320:192|320:192|328:184|328:184|336:192|336:192|368:200|400:192,1,140
312,96,119963,1,0
256,96,120185,1,0
200,96,120408,2,0,B|120:96,1,70
88,128,120852,2,0,B|64:144|64:168|64:168|64:216,1,70
64,248,121296,2,0,B|56:280|96:304|96:304|160:304,1,105
264,264,122185,6,0,B|304:272|336:296|336:296|384:312,2,105,4|0|2
208,280,123074,2,0,B|168:272|136:248|136:248|88:232,2,105,0|0|2
240,232,123963,2,0,B|200:192|232:120|232:120|304:112|288:72|368:56,1,245
448,152,125296,1,2
368,232,125741,6,0,B|360:288|320:296|320:296|240:296,1,140,4|2
152,296,126630,2,0,B|97:296|97:296|57:288|49:232,1,140,0|2
48,120,127519,2,0,B|55:64|95:56|95:56|150:56,1,140,0|2
264,56,128408,2,0,B|416:56,1,140,0|2
368,160,129296,6,0,B|400:256,1,70,4|0
336,248,129741,2,0,B|360:320,1,70,2|0
304,336,130185,2,0,B|248:360|216:296|144:344,1,140
256,192,131074,12,4,132852
256,112,139963,6,0,B|296:184|392:200,1,140,4|0
432,288,140852,1,0
376,304,141074,2,0,B|304:304,1,70,0|2
192,304,141741,6,0,B|136:352|136:352|32:352,1,140
120,248,142630,2,0,B|176:200|176:200|280:200,1,140,0|2
320,120,143519,2,0,B|400:120|464:184,1,140,4|0
368,240,144408,1,0
312,240,144630,2,0,B|240:240,1,70,0|2
256,192,145296,12,0,146630
256,192,147074,12,4,148852
256,192,161296,12,4,163074
256,136,163519,5,2
360,168,163963,1,0
336,56,164408,1,2
256,136,164852,2,0,B|176:160|104:128,1,140,0|2
136,248,165741,2,0,B|144:312|144:312|168:360|224:328,1,140,0|2
320,312,166630,6,0,B|474:274|474:274|504:240|504:192|464:152,1,280,4|2
384,96,167963,1,0
256,192,168408,12,4,170185
256,192,180852,12,4,184408
256,120,184852,5,2
152,88,185296,1,0
216,176,185741,1,2
144,264,186185,2,0,B|184:296|184:296|240:312|272:240,1,140,0|2
344,192,187074,2,0,B|363:143|419:159|419:159|459:191,1,140,0|2
400,288,187963,6,0,B|344:320|344:320|304:312|248:328,1,140,4|2
192,240,188852,2,0,B|88:128,1,140,0|2
200,96,189741,2,0,B|272:72,1,70
320,56,190185,2,0,B|352:48|352:48|384:48|408:80|408:112|376:136,1,140,2|0
448,224,191074,1,2
336,224,191519,6,0,B|336:288|288:304|288:304|224:304,1,140,4|2
192,288,192185,1,0
136,304,192408,2,0,B|95:304|95:304|47:288|47:224,1,140,0|2
128,144,193296,6,0,B|184:96,1,70
224,128,193741,2,0,B|280:72,1,70,2|0
312,40,194185,2,0,B|368:72|368:72|408:96|400:144,1,140,0|2
320,216,195074,6,0,B|368:296|448:296,1,140,4|2
392,192,195963,2,0,B|344:112|264:112,1,140,0|2
256,192,196852,12,4,198630
256,192,205741,6,0,B|200:144|200:144|128:144,1,140,4|2
88,248,206630,2,0,B|16:248,2,70,0|0|2
160,328,207519,2,0,B|240:352|312:336,1,140,4|2
328,288,208185,1,0
352,240,208408,2,0,B|352:192|416:160|416:104,1,140,0|2
304,112,209296,6,0,B|248:112|248:112|224:120|224:120|136:120,1,140,4|2
88,200,210185,2,0,B|160:200,3,70,0|0|2|0
256,192,211074,12,4,214630
