osu file format v9

[General]
AudioFilename: party night.mp3
AudioLeadIn: 0
PreviewTime: 68080
Countdown: 0
SampleSet: Normal
StackLeniency: 0.4
Mode: 0
LetterboxInBreaks: 1

[Editor]
Bookmarks: 37895,57747,117413,189413
DistanceSpacing: 0
BeatDivisor: 4
GridSize: 4

[Metadata]
Title:Party Night
Artist:Tianshi
Creator:spboxer3
Version:Alazy
Source:
Tags:Megurine Luka vocaloid2 alace

[Difficulty]
HPDrainRate:8
CircleSize:4
OverallDifficulty:7
ApproachRate:8
SliderMultiplier:1.6
SliderTickRate:1

[Events]
//Background and Video events
0,0,"9484d43.jpg"
//Break Periods
2,83274,89435
2,133052,139213
//Storyboard Layer 0 (Background)
//Storyboard Layer 1 (Fail)
//Storyboard Layer 2 (Pass)
//Storyboard Layer 3 (Foreground)
//Storyboard Sound Samples
//Background Colour Transformations
3,100,163,162,255

[TimingPoints]
1297,444.444444444444,4,1,0,60,1,0
27852,-100,4,2,0,70,0,0
28074,-100,4,2,0,40,0,0
29519,-100,4,2,0,20,0,0
29630,-100,4,2,0,50,0,0
29852,-100,4,2,0,40,0,0
30074,-100,4,2,0,30,0,0
30296,-100,4,2,0,20,0,0
30519,-100,4,2,0,60,0,0
31296,-100,4,1,0,60,0,0
43852,-100,4,2,0,60,0,0
44074,-100,4,2,0,40,0,0
44296,-100,4,1,0,70,0,0
45741,-100,4,2,0,30,0,0
47408,-100,4,2,0,60,0,0
61148,-200,4,1,0,40,0,0
61741,-100,4,1,0,50,0,0
66741,-100,4,2,0,50,0,0
68852,-100,4,1,0,70,0,1
83074,-100,4,1,0,70,0,0
88408,-100,4,1,0,60,0,0
95408,-100,4,2,0,60,0,0
95630,-100,4,2,0,40,0,0
95963,-100,4,2,0,20,0,0
97185,-100,4,2,0,50,0,0
98630,-100,4,2,0,60,0,0
100185,-100,4,1,0,40,0,0
100852,-100,4,2,0,60,0,0
109630,-100,4,1,0,50,0,0
116519,-100,4,2,0,50,0,0
118630,-100,4,1,0,70,0,1
132852,-100,4,1,0,70,0,0
138185,-100,4,1,0,60,0,0
145185,-100,4,2,0,60,0,0
145408,-100,4,2,0,40,0,0
145630,-100,4,1,0,70,0,0
147074,-83.3333333333333,4,2,0,60,0,0
147185,-83.3333333333333,4,2,0,50,0,0
147408,-83.3333333333333,4,2,0,40,0,0
147630,-83.3333333333333,4,2,0,30,0,0
147963,-83.3333333333333,4,2,0,50,0,0
148408,-83.3333333333333,4,1,0,50,0,0
148852,-83.3333333333333,4,1,0,60,0,0
157630,-83.3333333333333,4,2,0,70,0,0
159074,-166.666666666667,4,1,0,60,0,0
159519,-83.3333333333333,4,1,0,60,0,0
161185,-83.3333333333333,4,1,0,50,0,0
163074,-90.9090909090909,4,1,0,50,0,0
165852,-90.9090909090909,4,1,0,50,0,0
168074,-90.9090909090909,4,2,0,50,0,0
170185,-100,4,2,0,60,0,0
177296,-90.9090909090909,4,2,0,70,0,0
183963,-90.9090909090909,4,1,0,50,0,0
184185,-90.9090909090909,4,1,0,60,0,0
184408,-83.3333333333333,4,1,0,70,0,1
191519,-76.9230769230769,4,1,0,70,0,1
196741,-76.9230769230769,4,2,0,60,0,0
196741,-76.9230769230769,4,2,0,60,0,0
196852,-76.9230769230769,4,2,0,60,0,1
196963,-76.9230769230769,4,2,0,50,0,0
197185,-76.9230769230769,4,2,0,40,0,0
197408,-76.9230769230769,4,2,0,30,0,0
197630,-76.9230769230769,4,1,0,50,0,0
197741,-76.9230769230769,4,1,0,50,0,1
198630,-100,4,1,0,60,0,0
210963,-100,4,2,0,60,0,0
211185,-100,4,2,0,40,0,0
211408,-100,4,1,0,70,0,0
213296,-100,4,1,0,6,0,0
213741,-100,4,1,0,70,0,0

[Colours]
Combo1 : 128,255,255
Combo2 : 255,128,255
SliderBorder : 222,222,222

[HitObjects]
304,176,15519,2,0,B|340:136|400:120|452:132,2,160,4|2|0
304,176,16852,1,2
304,176,17074,1,2
304,176,17296,1,0
256,40,17741,1,2
208,176,18185,1,0
136,228,18408,1,2
188,300,18630,1,0
260,248,18853,1,2
196,236,19074,5,0
196,236,19519,1,2
196,236,19963,1,0
196,236,20408,1,2
196,236,20630,1,2
196,236,20852,2,0,B|244:224|256:180,1,80
156,64,21296,2,2,B|204:72|216:120,1,80,0|0
83,194,21741,2,2,B|120:120|212:112,1,160,0|0
280,156,22408,1,2
356,176,22630,5,4
356,176,23074,1,2
356,176,23519,1,0
356,176,23963,1,2
356,176,24185,1,2
356,176,24408,1,0
256,340,24852,1,2
156,176,25296,1,0
60,220,25519,1,2
28,120,25741,1,0
124,76,25964,1,2
48,40,26185,5,0
256,96,26630,1,2
464,40,27074,1,0
404,96,27296,1,0
404,96,27408,1,0
404,96,27519,2,2,B|328:128,1,80
256,156,27963,1,4
320,204,28185,1,4
256,192,28408,12,0,29519
139,157,29741,5,4
216,129,29963,1,4
290,160,30185,1,4
323,235,30407,1,4
284,236,30630,6,0,B|270:186|246:159|203:158|162:184,1,160
144,332,31519,6,0,B|64:332,2,80,0|0|2
256,260,32296,1,2
144,332,32630,1,2
184,268,32852,2,0,B|164:224|124:216,1,80,0|2
256,260,33296,6,0,B|324:216,1,80,0|0
384,180,33741,1,2
384,180,33852,1,0
320,144,34074,2,0,B|240:104,1,80,2|0
180,136,34519,1,0
180,136,34630,2,0,B|200:216,1,80,2|2
228,344,35074,5,0
228,344,35519,1,2
304,316,35741,1,0
304,316,35852,2,0,B|392:288,1,80,2|2
324,236,36296,1,0
324,236,36407,2,0,B|412:208,1,80,2|2
484,112,36852,6,0,B|404:140,1,80
332,120,37296,1,2
332,120,37408,1,2
268,72,37630,1,2
188,60,37852,1,0
188,60,37963,1,2
188,60,38074,1,0
188,60,38185,2,0,B|148:36|104:60,1,80,2|2
220,128,38630,6,0,B|264:144|280:184,2,80,0|0|2
92,192,39408,1,2
220,128,39741,1,2
160,168,39963,2,0,B|176:208|212:236,1,80,0|2
256,316,40408,6,0,B|300:312|320:272,1,80
404,248,40852,1,2
404,248,40963,1,0
336,192,41185,2,0,B|304:152|316:116,1,80,2|2
372,48,41630,1,0
372,48,41741,2,0,B|404:88|392:124,1,80,2|2
292,44,42185,5,0
208,72,42408,1,0
144,132,42630,1,2
92,204,42852,1,0
92,204,42963,2,0,B|168:248,1,80,2|2
256,352,43408,1,0
256,352,43519,2,0,B|180:308,1,80,2|2
304,288,43963,5,4
304,288,44185,1,4
384,272,44408,1,0
384,272,44519,1,0
464,260,44741,1,0
464,260,45000,5,0
384,272,45296,1,0
304,288,45593,1,0
256,192,45741,12,0,47296
152,192,47519,5,4
152,192,47963,2,0,B|220:240,1,80,0|0
284,284,48408,1,2
284,284,48519,1,2
352,328,48741,1,2
352,248,48963,1,2
352,248,49074,1,2
284,208,49296,5,0
284,208,49740,2,0,B|216:160,1,80,0|0
152,116,50185,1,2
152,116,50296,1,2
84,72,50518,1,2
84,152,50740,1,2
84,152,50851,1,2
36,216,51074,6,0,B|68:296,1,80,2|0
124,236,51519,2,0,B|156:316,1,80,0|0
216,260,51963,2,0,B|248:180,1,80,2|0
304,240,52408,2,0,B|336:160,1,80,0|0
480,192,52852,5,2
32,192,53296,1,2
480,192,53741,1,2
388,160,53963,1,2
308,104,54185,1,2
260,20,54408,1,2
116,96,54630,6,0,B|192:52,1,80,0|0
196,44,54963,2,0,B|216:84|236:108|280:124,1,120,0|0
344,172,55519,1,2
344,172,55630,1,2
420,196,55852,1,2
360,248,56074,1,2
360,248,56185,1,2
280,300,56408,6,0,B|236:316|212:364,1,80
184,336,56741,2,0,B|108:296,1,80
104,292,57074,1,0
36,248,57296,1,2
36,248,57408,1,2
104,208,57630,1,2
156,148,57852,1,2
156,148,57963,1,2
12,120,58185,6,0,B|88:96,1,80,2|0
108,88,58519,2,0,B|128:48|172:36,1,80
188,44,58852,1,0
236,108,59074,2,0,B|304:48,1,80,2|0
312,200,59519,2,0,B|340:114,1,80
336,280,59963,5,2
197,295,60185,1,0
139,167,60408,1,2
243,73,60630,1,2
364,143,60852,1,2
256,192,61148,6,0,B|272:168,3,26.6666666666667
256,192,61741,2,0,B|212:264,1,80,4|0
216,260,62185,2,0,B|172:332,1,80,8|0
256,352,62630,2,0,B|280:304|328:304,1,80
336,304,62963,1,0
356,308,63074,1,8
436,324,63296,1,0
412,248,63519,6,0,B|448:168,1,80
444,176,63963,2,0,B|480:96,1,80,8|0
380,116,64408,2,0,B|356:76|288:64,1,80
296,64,64741,1,0
276,64,64852,1,8
56,108,65296,6,0,B|96:184,1,80
92,180,65741,2,0,B|132:256,1,80,8|0
40,352,66185,2,0,B|84:356|116:324,1,80
124,324,66519,1,0
136,320,66630,1,8
208,288,66852,5,4
256,352,67074,1,4
468,192,67519,1,2
256,32,67963,1,2
44,192,68408,1,2
56,204,68519,1,2
72,208,68630,1,2
88,204,68741,1,2
100,192,68852,5,4
100,192,69296,2,0,B|152:176|188:188|204:232,1,120,0|2
180,312,69852,1,2
180,312,69963,2,2,B|236:308|260:276,1,80,0|2
368,328,70408,1,0
368,328,70519,1,0
368,328,70630,2,0,B|328:296|328:256,1,80,0|2
200,200,71074,2,0,B|247:181|282:201,1,80,0|2
424,96,71519,2,0,B|420:148|396:180|344:180,1,120,0|2
354,179,71963,1,0
296,124,72185,1,2
104,168,72408,6,0,B|156:152|172:112,1,80,0|2
234,76,72852,2,0,B|252:112|296:124,1,80,0|2
372,144,73296,1,0
372,144,73408,2,0,B|388:96|432:80|472:96,1,120,2|0
460,172,73963,1,2
400,224,74185,2,0,B|352:244|340:292,1,80,0|2
268,308,74630,2,0,B|188:336,1,80,0|2
180,340,74963,1,0
104,368,75185,1,2
104,368,75296,2,0,B|84:324|40:312,2,80,2|0|2
176,216,75963,5,0
176,216,76408,2,0,B|220:212|248:180|248:136,1,120,0|2
324,156,76963,2,0,B|400:196,1,80,2|0
400,196,77296,1,0
472,228,77519,1,2
352,332,77741,2,0,B|396:312|408:268,1,80,0|2
280,172,78185,2,0,B|324:192|336:236,1,80,0|2
280,88,78630,1,0
280,88,78741,2,0,B|236:84|188:100|172:144,1,120,2|0
104,168,79296,1,2
20,296,79519,6,0,B|64:284|72:236,1,80,0|2
216,288,79963,2,0,B|140:252,1,80,0|2
288,256,80408,1,0
288,256,80519,2,0,B|340:244|372:216|368:176,1,120,2|0
448,164,81074,1,2
396,104,81296,2,0,B|364:76|320:80,1,80,0|0
322,79,81741,2,0,B|284:76|240:96,1,80,0|0
176,136,82185,2,0,B|144:84,3,53.3333333333333
176,136,83074,1,4
392,128,90185,5,4
392,128,90630,1,2
392,128,91074,1,0
392,128,91519,1,2
392,128,91741,1,2
392,128,91963,1,0
256,264,92408,1,2
120,128,92852,1,0
204,64,93074,1,2
308,64,93296,1,0
392,128,93518,1,2
304,156,93741,6,0,B|332:244|416:260,2,160,0|2|0
216,176,94852,1,0
244,92,95074,1,2
304,156,95296,1,2
216,176,95519,2,0,B|136:208,1,80,4|4
256,192,95963,12,0,97074
288,136,97296,6,0,B|332:128|360:168,1,80,4|0
392,192,97630,2,0,B|476:168,2,80
188,128,98852,5,0
180,216,99074,2,0,B|136:208|108:248,1,80
76,272,99408,2,0,B|-8:248,2,80
256,316,100408,6,0,B|256:372,2,53.3333333333333
256,316,100852,2,0,B|300:296|308:256,1,80,4|0
384,220,101296,2,0,B|428:240|436:280,1,80
312,172,101741,1,0
228,144,101963,1,2
140,156,102185,1,0
64,204,102408,1,2
144,240,102630,6,0,B|184:248|204:288,1,80,2|0
232,320,102963,2,0,B|312:284,1,80,2|2
384,248,103408,1,2
384,248,103519,1,2
464,212,103741,1,2
392,160,103963,1,2
392,160,104408,6,0,B|356:132|312:136,1,80,2|0
284,164,104741,2,0,B|240:176|212:128,1,80,2|0
208,132,105074,1,2
132,156,105296,1,2
132,156,105408,1,2
56,184,105630,1,2
116,236,105852,1,2
116,236,105963,1,2
148,336,106185,6,0,B|172:296|212:288,1,80,2|0
248,296,106519,2,0,B|272:336|328:332|348:272,1,120,2|2
416,256,107074,1,2
416,256,107185,1,2
480,208,107408,1,2
408,176,107630,1,2
408,176,107741,1,2
360,80,107963,6,0,B|328:108|304:144,1,80,2|0
284,172,108296,2,0,B|260:132|216:124,1,80,2|0
212,124,108630,1,2
112,56,108852,1,0
8,96,109074,1,2
48,200,109296,1,0
152,160,109518,1,2
120,236,109741,5,0
120,236,110185,1,0
120,236,110630,2,0,B|152:288,3,53.3333333333333
188,352,111296,1,0
316,312,111519,5,4
225,280,111741,1,0
227,185,111963,1,8
318,157,112185,1,0
373,235,112408,2,0,B|407:195|453:201,1,80
464,200,112741,1,0
484,204,112852,1,8
456,112,113074,1,0
352,140,113296,5,0
373,234,113518,1,0
291,282,113740,1,8
219,220,113962,1,0
256,132,114185,2,0,B|204:124|185:81,1,80
172,88,114519,1,0
152,84,114630,1,8
28,236,115074,6,0,B|96:284,1,80
92,284,115519,2,0,B|160:332,1,80,8|0
256,304,115963,2,0,B|212:292|200:252,1,80
192,236,116296,1,0
192,220,116408,1,8
136,132,116630,5,4
52,192,116852,1,4
256,348,117296,1,2
460,192,117741,1,2
256,36,118185,1,2
244,48,118296,1,2
240,64,118407,1,2
244,80,118518,1,2
256,92,118629,5,4
256,92,119074,2,0,B|288:128|296:164|264:204,1,120,0|2
184,236,119630,1,2
260,284,119852,1,0
260,284,119963,1,2
316,352,120185,1,2
340,268,120408,2,0,B|388:256|404:220,1,80,0|2
488,104,120852,2,0,B|440:116|424:152,1,80,0|2
340,164,121296,1,0
340,164,121408,2,0,B|264:136,1,80,2|0
252,132,121741,1,2
240,128,121852,1,0
228,124,121963,1,2
40,224,122185,6,0,B|80:204|96:164,1,80,0|2
184,36,122630,2,0,B|144:56|128:96,1,80,0|2
176,168,123074,1,0
176,168,123185,2,0,B|252:208,1,80,2|2
260,212,123519,1,0
232,328,123741,1,2
232,328,123852,1,2
232,328,123963,2,0,B|284:312|308:280,1,80,0|2
332,148,124408,1,0
332,148,124519,2,0,B|356:188|348:236,1,80,2|2
256,128,124963,1,0
244,120,125074,1,2
228,116,125185,1,2
212,116,125296,2,0,B|168:132|132:96,1,80,0|2
16,232,125741,6,0,B|64:180|76:144|56:84,1,160
140,56,126408,1,2
140,56,126519,2,0,B|216:28,1,80,0|2
304,40,126963,1,0
372,96,127185,1,2
372,96,127296,1,2
288,128,127519,2,0,B|248:100|208:108,1,80,0|2
356,176,127963,2,0,B|404:188|424:232,1,80,0|2
284,208,128408,1,2
284,208,128519,2,0,B|236:200|204:244,1,80,2|2
204,240,128852,1,0
132,288,129074,1,2
24,180,129296,6,0,B|112:148,1,80,0|2
224,72,129741,2,0,B|136:104,1,80,0|2
288,168,130185,2,0,B|344:104,1,80,0|2
352,220,130630,2,0,B|296:284,1,80,0|2
296,284,130963,1,0
292,288,131074,1,0
232,352,131296,1,0
208,268,131519,1,0
208,268,131630,2,0,B|164:200,1,80
164,200,131963,2,0,B|100:200,3,53.3333333333333
32,204,132630,1,0
68,132,132852,1,4
328,284,139963,5,0
376,212,140185,1,2
416,292,140408,1,2
328,284,140630,1,0
328,284,140741,2,0,B|280:272|248:308,1,80,2|2
236,312,141074,1,0
216,312,141185,1,2
200,300,141296,2,0,B|160:276|116:280,1,80,0|2
56,120,141741,5,0
88,200,141963,1,2
123,279,142185,1,2
132,276,142296,2,0,B|212:240,1,80,0|2
256,172,142741,1,0
292,252,142963,1,2
296,260,143074,2,0,B|340:344,1,80,0|2
456,280,143519,5,0
388,212,143741,1,2
476,176,143963,1,2
404,116,144185,1,0
404,116,144296,2,0,B|368:44,1,80,2|2
320,152,144741,1,0
320,152,144852,2,0,B|239:147,1,80,2|2
88,204,145296,5,4
88,204,145518,1,4
183,223,145741,1,0
183,223,145852,1,0
279,237,146074,1,0
279,237,146333,5,0
183,223,146629,1,0
88,204,146926,1,0
24,168,147074,5,4
60,76,147296,1,4
147,35,147518,1,4
240,66,147740,1,4
210,101,147963,6,0,B|154:73|110:73|75:110|65:168,1,192.000004577637
60,184,148519,1,0
56,204,148630,1,0
56,224,148741,1,0
60,244,148852,5,4
60,244,149296,1,2
60,244,149741,2,0,B|108:204|160:208|192:256,1,144.000003433228,0|2
196,244,150185,2,0,B|276:188,1,96.0000022888184,0|2
368,276,150630,5,0
368,276,151074,1,2
368,276,151519,2,0,B|362:213|322:179|266:191,1,144.000003433228,0|2
271,179,151963,2,0,B|254:82,1,96.0000022888184,0|2
164,132,152408,5,0
164,132,152852,1,2
164,132,153297,2,0,B|226:137|260:177|248:233,1,144.000003433228,0|2
260,228,153741,2,0,B|356:244,1,96.0000022888184,0|2
448,260,154185,5,0
416,168,154408,1,0
416,168,154519,1,0
416,168,154630,1,2
354,244,154852,1,2
448,260,155074,1,2
256,324,155408,1,2
64,260,155741,1,2
40,84,155963,6,0,B|92:96|112:140,1,96.0000022888184
236,132,156408,2,0,B|184:120|164:76,1,96.0000022888184,2|2
320,112,156852,1,0
56,192,157185,1,2
320,272,157519,1,2
408,188,157741,5,4
299,46,158037,1,4
130,105,158334,1,4
135,284,158630,1,4
306,335,158926,1,4
240,252,159074,2,0,B|224:288,2,32.0000007629395
320,240,159519,6,0,B|420:280,1,96.0000022888184,4|0
320,144,159963,2,0,B|420:104,1,96.0000022888184,2|2
480,192,160408,1,0
256,48,160741,1,2
32,192,161074,1,2
100,248,161296,5,4
148,308,161519,1,0
220,332,161741,1,0
264,268,161963,1,0
296,340,162185,2,0,B|352:344|400:316|416:276,1,144.000003433228
432,272,162630,1,0
252,44,163074,5,4
146,50,163296,1,0
119,151,163518,1,8
207,208,163740,1,0
288,142,163963,2,0,B|311:194|362:202,1,87.9999973773957
374,207,164296,1,0
396,209,164407,1,8
339,297,164629,1,0
237,236,164851,5,0
288,143,165073,1,0
216,68,165296,1,8
121,111,165519,1,0
133,216,165740,2,0,B|75:208|42:248,1,87.9999973773957
36,252,166074,1,0
32,268,166185,1,8
252,332,166630,6,0,B|336:304,1,87.9999973773957
392,144,167074,2,0,B|374:230,1,87.9999973773957,8|0
480,360,167519,2,0,B|413:301,1,87.9999973773957
404,292,167852,1,0
396,284,167963,1,8
392,144,168185,5,4
472,192,168408,1,4
256,32,168852,1,2
40,192,169296,1,2
256,352,169741,1,2
244,340,169852,1,2
240,324,169963,1,2
244,308,170074,1,2
256,296,170185,5,4
256,296,170630,2,0,B|288:260|296:224|264:184,1,120,0|2
216,140,171185,1,2
284,120,171408,1,2
284,120,171519,1,2
352,96,171741,1,2
352,96,171852,1,2
352,96,171963,2,0,B|432:68,1,80,0|2
504,172,172408,2,0,B|424:144,1,80,0|2
296,256,172852,2,0,B|344:268|376:256|404:212,2,120,2|2|2
184,348,173741,6,0,B|184:304|232:284,1,80,0|2
224,164,174185,2,0,B|224:208|176:228,1,80,0|2
112,252,174630,1,0
112,252,174741,1,2
44,280,174963,1,2
44,280,175074,1,0
56,208,175296,1,2
56,208,175408,1,2
56,208,175519,2,0,B|64:164|28:128,1,80,0|2
92,48,175963,2,0,B|84:92|120:128,1,80,0|2
124,136,176296,1,2
140,144,176408,1,0
148,132,176519,1,2
232,112,176741,1,2
232,112,176852,1,0
320,96,177074,1,2
468,232,177296,6,0,B|436:172|372:152|316:180,1,175.999994754791
308,184,177852,1,0
220,220,178074,1,2
300,272,178296,1,2
300,272,178408,1,0
300,272,178519,1,2
300,272,178630,2,0,B|368:328,1,87.9999973773957,0|2
308,184,179074,2,0,B|332:144|392:144,1,87.9999973773957,0|2
220,220,179519,2,0,B|188:188|128:192,1,87.9999973773957,0|2
16,168,179963,1,0
16,168,180074,2,0,B|60:156|92:120,1,87.9999973773957,2|2
156,64,180519,1,0
156,64,180630,1,2
360,128,180852,6,0,B|312:112|292:60,1,87.9999973773957,0|2
152,64,181296,2,0,B|200:80|220:132,1,87.9999973773957,0|2
252,204,181741,1,0
264,292,181963,1,2
264,292,182074,1,2
264,292,182185,1,0
228,372,182408,1,2
228,372,182519,1,2
228,372,182630,2,0,B|148:332,1,87.9999973773957,4|2
40,220,183074,2,0,B|120:260,1,87.9999973773957,0|2
104,132,183519,2,0,B|120:196|192:208|248:164,1,175.999994754791
268,156,184074,1,0
288,148,184185,1,0
308,140,184296,1,0
332,132,184408,5,4
332,132,184852,2,0,B|384:112|440:136|448:184,1,144.000003433228,0|2
316,272,185408,1,2
316,272,185519,2,0,B|368:292|404:244,1,96.0000022888184,0|2
236,316,185963,1,2
224,312,186074,1,2
212,308,186185,2,0,B|116:272,1,96.0000022888184,0|2
4,172,186630,2,0,B|100:208,1,96.0000022888184,0|2
280,104,187074,2,0,B|224:100|168:124|152:168,1,144.000003433228,2|2
155,159,187519,1,0
296,188,187741,1,2
296,188,187852,1,0
296,188,187963,6,0,B|352:176|372:128,1,96.0000022888184,0|2
340,252,188408,2,0,B|284:264|264:312,1,96.0000022888184,0|2
88,348,188852,1,0
88,348,188963,2,0,B|196:328,1,96.0000022888184,2|2
204,248,189408,1,0
204,248,189519,1,2
316,124,189741,2,0,B|264:128|232:188,1,96.0000022888184,0|2
376,180,190185,2,0,B|432:184|456:228,1,96.0000022888184,0|2
464,244,190519,1,0
472,260,190630,1,0
476,280,190741,1,2
476,300,190852,1,0
472,320,190963,1,2
464,336,191074,1,0
372,360,191296,1,2
220,336,191519,5,0
220,336,191741,1,2
220,336,191963,2,0,B|224:272|280:252|336:272,1,155.999997210503,2|0
444,236,192519,1,2
340,192,192741,1,2
340,192,192852,2,0,B|280:200|240:160,1,103.999998140335,0|2
236,144,193185,1,2
224,128,193296,5,0
120,60,193519,1,2
48,160,193741,1,0
152,228,193964,1,2
228,264,194185,1,0
228,264,194296,2,0,B|288:284|320:324,1,103.999998140335,2|2
336,332,194630,1,0
360,336,194741,1,0
384,328,194852,1,2
468,176,195074,6,0,B|444:236|368:256,1,103.999998140335,0|2
236,176,195519,2,0,B|292:176|328:220,1,103.999998140335,0|2
160,152,195963,1,2
160,152,196074,2,0,B|104:168|48:152|20:104,1,155.999997210503,2|0
80,64,196630,1,2
192,56,196852,5,4
300,96,197074,1,4
376,164,197296,1,4
420,248,197519,1,4
432,332,197741,2,0,B|500:332,3,69.3333320935567
140,288,198630,6,0,B|60:316,2,80,4|2|2
176,208,199296,1,0
192,200,199408,1,2
220,124,199630,1,2
236,128,199741,1,0
252,132,199852,1,2
268,136,199963,2,0,B|344:160,1,80,0|2
480,204,200408,6,0,B|396:236,1,80,0|2
392,312,200852,1,2
392,312,200963,2,0,B|312:280,1,80,2|2
248,320,201408,1,0
252,240,201630,1,2
252,240,201741,2,0,B|172:264,1,80,2|2
56,168,202185,5,0
104,96,202408,1,2
184,128,202630,1,2
136,204,202853,1,0
136,204,202963,2,0,B|208:240,1,80,2|2
288,272,203408,1,0
288,272,203519,1,2
368,304,203741,1,2
460,192,203963,5,0
372,152,204185,1,2
324,68,204408,1,0
324,68,204519,2,0,B|254:107,1,80,2|2
240,115,204852,1,0
227,123,204963,1,2
213,132,205074,1,0
199,139,205185,1,2
185,148,205296,1,0
111,195,205519,1,2
112,52,205741,6,0,B|37:11,2,80,0|2|2
135,136,206407,1,0
149,147,206519,1,2
165,226,206741,1,2
181,225,206852,1,0
198,223,206963,1,2
214,222,207074,2,0,B|292:210,1,80,0|2
434,188,207519,6,0,B|356:143,1,80,0|2
364,67,207963,1,2
364,67,208074,2,0,B|279:86,1,80,2|2
223,37,208519,1,0
215,116,208741,1,2
215,116,208852,2,0,B|139:79,1,80,2|2
10,157,209296,5,0
46,236,209519,1,2
130,216,209741,1,2
94,134,209964,1,0
94,134,210074,2,0,B|170:109,1,80,2|2
255,90,210519,1,0
255,90,210630,1,2
339,71,210852,1,2
452,134,211074,5,4
452,134,211296,1,4
392,234,211519,1,0
392,234,211630,1,0
328,331,211852,1,0
328,331,212111,5,0
392,234,212407,1,0
452,134,212704,1,0
384,132,212852,6,0,B|256:-44|128:132,1,320
144,264,214037,1,0
256,340,214334,1,0
368,264,214630,1,4
