osu file format v9

[General]
AudioFilename: melancholic.mp3
AudioLeadIn: 1500
PreviewTime: 71123
Countdown: 0
SampleSet: Soft
StackLeniency: 0.5
Mode: 0
LetterboxInBreaks: 0

[Editor]
Bookmarks: 826,14540,28254,41968,53968,57397,71111,84826,98540,112254,125968,139683,151683,158540,172254,185968,187683,201397,214683
DistanceSpacing: 1.2
BeatDivisor: 4
GridSize: 8

[Metadata]
Title:Melancholic
Artist:Tianshi
Creator:ZLOdeuka
Version:ShaggoNormal
Source:Junky
Tags:Kagamine Rin ShaggoN galvenize Vocaloid Vocaloid2

[Difficulty]
HPDrainRate:3
CircleSize:4
OverallDifficulty:3
ApproachRate:3
SliderMultiplier:1.2
SliderTickRate:0.5

[Events]
//Background and Video events
0,0,"Kagamine Rin.jpg"
//Break Periods
2,14749,26823
2,98749,110823
2,139892,149609
//Storyboard Layer 0 (Background)
//Storyboard Layer 1 (Fail)
//Storyboard Layer 2 (Pass)
//Storyboard Layer 3 (Foreground)
Sprite,Foreground,Centre,"zlohard.png",320,240 F,0,15838,16266,0,1 M,0,16266,,248,273 S,0,16266,,0.3958399 F,0,16266,26552,1 F,0,26552,27409,1,0
Sprite,Foreground,Centre,"SB\normal.png",320,240 F,0,19254,19683,0,1 M,0,19683,,306,373 S,0,19683,,0.40608 F,0,19683,27611,1 F,0,27611,27826,1,0
//Storyboard Sound Samples
//Background Colour Transformations
3,100,163,162,255

[TimingPoints]
835,428.571428571429,4,2,1,50,1,0
11119,-100,4,2,2,30,0,0
12834,-100,4,2,1,50,0,0
14548,-100,4,2,1,50,0,1
14655,-100,4,2,1,50,0,0
41976,-100,4,2,2,50,0,0
48191,-100,4,2,1,50,0,0
48834,-100,4,2,2,50,0,0
51619,-100,4,2,1,50,0,0
52262,-100,4,2,2,50,0,0
53976,-100,4,2,2,70,0,1
54085,-100,4,2,2,70,0,0
71119,-100,4,2,2,70,0,1
77334,-100,4,2,1,70,0,1
77976,-100,4,2,2,70,0,1
84726,-100,4,2,2,70,0,0
84834,-100,4,2,2,70,0,1
91048,-100,4,2,1,70,0,1
91691,-100,4,2,2,70,0,1
98441,-100,4,2,2,70,0,0
98548,-100,4,2,2,70,0,1
98655,-100,4,2,2,70,0,0
112262,-100,4,2,1,70,0,0
125976,-100,4,2,2,50,0,0
139691,-100,4,2,2,0,0,0
151048,-100,4,2,2,50,0,0
151691,-100,4,2,2,20,0,0
152548,-100,4,2,2,30,0,0
153405,-100,4,2,2,40,0,0
154262,-100,4,2,2,50,0,0
158548,-100,4,2,2,70,0,1
164762,-100,4,2,1,70,0,1
165405,-100,4,2,2,70,0,1
172155,-100,4,2,2,70,0,0
172262,-100,4,2,2,70,0,1
172369,-100,4,2,2,70,0,0
187691,-100,4,2,2,70,0,1
193905,-100,4,2,1,70,0,1
194548,-100,4,2,2,70,0,1
201298,-100,4,2,2,70,0,0
201405,-100,4,2,2,70,0,1
214584,-100,4,2,2,70,0,0
214691,-100,4,2,2,70,0,1
214798,-100,4,2,2,70,0,0

[Colours]
Combo1 : 255,157,111
Combo2 : 136,196,255
Combo3 : 240,132,170
Combo4 : 170,131,252

[HitObjects]
200,136,834,2,0,B|158:192|200:248,3,120,0|2|0|2
256,192,2335,2,0,B|312:228|368:192,1,120
440,192,2977,1,8
392,56,3406,2,0,B|392:-8,2,60,0|8|8
256,96,4263,5,0
120,56,4692,1,2
256,96,5120,1,0
216,232,5549,1,2
216,232,5763,2,0,B|256:232|256:232|228:271|256:304,2,120,0|0|0
352,192,7049,1,8
352,192,7263,1,8
352,48,7692,6,0,B|232:48,1,120,0|2
136,160,8549,2,0,B|16:160,2,120,0|2|0
136,160,9834,1,2
168,312,10263,1,0
168,312,10477,1,8
168,312,10692,1,8
336,312,11120,5,8
483,232,11549,1,8
405,83,11977,1,8
256,162,12406,1,8
256,192,12834,12,4,14549
216,40,28263,6,0,B|184:48|184:48|168:87|114:101,2,120,0|2|0
256,176,29549,1,2
296,40,29977,2,0,B|328:48|328:48|344:87|398:101,1,120,0|2
394,175,30620,1,0
324,300,31049,1,2
256,176,31477,5,0
184,176,31692,2,0,B|124:141|72:176,1,120,0|2
72,320,32549,2,0,B|132:355|184:320,1,120,0|2
208,248,33192,2,0,B|240:280|288:216|320:248,1,120,0|2
440,336,34049,1,0
440,336,34263,1,0
504,216,34692,1,2
440,96,35120,6,0,B|380:78|321:95,1,120,0|2
200,176,35977,2,0,B|260:194|319:177,1,120,0|2
200,96,36835,2,0,B|140:78|81:95,3,120,0|2|0|2
144,224,38549,5,0
288,224,38977,1,2
160,296,39406,1,0
304,296,39835,1,2
256,192,40263,12,2,41549
72,72,41977,5,4
184,160,42406,1,8
328,160,42835,1,0
440,72,43263,1,8
496,208,43692,2,0,B|496:328,1,120,0|8
424,352,44334,2,0,B|424:232,1,120,0|8
296,296,45192,5,0
296,296,45406,2,0,B|240:331|184:296,2,120,0|8|0
184,200,46692,1,8
184,200,46906,2,0,B|128:165|72:200,2,120,0|2|0
256,200,47977,2,0,B|320:200,2,60,0|8|8
364,96,48834,6,0,B|312:52|256:96,1,120,0|8
146,96,49692,2,0,B|198:52|254:96,1,120,0|8
365,192,50549,2,0,B|313:236|257:192,1,120,0|8
112,192,51406,2,0,B|85:203|53:191,2,60,0|8|8
256,192,52263,5,8
360,320,52692,1,8
472,192,53120,1,8
360,72,53549,1,8
256,192,53977,6,0,B|200:157|144:192,1,120,4|8
48,304,54834,2,0,B|104:339|160:304,1,120,0|8
256,192,55692,2,0,B|312:157|368:192,1,120,0|8
464,304,56549,2,0,B|408:339|352:304,1,120,0|8
464,208,57406,6,0,B|464:144,1,60,4|8
400,112,57834,2,0,B|400:48,2,60,8|8|8
256,144,58692,1,8
112,112,59120,2,0,B|112:52,2,60,8|8|8
48,148,59763,2,0,B|48:208,1,60,8|8
256,144,60406,2,0,B|291:201|256:256,1,120,8|4
128,328,61263,5,8
272,328,61692,1,0
200,200,62120,1,8
344,200,62549,1,0
408,328,62977,1,8
344,200,63406,1,0
408,328,63834,1,8
472,172,64263,6,0,B|472:236,1,60,4|8
408,268,64692,2,0,B|464:298,2,60,8|8|8
256,240,65549,1,8
104,268,65977,2,0,B|47:298,2,60,8|8|8
40,232,66620,2,0,B|40:172,1,60,4|8
256,240,67263,2,0,B|320:272|192:296|256:328,1,120,8|4
192,192,68120,5,0
256,64,68549,1,0
320,192,68977,1,0
256,192,69406,12,8,70692
256,224,71120,6,0,B|280:264|232:304|256:340,2,120,4|8|0
360,128,72406,1,8
256,32,72834,1,0
152,128,73263,1,8
24,192,73692,1,0
152,256,74120,1,8
256,160,74549,6,0,B|280:120|232:80|256:44,2,120,0|8|0
352,264,75834,2,0,B|291:271|256:328,2,120,8|0|8
400,128,77120,2,0,B|400:64,2,60,0|8|8
256,136,77977,6,0,B|200:101|144:136,1,120,4|8
24,224,78834,2,0,B|80:259|136:224,2,120,0|8|0
136,136,80120,1,8
0,96,80549,1,0
136,56,80977,1,8
256,160,81406,5,0
368,256,81834,1,8
144,256,82263,1,0
256,352,82692,1,8
256,192,83120,12,8,84406
256,160,84834,6,0,B|232:120|280:80|256:44,2,120,4|8|0
152,256,86120,1,8
256,352,86549,1,0
360,256,86977,1,8
488,192,87406,1,0
360,128,87834,1,8
256,224,88263,6,0,B|232:264|280:304|256:340,2,120,0|8|0
160,120,89549,2,0,B|221:113|256:56,2,120,8|0|8
112,256,90834,2,0,B|112:320,2,60,0|8|8
256,248,91692,6,0,B|312:283|368:248,1,120,4|8
488,160,92549,2,0,B|432:125|376:160,2,120,0|8|0
376,248,93834,1,8
512,288,94263,1,0
376,328,94692,1,8
256,224,95120,5,0
112,224,95549,1,8
224,136,95977,1,0
80,136,96406,1,8
256,192,96834,12,4,98549
256,192,112263,6,0,B|316:176|374:192,1,120,4|8
256,192,113120,2,0,B|315:208|358:251,1,120,0|8
256,192,113977,2,0,B|299:235|314:294,1,120,0|8
256,192,114834,2,0,B|255:310,1,120,0|8
256,192,115692,6,0,B|212:235|197:294,1,120,0|8
256,192,116549,2,0,B|196:208|153:251,1,120,0|8
256,192,117406,2,0,B|196:176|138:192,1,120,0|8
256,192,118263,2,0,B|256:128,2,60,0|8|8
400,192,119120,5,4
256,224,119549,1,8
112,192,119977,1,0
256,224,120406,1,8
400,192,120834,1,0
256,160,121263,1,8
112,192,121692,1,0
256,160,122120,1,8
256,16,122549,6,0,B|203:44|136:48,1,120,0|8
256,16,123406,2,0,B|309:44|376:48,1,120,0|8
256,16,124263,2,0,C|280:40|232:72|280:104|232:136|280:168|232:200|280:232|233:263|256:280,1,480,0|12
255,351,126192,5,12
416,192,127692,1,12
416,192,127906,1,12
256,32,129406,1,12
256,32,129620,1,12
120,232,131120,6,0,B|120:272|120:272|160:232|192:232,1,120,4|8
120,152,131977,2,0,B|120:112|120:112|160:152|192:152,1,120,0|8
256,192,132834,5,12
256,192,133049,1,12
480,312,134549,1,12
480,312,134763,1,12
472,32,136263,5,0
328,32,136692,1,2
184,32,137120,1,0
40,32,137549,1,2
256,192,137977,12,4,139692
256,48,151049,5,0
256,48,151263,1,8
256,168,151692,5,0
168,248,152120,1,8
80,168,152549,1,0
168,88,152977,1,8
256,168,153406,5,0
344,88,153835,1,8
432,168,154263,1,0
344,248,154692,1,8
256,192,155120,12,0,156835
256,344,157692,5,0
256,344,158120,1,8
184,216,158549,6,0,B|129:252|72:216,2,120,4|8|0
328,216,159835,2,0,B|383:252|440:216,2,120,8|0|8
184,120,161120,1,0
328,120,161549,1,8
184,120,161977,6,0,B|243:144|256:208,2,120,0|8|0
328,120,163263,2,0,B|269:144|256:208,1,120,8|0
400,208,164120,1,8
328,336,164549,2,0,B|392:336,2,60,0|8|8
184,336,165406,6,0,B|198:273|256:246,1,120,4|8
120,280,166263,2,0,B|106:217|48:190,1,120,0|8
184,224,167120,2,0,B|198:161|256:134,1,120,0|8
120,176,167977,2,0,B|106:113|48:86,2,120,0|8|0
216,64,169263,5,8
280,192,169692,1,0
344,320,170120,1,8
256,192,170549,12,8,171835
448,328,172263,5,4
304,328,172692,1,8
424,256,173120,1,0
280,256,173549,1,8
352,128,173977,5,0
208,128,174406,1,8
336,200,174835,1,0
192,200,175263,1,8
256,328,175692,6,0,B|160:368|88:296|112:208,2,240,0|8|0
400,336,177835,1,8
256,328,178263,1,0
384,264,178692,1,8
256,192,179120,6,0,B|216:184|208:152|208:152|152:152,1,120,4|8
256,192,179977,2,0,B|296:184|304:152|304:152|360:152,1,120,0|8
256,256,180835,2,0,B|216:264|208:296|208:296|152:296,1,120,0|8
256,256,181692,2,0,B|296:264|304:296|304:296|360:296,1,120,0|8
256,128,182549,5,0
128,192,182977,1,8
256,128,183406,1,0
384,192,183835,1,8
256,192,184263,12,8,187263
256,168,187692,5,4
112,144,188120,1,8
256,168,188549,1,0
184,40,188977,1,8
256,168,189406,1,0
328,40,189835,1,8
256,168,190263,1,0
400,144,190692,1,8
256,216,191120,5,0
368,304,191549,1,8
256,216,191977,1,0
256,360,192406,1,8
256,216,192835,1,0
144,304,193263,1,8
256,216,193692,1,0
216,152,193906,1,8
296,152,194120,1,8
304,296,194549,6,0,B|359:262|421:276,3,120,4|8|0|8
208,296,196263,2,0,B|153:262|91:276,3,120,0|8|0|8
224,224,197977,6,0,B|208:168|144:152|144:152|160:104|112:96|112:96|144:64|144:64|208:80|256:24|256:24|304:80|368:64|368:64|400:96|400:96|352:104|368:152|368:152|304:168|288:224,1,720,0|4
256,368,200977,1,4
128,304,201406,6,0,B|96:248|48:216,1,120,4|8
168,136,202263,2,0,B|168:16,2,120,0|8|0
288,216,203549,2,0,B|240:247|208:303,2,120,8|0|8
384,80,204835,6,0,B|416:136|464:168,1,120,0|8
344,248,205692,2,0,B|344:368,2,120,0|8|0
224,168,206977,2,0,B|271:136|303:80,2,120,8|0|8
136,56,208263,5,4
32,152,208692,1,8
72,288,209120,1,0
184,192,209549,1,8
328,192,209977,1,0
440,288,210406,1,8
480,152,210835,1,0
376,56,211263,1,8
256,192,211692,12,8,214692
