osu file format v9

[General]
AudioFilename: melancholic.mp3
AudioLeadIn: 1500
PreviewTime: 71123
Countdown: 0
SampleSet: Soft
StackLeniency: 0.7
Mode: 0
LetterboxInBreaks: 0

[Editor]
Bookmarks: -19
DistanceSpacing: 1.5
BeatDivisor: 4
GridSize: 4

[Metadata]
Title:Melancholic
Artist:Tianshi
Creator:ZLOdeuka
Version:Collab
Source:Junky
Tags:Kagamine Rin ShaggoN galvenize Vocaloid Vocaloid2

[Difficulty]
HPDrainRate:7
CircleSize:4
OverallDifficulty:7
ApproachRate:8
SliderMultiplier:1.8
SliderTickRate:0.5

[Events]
//Background and Video events
0,0,"Kagamine Rin.jpg"
//Break Periods
2,14749,26870
2,139891,150942
//Storyboard Layer 0 (Background)
//Storyboard Layer 1 (Fail)
//Storyboard Layer 2 (Pass)
//Storyboard Layer 3 (Foreground)
Sprite,Foreground,Centre,"SB\Collab.png",320,240 M,0,19254,,341,369 F,0,19254,19683,0,1 S,0,19254,19683,0.63136,0.7644797 F,0,19683,27611,1 F,0,27611,27826,1,0.11936
Sprite,Foreground,Centre,"SB\4.png",320,240 M,0,611,826,320,240,81,394 F,0,611,826,0,1 S,0,611,826,0.4060799,0.5289598 S,0,826,,0.5289598 F,0,826,14540,1 S,0,826,56968,0.5289598 F,0,14540,14968,1,0.1091202 F,0,14968,57236,0.1091202,0 S,0,56968,57236,0.5289598,0.3241597 F,0,57236,57397,0,1 S,0,57236,57397,0.3241597,0.5289598 F,0,57397,69397,1 S,0,57397,84397,0.5289598 F,0,69397,71111,1,0 F,0,71111,84611,0 S,0,84397,84611,0.5289598,0.3139198 F,0,84611,84826,0,1 S,0,84611,84826,0.3139198,0.5289598 F,0,84826,98326,1 F,0,98326,98540,1,0.03744003 F,0,98540,125754,0.03744003,0.04256012 F,0,125754,125968,0.04256012,0 F,0,125968,187468,0 F,0,187468,187683,0,1 F,0,187683,214683,1 F,0,214683,215111,1,0
Sprite,Foreground,Centre,"SB\ZLOdeuka.png",320,240 M,0,397,,284,431 F,0,397,826,0,1 S,0,611,,0.66208 F,0,826,14540,1 F,0,14540,14968,1,0 F,0,14968,56968,0 F,0,56968,57397,0,1 F,0,57397,69397,1 F,0,69397,69826,1,0 F,0,69826,84611,0 F,0,84611,84826,0,1 F,0,84826,98326,1 F,0,98326,98540,1,0 F,0,98540,125754,0 F,0,125754,125968,0 F,0,125968,139468,0 F,0,139468,139683,0 F,0,139683,151585,0 F,0,151585,151692,0,1 F,0,151692,158326,1 F,0,158326,158540,1,0 F,0,158540,187468,0 F,0,187468,187683,0,1 F,0,187683,214683,1 F,0,214683,215111,1,0
Sprite,Foreground,Centre,"SB\5.png",320,240 M,0,27397,28254,314,244,93,386 F,0,27397,28254,0,1 S,0,27397,28254,0.31392,0.6006403 F,0,28254,53968,1 F,0,53968,54397,1,0 F,0,54397,70897,0 F,0,70897,71111,0,1 F,0,71111,83111,1 F,0,83111,83540,1,0 F,0,83540,125754,0 F,0,125754,125968,0,1 F,0,125968,139468,1 F,0,139468,139683,1,0 F,0,139683,158326,0 F,0,158326,158540,0,1 F,0,158540,184254,1 F,0,184254,185968,1 F,0,185968,186397,1,0
Sprite,Foreground,Centre,"SB\galvenize.png",320,240 M,0,27826,,271,427 S,0,27826,,0.6620798 F,0,27826,28254,0,1 F,0,28254,53968,1 F,0,53968,54397,1,0 F,0,54397,70897,0 F,0,70897,71111,0,1 F,0,71111,83111,1 F,0,83111,83540,1,0 F,0,83540,125754,0 F,0,125754,125968,0,1 F,0,125968,139254,1 F,0,139254,139683,1,0.02208006 F,0,139683,139692,0.02208006,0 F,0,139692,158326,0 F,0,158326,158540,0,1 F,0,158540,185968,1 F,0,185968,186397,1,0
Sprite,Foreground,Centre,"SB\ShaggoN.png",320,240 M,0,98326,,272,427 F,0,98326,98540,0,1 S,0,98326,98540,0.5084802,0.7747201 F,0,98540,125754,1 F,0,125754,125968,1,0
Sprite,Foreground,Centre,"SB\6.png",320,240 M,0,98326,98540,320,240,78,377 F,0,98326,98540,0,1 S,0,98326,98540,0.3651198,0.6518399 F,0,98540,125754,1 F,0,125754,125968,1,0
Sprite,Foreground,Centre,"SB\2x.png",320,240 F,0,170986,171094,1,0 S,0,170986,171415,1.78848,0.8668801 F,0,171094,171201,0,1 F,0,171201,171308,1,0 F,0,171308,171415,0,1 M,0,171361,172058,310,170,309,256 F,0,171415,172058,1 S,0,171415,172272,0.8668801,1.28672 F,0,172058,172272,1,0 R,0,172058,172272,0,-5.304319
//Storyboard Sound Samples
//Background Colour Transformations
3,100,163,162,255

[TimingPoints]
835,428.571428571429,4,2,1,50,1,0
8117,-200,4,2,1,50,0,0
8546,-100,4,2,1,50,0,0
11117,-100,4,1,1,50,0,0
12832,-100,4,2,1,0,0,0
14439,-100,4,2,1,0,0,0
14546,-100,4,2,1,50,0,1
14653,-100,4,2,1,50,0,0
30617,-200,4,2,1,50,0,0
31474,-100,4,2,1,50,0,0
40046,-200,4,2,1,50,0,0
41974,-100,4,2,2,50,0,0
46689,-200,4,2,2,50,0,0
48617,-100,4,2,2,50,0,0
49046,-100,4,2,2,50,0,0
53974,-100,4,2,2,0,0,1
54085,-100,4,2,2,0,0,0
54189,-100,4,2,2,0,0,0
55692,-100,4,2,2,0,0,0
55799,-100,4,2,2,50,0,0
59224,-200,4,2,2,50,0,0
59332,-200,4,2,2,50,0,0
59974,-100,4,2,2,49,0,0
67260,-200,4,2,2,50,0,0
69617,-100,4,2,2,50,0,0
71117,-100,4,2,2,70,0,1
73046,-100,4,2,2,70,0,1
74974,-100,4,2,2,70,0,1
76046,-100,4,2,2,70,0,1
83117,-100,4,2,2,70,0,1
84724,-100,4,2,2,70,0,0
84832,-100,4,2,2,70,0,1
85582,-100,4,2,1,70,0,1
85796,-100,4,2,2,70,0,1
86439,-100,4,2,1,70,0,1
86653,-100,4,2,2,70,0,1
87296,-100,4,2,1,70,0,1
87510,-100,4,2,2,70,0,1
89010,-100,4,2,1,70,0,1
89224,-100,4,2,2,70,0,1
89867,-100,4,2,1,70,0,1
90082,-100,4,2,2,70,0,1
90724,-100,4,2,1,70,0,1
90939,-100,4,2,2,70,0,1
92439,-100,4,2,1,70,0,1
92653,-100,4,2,2,70,0,1
94153,-100,4,2,1,70,0,1
94367,-100,4,2,2,70,0,1
95010,-100,4,2,1,70,0,1
95224,-100,4,2,2,70,0,1
95867,-100,4,2,1,70,0,1
96082,-100,4,2,2,70,0,1
96510,-100,4,2,1,70,0,1
96724,-100,4,2,2,70,0,1
96832,-100,4,2,2,70,0,0
98546,-100,4,2,2,70,0,1
98653,-100,4,2,2,70,0,0
98760,-100,4,2,1,70,0,0
125974,-200,4,2,2,50,0,0
128974,-200,4,2,2,30,0,0
129189,-200,4,2,2,50,0,0
129403,-100,4,2,2,50,0,0
139260,-200,4,2,2,50,0,0
139689,-100,4,2,1,50,0,0
151689,-100,4,2,2,10,0,0
152546,-100,4,2,2,20,0,0
153403,-100,4,2,2,30,0,0
154260,-100,4,2,2,40,0,0
155117,-100,4,2,2,50,0,0
158546,-100,4,2,2,70,0,1
159296,-100,4,2,1,70,0,1
159510,-100,4,2,2,70,0,1
162724,-100,4,2,1,70,0,1
162939,-100,4,2,2,70,0,1
164867,-100,4,2,1,70,0,1
165082,-100,4,2,2,70,0,1
166153,-100,4,2,1,70,0,1
166367,-100,4,2,2,70,0,1
170546,-100,4,2,2,30,0,1
170974,-100,4,2,2,50,0,1
171403,-50,4,2,2,70,0,1
172046,-100,4,2,2,70,0,1
172153,-100,4,2,2,70,0,0
172260,-100,4,2,2,70,0,1
172367,-100,4,2,2,70,0,0
173010,-100,4,2,1,70,0,0
173224,-100,4,2,2,70,0,0
175582,-100,4,2,1,70,0,0
175689,-100,4,2,1,70,0,0
175796,-100,4,2,2,70,0,0
177403,-100,4,2,2,70,0,0
179117,-100,4,2,2,70,0,0
179867,-100,4,2,1,70,0,0
180082,-100,4,2,2,70,0,0
180724,-100,4,2,1,70,0,0
180939,-100,4,2,2,70,0,0
181582,-100,4,2,1,70,0,0
181796,-100,4,2,2,70,0,0
182439,-100,4,2,1,70,0,0
182653,-100,4,2,2,70,0,0
183296,-100,4,2,1,70,0,0
183510,-100,4,2,2,70,0,0
184260,-200,4,2,2,70,0,0
187689,-100,4,2,1,70,0,1
199689,-100,4,2,2,70,0,1
201296,-100,4,2,2,70,0,0
201403,-100,4,2,1,70,0,1
201724,-100,4,2,2,70,0,1
201939,-100,4,2,1,70,0,1
202582,-200,4,2,2,70,0,1
202796,-200,4,2,1,70,0,1
203332,-100,4,2,1,70,0,1
203439,-100,4,2,2,70,0,1
203653,-100,4,2,1,70,0,1
204403,-100,4,2,2,70,0,1
204510,-100,4,2,1,70,0,1
205153,-100,4,2,2,70,0,1
205367,-100,4,2,1,70,0,1
205689,-200,4,2,1,70,0,1
206010,-200,4,2,2,70,0,1
206117,-100,4,2,2,70,0,1
206224,-100,4,2,1,70,0,1
206867,-100,4,2,2,70,0,1
207082,-100,4,2,1,70,0,1
207724,-100,4,2,2,70,0,1
207939,-100,4,2,1,70,0,1
208582,-100,4,2,2,70,0,1
208796,-100,4,2,1,70,0,1
209439,-100,4,2,2,70,0,1
209653,-100,4,2,1,70,0,1
210296,-100,4,2,2,70,0,1
210510,-100,4,2,1,70,0,1
211153,-100,4,2,2,70,0,1
211367,-100,4,2,1,70,0,1
212010,-100,4,2,2,70,0,1
212224,-100,4,2,1,70,0,1
212867,-100,4,2,2,70,0,1
213082,-100,4,2,1,70,0,1
214582,-100,4,2,1,70,0,0
214689,-100,4,2,1,70,0,1
214796,-100,4,2,1,70,0,0

[Colours]
Combo1 : 255,157,111
Combo2 : 136,196,255
Combo3 : 240,132,170
Combo4 : 170,131,252

[HitObjects]
104,192,834,1,4
408,192,1263,1,4
256,260,1692,5,0
196,192,1906,1,2
256,124,2120,1,8
316,192,2335,1,2
444,320,2763,6,0,B|412:288|364:280,1,90,2|8
256,192,3192,1,2
68,64,3406,2,0,B|100:96|148:104,1,90,0|2
236,92,3835,1,8
276,292,4049,1,8
236,92,4263,5,4
236,92,4692,1,4
256,272,5120,5,0
316,204,5335,1,2
256,136,5549,1,8
196,204,5763,1,2
24,256,6192,6,0,B|56:224|108:228,1,90,2|8
256,204,6620,1,2
488,152,7049,2,0,B|456:184|404:180,1,90,2|8
256,204,7477,1,8
256,64,7692,6,0,B|212:52|168:64,1,90,0|2
116,140,8120,2,0,B|68:152,2,45,8|2|0
208,140,8763,1,2
256,64,8977,1,8
348,68,9192,2,0,B|392:56|436:68,1,90,2|0
436,160,9620,6,0,B|380:152|356:192,2,90,2|8|2
476,240,10263,2,0,B|412:308,1,90,0|2
324,288,10692,5,8
188,96,10906,1,8
276,112,11120,5,0
236,272,11549,1,0
246,151,11977,1,0
266,232,12406,1,0
256,192,12834,12,4,14549
180,84,27620,5,8
256,232,27835,1,0
332,84,28049,1,8
72,156,28692,5,0
88,244,28906,1,0
256,152,29120,1,2
256,152,29335,1,0
440,156,29549,5,0
424,244,29763,1,0
256,152,29977,2,0,B|248:196|256:256,1,90,2|0
264,340,30406,1,0
344,296,30620,2,0,B|384:332|440:328,2,90
208,224,31692,6,0,B|192:176|212:128,1,90,2|0
304,160,32120,2,0,B|320:208|300:256,1,90,0|0
308,60,32549,1,2
392,112,32763,1,0
204,324,32977,1,0
120,272,33192,1,0
120,272,33406,1,2
380,192,33620,6,0,B|324:208|288:196,1,90
132,192,34049,2,0,B|188:208|224:196,1,90,0|2
256,352,34477,2,0,B|248:292|260:256,1,90
258,262,34906,1,0
376,108,35549,6,0,B|424:100|460:68,1,90,0|0
392,192,35977,2,0,B|448:196|488:180,1,90,2|0
376,276,36406,2,0,B|424:284|460:316,1,90,0|0
296,196,36835,2,0,B|200:168|200:220|104:188,1,180,2|0
120,192,37477,1,0
256,80,37906,1,0
396,188,38335,1,0
396,188,38549,6,0,B|372:260|416:312,1,90,2|0
256,332,38977,1,2
256,240,39192,1,0
116,196,39406,2,0,B|140:124|96:72,1,90,2|0
256,104,39835,1,0
396,188,40049,6,0,B|372:260|416:312,1,90
308,260,40906,2,0,B|328:204|316:156,1,90
300,132,41549,1,0
268,100,41763,1,0
228,88,41977,6,0,B|180:92|152:140,1,90,2|0
236,176,42406,1,10
236,176,42620,1,8
408,196,42835,6,0,B|412:248|376:280,1,90,2|0
320,212,43263,1,10
320,212,43477,1,8
256,276,43692,6,0,B|260:328|284:364,1,90,2|0
200,208,44120,2,0,B|184:152|144:120,1,90,2|8
176,280,44549,2,0,B|128:312|108:360,1,90,2|8
280,200,44977,1,2
280,200,45192,1,8
280,200,45299,1,8
280,200,45406,6,0,B|324:160|372:156,1,90,4|0
420,92,45834,2,0,B|452:148|432:220,1,90,2|0
384,248,46263,1,2
460,296,46477,1,0
292,248,46692,1,2
312,324,46906,6,0,B|360:312|356:360|416:344,2,90
268,324,47977,1,0
224,336,48192,1,0
184,316,48406,1,0
140,312,48620,1,0
100,292,48834,6,0,B|80:240|96:196,1,90,2|0
184,212,49263,2,0,B|196:168|176:124,1,90,10|8
412,292,49692,6,0,B|432:240|416:196,1,90,2|0
328,212,50120,2,8,B|316:168|336:124,1,90,10|8
256,336,50549,6,0,B|292:240|224:240|256:148,1,180,2|0
168,108,51192,2,0,B|256:60|364:116,1,180,2|0
400,176,51834,1,0
368,260,52049,1,0
308,328,52263,6,0,B|256:340|192:324,1,90,2|0
204,56,52692,2,0,B|256:44|320:60,1,90,2|0
128,196,53120,1,2
384,196,53334,1,0
256,180,53549,1,2
256,180,53763,1,8
256,192,53977,12,0,55692
212,284,57406,5,8
300,100,57620,1,2
161,229,57834,1,8
350,154,58049,1,2
159,159,58263,1,8
352,224,58477,1,2
352,224,58692,1,8
256,192,58906,5,2
256,192,59013,1,0
256,192,59120,1,4
256,284,59334,2,8,B|256:328,2,45
256,100,59977,2,0,B|256:56,2,45,0|2|0
240,108,60299,1,8
224,116,60406,1,8
212,128,60513,1,8
200,140,60620,1,8
192,156,60727,1,8
184,172,60834,5,4
96,192,61049,1,2
112,280,61263,1,0
328,172,61477,1,2
416,192,61692,1,8
400,280,61906,1,2
256,312,62120,1,0
256,220,62334,1,2
256,132,62549,5,8
256,132,62763,1,2
172,104,62977,2,0,B|128:84|80:92,1,90,0|2
340,104,63406,2,0,B|384:84|432:92,1,90,8|2
256,132,63834,1,0
256,44,64049,1,2
256,44,64263,5,4
172,72,64477,2,8,B|132:52,2,45
156,160,64906,1,2
160,176,65013,1,0
164,192,65120,1,0
168,208,65227,1,0
172,224,65334,1,8
176,240,65442,1,8
180,256,65549,1,8
180,256,65763,1,8
256,340,65977,5,4
340,312,66192,2,8,B|384:328,2,45
356,224,66620,1,2
360,208,66727,1,0
364,192,66834,1,0
368,176,66942,1,8
372,160,67049,1,8
376,144,67156,1,8
380,128,67263,6,0,B|376:76|324:68,2,90,8|4|8
132,256,68549,2,8,B|136:308|188:316,2,90,8|0|8
196,192,69620,5,8
256,72,69834,1,8
157,118,70049,1,8
288,144,70263,1,4
288,144,70692,1,4
104,60,71120,6,0,B|148:72|184:104,1,90,4|2
408,60,71549,2,0,B|364:72|328:104,1,90,8|0
256,156,71977,1,2
392,208,72192,5,2
256,28,72406,1,10
120,208,72620,1,2
256,356,72834,1,0
448,272,73049,6,0,B|492:312,2,45,2|0|8
448,96,73477,2,0,B|492:56,2,45,0|8|8
356,196,73906,1,8
256,284,74120,1,8
228,152,74334,1,8
408,368,74549,6,0,B|352:332|340:276,1,90,4|2
104,16,74977,2,0,B|160:52|172:108,1,90,8|0
200,248,75406,1,2
316,120,75620,1,2
164,80,75834,1,10
349,302,76049,1,0
444,56,76477,5,0
380,76,76692,1,8
428,124,76906,1,2
68,328,77334,5,2
192,276,77549,1,8
84,192,77763,1,2
208,32,77977,5,4
228,120,78192,1,2
316,144,78406,1,8
304,352,78620,5,0
284,264,78834,1,0
196,240,79049,1,2
316,144,79263,5,8
196,240,79477,2,0,B|120:216|104:164,1,90
316,144,79906,2,2,B|392:168|408:220,1,90,2|8
416,276,80334,1,0
344,328,80549,2,2,B|272:316|232:344,1,90
256,244,80977,2,0,B|208:236|160:256,1,90,8|2
100,192,81406,5,2
256,104,81834,1,2
412,192,82263,2,0,B|368:176|368:216|320:192,1,90
100,192,82692,2,0,B|144:176|144:216|192:192,1,90
256,192,83120,12,4,84834
256,192,85263,5,4
112,300,85692,6,0,B|144:316|200:312,1,90,8|2
400,300,86120,2,0,B|368:316|312:312,1,90,8|2
336,224,86549,5,8
176,224,86763,1,2
256,184,86977,1,8
216,104,87192,2,0,B|176:80|132:72,1,90,2|8
296,104,87620,2,0,B|336:80|380:72,2,90,2|8|2
128,192,88263,5,4
200,248,88477,1,2
384,192,88692,1,4
312,248,88906,1,2
256,316,89120,5,8
172,344,89334,1,2
92,300,89549,1,8
92,212,89763,2,0,B|72:168|76:124,1,90,2|8
256,68,90192,5,2
340,40,90406,1,8
420,84,90620,1,2
420,172,90834,2,0,B|440:216|436:260,3,90,8|2|8|10
320,316,91692,5,4
192,68,92120,1,4
140,240,92549,6,0,B|100:256,2,45,8|0|2
228,264,92977,1,8
304,216,93192,2,2,B|392:200|484:216,1,180
304,216,93834,1,8
208,168,94049,1,2
208,168,94263,2,0,B|120:184|28:168,1,180,8|8
72,88,94906,1,2
160,96,95120,6,0,B|244:60,1,90,8|2
352,288,95549,2,0,B|268:324,1,90,8|2
250,124,95977,6,0,B|332:160,1,90,8|2
261,259,96406,2,0,B|180:224,1,90,8|10
256,192,96834,12,4,98549
400,72,98977,6,0,B|464:136,1,90,8|0
112,72,99406,2,0,B|48:136,1,90,2|0
400,176,99834,2,0,B|464:240,1,90,8|0
112,176,100263,2,0,B|48:240,2,90,2|0|8
336,32,100906,1,0
176,112,101120,1,2
336,192,101334,1,0
176,272,101549,1,8
336,360,101763,1,0
176,272,101977,6,0,B|143:304|96:312,2,90,2|0|8
336,272,102620,2,0,B|369:304|416:312,1,90,0|2
415,183,103049,2,0,B|334:108|256:184,1,180
96,184,103692,1,2
96,344,103906,1,0
256,344,104120,1,8
256,184,104334,1,0
271,168,104442,1,0
286,152,104549,1,2
301,136,104656,1,0
316,120,104763,1,8
331,104,104870,1,0
346,88,104977,1,8
362,71,105084,1,0
377,55,105192,1,0
399,55,105299,1,0
421,55,105406,6,0,B|419:104|448:144,3,90,6|0|8|0
421,329,106263,2,0,B|419:280|448:240,2,90,2|0|8
392,192,106906,1,0
369,192,107013,1,0
346,192,107120,1,2
323,192,107227,1,0
300,192,107334,1,0
277,192,107442,1,0
254,192,107549,1,8
231,192,107656,1,0
208,192,107763,1,0
185,192,107870,1,0
162,192,107977,2,0,B|95:168|96:80|160:56,1,180,2|8
312,264,108834,6,0,B|351:286|376:328,1,90,2|0
200,264,109263,2,0,B|161:286|136:328,1,90,8|0
344,192,109692,2,0,B|385:209|414:248,1,90,2|0
168,192,110120,2,0,B|126:209|97:248,1,90,8|0
456,192,110549,5,10
56,192,110763,1,8
400,56,110977,1,8
112,56,111192,1,8
256,24,111406,5,4
256,360,111834,1,4
384,88,112263,6,0,B|339:104|304:144,1,90,6|0
128,296,112692,2,0,B|173:280|208:240,1,90,8|0
200,64,113120,1,2
40,64,113334,1,0
120,200,113549,1,8
280,192,113763,2,0,B|328:96|368:288|416:192,1,180
416,360,114406,1,8
280,280,114620,1,0
120,272,114834,2,0,B|32:272,2,90,2|0|8
256,184,115477,1,0
128,88,115692,6,0,B|80:64|80:64|99:135|32:168,1,180,2|8
256,184,116334,1,0
384,88,116549,2,0,B|432:64|432:64|413:135|480:168,1,180,2|8
256,184,117192,1,0
176,320,117406,1,2
336,320,117620,1,0
256,184,117834,1,8
256,170,117942,1,0
256,156,118049,1,0
256,142,118156,1,0
256,128,118263,1,2
256,114,118370,1,0
256,100,118477,1,8
256,86,118584,1,0
256,72,118692,1,8
417,72,118906,1,0
480,224,119120,6,0,B|480:288,2,60,2|0|0
424,160,119549,2,0,B|424:96,2,60,8|0|0
368,224,119977,2,0,B|368:288,2,60,2|0|0
312,160,120406,2,0,B|312:96,2,60,8|0|0
256,224,120834,2,0,B|256:288,2,60,2|0|0
200,160,121263,2,0,B|200:96,2,60,8|0|0
144,224,121692,2,0,B|144:288|144:288|211:296|211:367,1,180,2|8
16,160,122549,6,0,B|16:96,2,60,2|0|0
72,224,122977,2,0,B|72:288,2,60,8|0|0
128,160,123406,2,0,B|128:96,2,60,2|0|0
184,224,123834,2,0,B|184:288,2,60,8|0|0
256,192,124263,12,2,125549
256,80,125977,5,8
256,80,126192,1,8
256,312,126406,5,0
256,268,126620,2,0,B|248:240|272:240|256:164,1,90,0|8
258,179,127156,1,2
258,179,127263,1,8
260,180,127477,1,0
96,44,127692,5,8
96,44,127906,1,8
372,120,128120,1,0
372,120,128334,2,0,B|364:164|324:156|320:200,1,90,0|0
316,212,128870,1,0
308,232,128977,1,0
292,248,129084,1,8
272,260,129192,1,8
252,264,129299,1,8
228,264,129406,5,8
84,156,129620,1,0
256,92,129834,1,0
428,156,130049,1,0
456,240,130263,1,8
456,240,130370,1,8
456,240,130477,1,0
400,312,130692,1,8
360,332,130799,1,8
316,328,130906,1,0
276,304,131013,1,0
256,264,131120,6,8,B|248:192|264:156,1,90
240,132,131442,1,8
212,100,131549,2,2,B|152:80|104:108,1,90
0,188,131977,1,0
124,252,132192,1,8
124,252,132299,1,8
124,252,132406,2,2,B|176:236|220:240,1,90
256,236,132727,1,8
296,256,132834,5,8
364,372,133049,1,2
460,276,133263,1,2
356,192,133477,2,0,B|364:140|412:112,1,90
324,72,133906,1,8
292,48,134013,1,8
260,28,134120,1,8
184,140,134334,1,0
256,256,134549,5,8
256,256,134763,1,8
160,208,134977,1,0
352,208,135192,1,8
380,236,135299,1,8
412,264,135406,1,8
256,256,135620,5,8
256,300,135727,1,8
256,344,135834,1,8
160,208,136049,1,8
132,236,136156,1,8
100,264,136263,5,4
256,216,136692,1,2
412,264,137120,1,2
256,296,137549,1,2
256,296,137977,5,2
256,204,138192,1,8
100,60,138406,1,2
152,120,138620,1,8
412,60,138834,1,2
360,120,139049,1,8
256,44,139263,2,0,B|248:88|272:88|256:144,1,90
256,175,151692,5,8
205,118,151906,1,0
132,108,152120,1,8
135,185,152335,1,0
256,210,152549,5,8
311,273,152763,1,0
393,284,152977,1,8
389,199,153192,1,0
233,192,153406,5,8
158,258,153620,1,0
145,356,153835,1,8
247,351,154049,1,0
280,192,154263,5,8
365,117,154477,1,0
380,7,154692,1,8
265,12,154906,1,0
248,100,155120,5,8
232,104,155227,1,0
216,112,155335,1,2
200,120,155442,1,0
184,128,155549,1,0
168,136,155656,1,0
152,144,155763,1,2
136,152,155870,1,0
120,160,155977,1,8
112,176,156085,1,0
104,192,156192,1,2
96,208,156299,1,0
88,224,156406,1,8
80,240,156513,1,0
76,256,156620,1,2
68,272,156727,1,0
64,288,156835,5,4
256,88,157049,1,2
448,288,157263,1,4
256,88,157477,1,2
64,288,157692,5,4
448,288,158120,1,4
88,72,158549,6,0,B|136:92|184:88,1,90,0|0
428,192,158977,2,0,B|380:212|332:208,1,90,8|0
88,312,159406,5,0
188,272,159620,1,0
288,316,159835,1,8
392,288,160049,2,0,B|324:232|316:200,1,90
356,56,160477,5,0
284,136,160692,1,8
240,36,160906,1,0
368,204,161120,1,0
284,136,161335,1,0
228,228,161549,1,8
312,300,161763,1,0
123,333,161977,6,0,B|152:324|212:340,1,90
388,333,162406,2,0,B|360:324|300:340,1,90,8|0
256,280,162835,5,0
100,192,163049,1,0
256,104,163263,1,8
412,192,163477,1,0
256,192,163692,5,0
308,120,163906,2,8,B|332:72|380:52,1,90,0|8
204,264,164335,2,0,B|180:312|132:332,1,90
156,96,164763,5,4
256,192,164977,1,8
356,288,165192,1,4
412,220,165406,5,0
456,120,165620,1,2
368,56,165835,1,8
328,156,166049,1,0
256,76,166263,1,0
184,156,166477,1,2
144,56,166692,1,8
56,120,166906,2,0,B|56:216|160:272,1,180,0|2
256,280,167549,5,8
256,172,167763,1,0
408,200,167977,2,0,B|428:240|456:252,2,45,0|0|2
104,200,168406,2,0,B|84:240|56:252,2,45,8|0|0
216,48,168835,5,0
336,120,169049,1,2
212,188,169263,1,8
296,224,169477,5,0
208,280,169692,1,0
300,328,169906,1,2
352,276,170120,5,8
404,224,170335,1,0
452,280,170549,5,8
432,100,170763,1,8
256,60,170977,1,8
80,100,171192,1,8
160,184,171406,6,2,B|352:184,1,180,0|2
340,260,171835,2,0,B|152:260,1,180,0|2
160,260,172156,1,0
160,260,172263,6,0,B|96:252|72:216,1,90,0|2
44,152,172692,2,0,B|72:112|60:56,1,90,8|2
136,96,173120,2,0,B|148:140|188:168,1,90,0|2
212,56,173549,2,0,B|260:36|300:60,1,90,8|2
316,148,173977,1,0
344,236,174192,6,0,B|364:288|416:300,1,90,2|8
256,324,174620,1,2
256,324,174835,1,0
168,148,175049,6,0,B|148:96|96:84,1,90,2|8
256,60,175477,1,2
168,217,175692,6,0,B|200:236|256:232,1,90,0|2
343,154,176120,2,0,B|312:136|256:140,1,90,8|2
97,270,176549,6,0,B|141:254|169:218,1,90,0|2
414,101,176977,2,0,B|371:118|343:154,1,90,8|2
280,324,177406,5,0
325,246,177620,1,2
411,272,177835,1,8
196,280,178049,5,2
280,324,178263,1,0
228,188,178477,5,2
196,280,178692,1,8
108,256,178906,1,10
108,256,179013,1,8
108,256,179120,6,0,B|72:220|72:160,1,90,4|2
108,92,179549,2,0,B|164:116|216:96,1,90,8|2
272,52,179977,1,0
344,168,180192,1,2
428,64,180406,1,8
464,192,180620,6,0,B|464:252|432:280,1,90,2|0
348,272,181049,1,2
260,252,181263,1,8
192,312,181477,1,2
104,300,181692,1,0
72,80,181906,5,2
148,128,182120,1,8
236,112,182335,1,2
300,52,182549,2,0,B|344:48|392:64,1,90,0|2
444,192,182977,2,0,B|348:192,1,90,8|2
388,321,183406,2,0,B|344:336|300:332,1,90,0|0
256,192,183835,1,8
256,192,184049,1,8
256,192,184156,1,8
256,192,184263,6,0,B|220:128|140:140,1,135
256,192,185120,2,0,B|292:256|372:244,1,135
256,192,185977,12,4,187692
92,192,188120,5,4
256,116,188549,1,8
336,76,188763,1,2
380,152,188977,1,8
380,244,189192,6,0,B|372:292|404:328,1,90,8|0
256,268,189620,2,0,B|256:356,1,90,2|0
132,244,190049,2,0,B|140:292|108:328,1,90,2|0
256,268,190477,2,0,B|256:320,2,45,2|0|10
256,176,190906,1,10
92,192,191120,5,4
419,192,191549,1,4
288,72,191977,1,8
200,56,192192,1,2
180,144,192406,1,8
256,196,192620,6,0,B|256:288,1,90,8|0
340,320,193049,2,0,B|356:280|408:264,1,90,2|0
172,320,193477,2,0,B|156:280|104:264,1,90,2|0
256,196,193906,1,2
256,196,194013,1,0
256,196,194120,1,10
256,196,194335,1,10
256,72,194549,5,4
256,312,194977,1,4
120,192,195406,1,8
60,124,195620,1,2
128,68,195835,1,8
216,68,196049,6,0,B|296:108,1,90,8|0
260,192,196477,2,0,B|304:176|308:208|348:192,1,90,2|0
216,316,196906,2,0,B|296:276,1,90,2|0
260,192,197335,1,2
260,192,197442,1,0
260,192,197549,1,10
260,192,197763,1,10
336,240,197977,5,4
336,240,198835,5,4
256,192,199692,12,4,201406
256,192,201835,5,8
196,124,202049,1,2
108,124,202263,1,8
108,212,202477,1,2
84,300,202692,2,0,B|52:332,2,45,8|2|8
176,304,203335,5,2
256,260,203549,1,8
256,260,203656,1,0
256,260,203763,1,2
336,80,203977,1,8
256,124,204192,1,2
256,124,204299,1,0
256,124,204406,1,8
256,124,204620,1,2
312,192,204835,5,4
396,156,205049,1,2
468,212,205263,1,8
468,300,205477,1,2
392,348,205692,2,0,B|352:368,2,45,8|2|8
336,276,206335,5,2
252,244,206549,1,8
252,244,206656,1,0
252,244,206763,1,2
176,108,206977,1,8
260,140,207192,1,2
260,140,207299,1,0
260,140,207406,1,8
252,244,207620,1,2
260,140,207835,1,8
252,244,208049,1,2
260,140,208263,5,4
332,84,208477,1,2
408,132,208692,2,0,B|440:100|440:48,1,90,8|2
260,140,209120,1,8
184,84,209335,1,2
108,132,209549,2,0,B|76:100|76:48,1,90,8|2
16,120,209977,5,8
52,204,210192,1,2
132,244,210406,1,8
380,244,210620,1,2
460,204,210835,1,8
496,120,211049,1,2
256,192,211263,1,8
256,192,211370,1,0
256,192,211477,1,2
184,248,211692,6,0,B|152:332,2,90,4|2|8
256,192,212335,1,2
324,252,212549,2,0,B|356:336,2,90,8|2|8
256,192,213192,12,4,214692
