osu file format v9

[General]
AudioFilename: Melancholic.mp3
AudioLeadIn: 2000
PreviewTime: 71043
Countdown: 0
SampleSet: Soft
StackLeniency: 0.7
Mode: 0
LetterboxInBreaks: 1

[Editor]
DistanceSpacing: 0.24
BeatDivisor: 4
GridSize: 8

[Metadata]
Title:Melancholic
Artist:Tianshi
Creator:NatsumeRin
Version:eveless
Source:Junky
Tags:Kagamine Rin vocaloid vocaloid2 eveless Colin Hou Disoy SamiPale

[Difficulty]
HPDrainRate:6
CircleSize:4
OverallDifficulty:6
ApproachRate:8
SliderMultiplier:1.5
SliderTickRate:1

[Events]
//Background and Video events
0,0,"BG.jpg"
//Break Periods
2,14779,26900
2,112493,125257
//Storyboard Layer 0 (Background)
//Storyboard Layer 1 (Fail)
//Storyboard Layer 2 (Pass)
//Storyboard Layer 3 (Foreground)
//Storyboard Sound Samples
//Background Colour Transformations
3,100,163,162,255

[TimingPoints]
865,428.571428571429,4,2,1,50,1,0
1722,-200,4,2,1,49,0,0
11150,-100,4,1,1,40,0,0
12864,-100,4,1,2,50,0,0
28293,-100,4,2,1,39,0,0
30007,-200,4,2,1,50,0,0
42007,-100,4,1,1,40,0,0
42222,-100,4,2,1,45,0,0
42436,-100,4,1,1,40,0,0
42650,-100,4,2,1,45,0,0
42865,-100,4,1,1,40,0,0
43079,-100,4,2,1,45,0,0
43293,-100,4,1,1,40,0,0
43507,-100,4,2,1,45,0,0
43722,-100,4,1,1,40,0,0
43936,-100,4,2,1,45,0,0
44150,-100,4,1,1,40,0,0
44365,-100,4,2,1,45,0,0
44579,-100,4,1,1,40,0,0
44793,-100,4,2,1,45,0,0
45007,-100,4,1,1,40,0,0
45222,-100,4,2,1,45,0,0
45436,-100,4,1,1,40,0,0
45650,-100,4,2,1,45,0,0
45865,-100,4,1,1,40,0,0
46079,-100,4,2,1,45,0,0
46293,-100,4,1,1,40,0,0
46507,-100,4,2,1,45,0,0
46722,-100,4,1,1,40,0,0
46936,-100,4,2,1,45,0,0
47150,-100,4,1,1,40,0,0
47365,-100,4,2,1,45,0,0
47579,-100,4,1,1,40,0,0
47793,-100,4,2,1,45,0,0
47900,-100,4,2,2,50,0,0
48222,-100,4,2,1,45,0,0
48436,-100,4,1,1,40,0,0
48650,-100,4,2,1,45,0,0
48865,-100,4,1,1,40,0,0
49079,-100,4,2,1,45,0,0
49293,-100,4,1,1,40,0,0
49507,-100,4,2,1,45,0,0
49722,-100,4,1,1,40,0,0
49936,-100,4,2,1,45,0,0
50150,-100,4,1,1,40,0,0
50365,-100,4,2,1,45,0,0
50579,-100,4,1,1,40,0,0
50793,-100,4,2,1,45,0,0
51007,-100,4,1,1,40,0,0
51222,-100,4,2,1,45,0,0
51436,-100,4,1,1,40,0,0
51650,-100,4,2,1,45,0,0
51865,-100,4,1,1,40,0,0
52079,-100,4,2,1,45,0,0
52293,-100,4,1,1,55,0,0
52507,-100,4,2,1,55,0,0
52722,-100,4,1,1,55,0,0
52936,-100,4,2,1,55,0,0
53150,-100,4,1,1,55,0,0
53365,-100,4,2,1,55,0,0
53579,-100,4,1,1,55,0,0
54007,-100,4,1,2,55,0,0
54222,-100,4,2,1,60,0,0
54436,-100,4,1,1,60,0,0
54543,-100,4,2,1,60,0,0
54865,-100,4,1,1,60,0,0
55079,-100,4,2,1,60,0,0
55293,-100,4,1,2,60,0,0
55400,-100,4,2,1,60,0,0
55722,-100,4,1,2,60,0,0
55829,-100,4,2,1,60,0,0
56150,-100,4,1,1,60,0,0
56365,-100,4,2,1,60,0,0
56579,-100,4,1,1,60,0,0
56686,-100,4,2,1,60,0,0
56793,-100,4,2,2,60,0,0
60865,-100,4,2,2,45,0,0
63222,-100,4,1,2,40,0,0
64293,-100,4,2,2,60,0,0
67722,-100,4,1,2,50,0,0
67936,-100,4,2,2,50,0,0
68150,-100,4,1,2,50,0,0
68365,-100,4,2,2,50,0,0
68579,-100,4,1,2,50,0,0
68793,-100,4,2,2,50,0,0
69007,-100,4,1,2,50,0,0
69222,-100,4,2,2,50,0,0
69436,-100,4,1,2,60,0,0
70293,-100,4,1,2,50,0,0
71150,-100,4,2,2,80,0,1
83150,-100,4,2,2,60,0,1
84865,-100,4,2,2,70,0,1
98579,-100,4,2,2,70,0,0
138007,-100,4,2,2,70,0,0
139722,-200,4,2,2,40,0,0
147007,-200,4,2,2,0,0,0
147222,-200,4,2,2,40,0,0
150115,-200,4,2,2,0,0,0
151079,-100,4,1,1,40,0,0
156865,-100,4,1,1,60,0,0
158579,-100,4,2,2,60,0,1
172293,-100,4,2,2,74,0,1
187722,-100,4,2,2,85,0,1
214722,-100,4,2,2,70,0,0

[Colours]
Combo1 : 0,227,114
Combo2 : 255,128,128
Combo3 : 222,222,62
Combo4 : 26,140,255

[HitObjects]
240,224,864,1,2
240,224,1293,1,2
320,192,1722,2,0,B|336:176|336:152,1,37.5,0|2
157,245,2150,2,0,B|157:263|173:279,1,37.5,8|2
304,336,2793,5,2
368,288,3007,1,8
448,288,3222,1,2
208,48,3650,5,10
144,96,3865,1,8
64,96,4079,1,0
144,96,4293,6,0,B|128:136|168:168,1,75,2|2
368,288,5150,2,0,B|384:264|368:240,1,37.5,0|0
160,304,5579,2,0,B|184:320|208:304,1,37.5,8|8
256,224,6222,5,2
176,208,6436,1,8
104,168,6650,1,2
256,160,7079,5,2
336,176,7293,1,8
408,216,7507,1,8
336,176,7722,6,0,B|360:144,2,37.5,0|2|8
408,216,8364,2,0,B|400:256,1,37.5,0|2
256,160,8793,2,0,B|248:120,1,37.5,8|8
286,259,9222,1,2
286,259,9650,6,0,B|240:272|208:264,1,75,0|2
211,264,10186,1,0
211,264,10293,1,0
144,224,10507,1,8
56,160,10722,2,0,B|72:160|104:176,1,37.5,0|8
144,224,11150,5,0
286,259,11364,1,8
400,208,11579,5,8
258,173,11793,1,0
186,77,12007,5,8
328,112,12222,1,0
448,56,12436,5,8
306,21,12650,1,8
226,206,12864,6,0,B|211:212|212:207|185:185|178:154|199:104|222:121|242:74|289:119|319:91|352:150|318:217|279:204,1,300,0|0
256,312,14150,5,0
256,316,14257,1,0
256,320,14364,1,0
256,324,14472,1,0
256,328,14579,1,4
184,104,27650,5,0
256,152,27865,1,0
328,104,28079,1,0
256,152,28293,6,0,B|232:224|288:256|256:304,2,150,4|0|4
328,104,29365,1,0
176,152,29579,1,2
328,200,29793,1,2
328,104,30007,6,0,B|368:80,1,37.5,0|2
328,200,30436,2,0,B|376:224,1,37.5,2|0
256,152,30865,1,2
176,152,31079,1,2
256,152,31293,1,0
176,152,31507,1,2
400,152,31722,6,0,B|448:152,1,37.5,0|2
472,240,32150,2,0,B|424:240,1,37.5,2|0
368,328,32579,2,0,B|456:328,1,75,2|2
368,328,33222,1,2
288,328,33436,6,0,B|240:304,1,37.5,0|2
288,240,33865,2,0,B|248:208,2,37.5,2|0|2
304,120,34507,2,0,B|328:168,1,37.5,0|2
392,96,34936,1,2
392,96,35150,6,0,B|432:112|440:168,2,75,0|2|0
352,168,36222,1,2
288,224,36436,2,0,B|296:264,1,37.5,0|2
208,256,36865,6,0,B|200:336,1,75,0|2
208,256,37507,1,2
216,176,37722,2,0,B|168:184,1,37.5,0|2
208,96,38150,2,0,B|160:104,1,37.5,2|0
208,96,38579,6,0,B|288:80,2,75,0|2|0
256,168,39650,2,0,B|304:160,1,37.5,2|0
288,248,40079,2,0,B|328:240,2,37.5,0|2|0
256,328,40722,5,2
256,168,40936,2,0,B|216:152,2,37.5,2|0|0
288,248,41579,1,2
288,248,41793,1,0
328,112,42007,6,0,B|360:128|408:112,1,75,4|2
288,248,42436,2,0,B|256:232|208:248,1,75,0|2
248,72,42865,6,0,B|267:101|317:112,1,75,0|2
363,294,43294,2,0,B|343:264|293:254,1,75,0|2
448,272,43722,5,0
408,192,43936,1,2
336,138,44150,2,0,B|288:130|256:162,1,75,2|0
409,192,44579,5,2
457,119,44793,1,0
448,32,45007,2,0,B|408:24|360:64,1,75,2|2
253,92,45436,5,0
296,24,45650,1,2
253,92,45865,2,0,B|216:128|168:120,1,75,0|2
296,160,46293,5,0
253,92,46507,1,2
296,160,46722,2,0,B|333:196|381:188,1,75,0|2
253,228,47150,5,0
295,158,47364,1,2
253,228,47579,2,0,B|216:264|168:256,1,75,0|2
178,254,47900,1,8
171,249,48007,1,2
168,241,48115,1,8
168,232,48222,2,0,B|136:192|88:192,1,75,0|2
32,136,48650,6,0,B|8:128|0:112,2,37.5,0|0|0
104,88,49079,1,2
192,112,49293,2,0,B|224:88|264:96,1,75,2|0
192,112,49722,1,2
248,176,49936,2,0,B|296:184|304:232,1,75,2|0
248,176,50365,1,2
222,255,50579,6,0,B|190:303|153:302,1,75,0|2
249,177,51007,2,0,B|281:129|318:130,2,75,0|2|0
161,195,51650,1,2
161,195,51865,1,0
308,241,52079,1,2
432,304,52293,6,0,B|416:216,1,75,0|2
432,304,52722,2,0,B|344:336,1,75,0|2
512,352,53150,1,0
512,352,53472,1,2
512,352,53579,1,0
496,264,53793,1,2
424,208,54007,5,4
424,208,54222,1,0
336,176,54436,2,0,B|344:136,2,37.5
248,208,54865,1,0
248,208,55079,1,0
192,288,55293,2,0,B|208:328,2,37.5,0|0|0
96,264,55722,6,0,B|48:272,4,37.5
152,192,56365,1,0
248,208,56579,2,0,B|288:160,2,37.5,0|0|8
368,192,57007,1,8
437,119,57222,1,8
368,48,57436,6,0,B|288:48,1,75,0|2
104,112,57865,2,0,B|184:112,1,75,0|2
296,48,58507,1,8
256,192,58722,1,8
368,292,58936,1,0
368,292,59150,6,0,B|447:292,1,75,0|2
246,323,59579,2,0,B|158:323,1,75,0|2
96,264,60007,1,0
120,168,60222,1,8
120,168,60329,1,8
120,168,60436,1,8
120,168,60543,1,8
120,168,60650,1,8
120,168,60757,1,8
120,168,60865,6,0,B|120:120|96:96,1,75,4|2
208,200,61293,2,0,B|224:152|208:120,1,75,8|2
256,272,61722,2,0,B|304:240|304:192,1,75,8|10
248,368,62150,2,0,B|296:368|320:336,1,75,8|2
224,344,62579,5,4
136,352,62793,1,2
48,336,63007,2,0,B|32:288|40:248,1,75,0|8
38,251,63329,1,8
45,242,63436,1,8
56,240,63543,1,8
66,245,63650,1,8
76,251,63757,1,8
85,254,63865,2,0,B|128:272|170:233,1,75,8|8
165,237,64186,1,8
176,232,64293,6,0,B|200:200|256:208,2,75,0|10|8
248,304,64936,1,10
416,272,65150,2,0,B|328:248,1,75,0|8
343,252,65472,1,8
343,252,65579,1,4
424,176,65793,1,2
352,80,66007,6,0,B|312:80|272:48,2,75,4|10|0
208,120,66650,1,10
96,136,66865,1,0
96,136,66972,1,0
96,136,67079,1,8
96,136,67186,1,8
96,136,67293,1,8
96,136,67400,1,8
96,136,67507,1,8
96,136,67615,1,8
96,136,67722,6,0,B|64:192|80:224,1,75
152,344,68150,2,0,B|184:288|168:256,1,75,0|0
272,200,68579,2,0,B|288:240|352:248,1,75
340,247,68900,1,0
352,248,69007,1,0
448,208,69222,1,0
448,208,69329,1,0
448,208,69436,6,0,B|448:128,1,75
256,48,69865,2,0,B|256:152,1,75
104,192,70293,6,0,B|40:192,2,37.5
256,320,70722,2,0,B|304:320,2,37.5
80,344,71150,5,4
80,344,71579,1,8
256,320,72007,2,0,B|272:240,1,75,0|2
464,192,72436,2,0,B|400:248,1,75,8|2
407,241,72757,1,0
407,241,72865,1,0
328,136,73079,6,0,B|256:80,1,75,2|8
224,168,73507,2,0,B|128:144,1,75,8|2
160,248,73936,2,0,B|72:272,1,75,0|8
160,248,74365,1,2
320,296,74579,5,2
320,296,75007,1,8
408,280,75222,1,2
480,336,75436,2,0,B|480:280|520:256,1,75,0|8
277,187,75865,2,0,B|333:187|357:235,1,75,8|2
343,215,76186,1,0
343,215,76293,1,0
232,312,76507,5,2
320,296,76722,1,8
408,280,76936,1,2
408,280,77043,1,0
408,280,77150,1,0
408,280,77257,1,2
408,280,77365,5,2
320,296,77579,1,8
232,312,77793,1,8
88,240,78007,6,0,B|168:280,1,75,4|2
160,184,78436,2,0,B|240:224,1,75,8|0
232,128,78865,2,0,B|312:168,1,75,0|8
299,161,79186,1,0
299,161,79293,1,8
308,72,79507,1,2
467,348,79936,6,0,B|450:296|490:264,1,75,0|10
408,232,80365,1,8
264,256,80579,2,0,B|284:215|344:224,1,75,2|0
334,319,81007,1,8
239,341,81222,1,2
200,200,81436,6,0,B|160:224|172:268,1,75,0|2
264,256,81865,1,8
334,319,82079,1,2
144,344,82293,6,0,B|96:328|89:280,1,75,0|2
239,341,82722,1,8
334,318,82936,1,0
424,288,83150,6,0,B|464:288,4,37.5,0|8|8|8|8
304,192,83793,2,0,B|256:192,2,37.5,8|8|0
428,96,84222,2,0,B|476:96,2,37.5,0|0|8
280,56,84650,2,0,B|224:56,2,37.5,0|8|4
344,120,85293,5,8
384,192,85507,1,0
400,272,85722,2,0,B|384:312|336:312,1,75,2|8
200,272,86150,2,0,B|248:248|288:272,1,75,8|2
341,311,86793,5,2
256,344,87007,1,8
200,272,87222,2,0,B|160:232|112:248,1,75,8|2
200,272,87650,1,8
256,344,87865,1,8
341,311,88079,1,2
288,240,88293,6,0,B|256:160|160:128,1,150,4|8
96,112,88936,1,2
40,208,89150,2,0,B|96:208|136:176,1,75,0|2
155,69,89579,2,0,B|107:77|91:125,1,75,8|8
238,53,90222,5,2
306,99,90436,1,8
360,160,90650,2,0,B|320:248|384:304,1,150,8|8
432,224,91293,1,8
432,224,91507,1,2
464,136,91722,6,0,B|424:54|320:64,1,150,4|4
472,304,92579,1,2
432,224,92793,2,0,B|384:208|344:248,1,75,0|8
248,200,93222,1,10
248,200,93650,6,0,B|176:224|112:160,1,150,2|8
208,104,94293,1,2
328,112,94507,1,8
368,216,94722,2,0,B|400:176|464:192,1,75,8|2
328,304,95150,6,0,B|256:328|176:304,1,150,2|8
256,216,96007,2,0,B|176:224|112:176,1,150,2|8
48,96,96650,1,0
48,96,96865,6,0,B|40:240,1,112.5,2|2
41,208,97293,1,0
144,240,97507,1,8
144,240,97615,1,0
144,240,97722,1,8
219,310,97936,1,0
219,310,98043,1,8
219,310,98150,2,0,B|256:336|320:304,1,75,8|2
256,104,98579,5,4
256,104,99007,1,10
408,192,99436,2,0,B|488:192,2,75,0|2|8
304,192,100079,1,2
304,192,100507,6,0,B|272:216|288:280,2,75,2|8|2
376,248,101150,2,0,B|368:336|272:352,1,150,2|8
200,304,101793,1,2
200,304,102007,6,0,B|120:352,1,75,0|2
144,240,102436,2,0,B|64:288,1,75,10|0
80,176,102865,2,0,B|0:224,1,75,0|2
256,76,103507,1,2
304,144,103722,6,0,B|312:208|240:208,1,75,0|2
352,256,104150,2,0,B|320:288|272:288,1,75,10|0
368,360,104579,2,0,B|288:384|200:360,1,150,2|8
120,240,105436,6,0,B|32:216,2,75,4|2|8
192,192,106079,1,2
272,224,106293,1,2
200,280,106507,2,0,B|184:352,2,75,2|8|0
272,224,107150,5,2
362,224,107365,1,0
280,176,107579,1,8
376,176,107793,1,2
288,128,108007,2,0,B|208:144,1,75,0|2
132,63,108436,1,8
16,192,108865,5,0
16,192,109079,1,2
152,256,109293,2,0,B|104:200,1,75,8|0
240,288,109722,1,0
328,248,109936,1,2
408,296,110150,1,10
328,248,110365,5,0
240,288,110579,1,2
152,256,110793,1,10
240,200,111007,2,0,B|240:112,1,75,8|0
240,32,111436,1,4
240,32,111865,1,4
240,32,112293,5,4
88,192,126007,6,0,B|48:264,1,75,4|2
256,352,127079,2,0,B|256:304,2,37.5
424,192,127722,6,0,B|464:120,1,75,0|2
256,32,128793,2,0,B|256:80,2,37.5
256,192,129436,5,0
256,192,129650,1,2
240,328,130079,6,0,B|200:304,2,37.5
272,328,130400,2,0,B|328:256,1,75,0|2
328,256,130722,1,0
376,192,130936,1,2
400,160,131043,1,0
424,128,131150,6,0,B|464:200|432:272,1,150,4|2
432,272,131686,1,0
432,272,131793,1,0
432,272,131900,1,0
432,272,132007,1,2
368,344,132222,1,0
368,344,132329,1,2
368,344,132436,2,0,B|336:320|288:336,1,75,0|2
144,336,132865,6,0,B|184:264,1,75,0|2
256,96,133722,1,0
256,176,133936,2,0,B|256:224,2,37.5,2|0|0
256,96,134365,6,0,B|256:16,1,75,2|0
256,176,134793,1,2
312,288,135222,6,0,B|328:328,2,37.5,0|0|8
200,280,135650,2,0,B|232:304,2,37.5,0|0|8
88,296,136079,2,0,B|144:320,2,37.5,8|0|0
128,208,136507,6,0,B|144:136,2,75,0|8|0
24,216,137150,2,0,B|16:120|64:56,1,150,8|2
152,40,137793,1,0
256,80,138007,6,0,B|392:112,2,112.5,0|2|0
272,176,138865,2,0,B|352:200|360:296,1,150,2|0
440,336,139507,1,2
440,336,139722,6,0,B|480:304,1,37.5
488,232,140150,1,2
392,200,140579,6,0,B|400:152,1,37.5
347,101,141007,1,2
272,72,141222,1,2
192,80,141436,6,0,B|184:104|200:128,1,37.5,0|2
256,208,141865,2,0,B|265:188|257:172,1,37.5,0|2
192,264,142293,2,0,B|184:296|200:312,1,37.5,0|2
263,384,142722,2,0,B|271:352|263:344,1,37.5,0|2
320,264,143150,6,0,B|368:256|392:216,1,75,0|2
192,264,144007,2,0,B|144:256|120:216,1,75,0|2
256,56,144865,6,0,B|256:144,1,75
256,208,145507,1,2
256,328,145936,2,0,B|256:280,2,37.5,0|2|0
176,360,146579,6,0,B|112:336|160:304|128:248|120:280,1,112.5
124,271,147436,1,2
46,241,147650,1,0
46,157,147865,1,2
128,136,148079,2,0,B|176:136|192:96,1,75
256,48,148722,5,2
352,64,149150,1,0
432,120,149579,1,2
448,160,149793,1,0
448,160,150007,6,0,B|440:224|320:248|280:216,1,187.5
292,223,151293,1,0
16,352,151722,6,0,B|96:352,1,75,0|2
208,280,152150,2,0,B|120:280,1,75,0|2
250,356,152579,2,0,B|330:356,1,75,0|2
442,284,153007,2,0,B|354:284,1,75,0|8
353,285,153329,1,0
338,285,153436,5,0
392,200,153650,1,8
445,115,153865,1,0
494,28,154079,1,8
392,32,154293,5,8
312,96,154507,1,0
231,161,154722,1,8
148,222,154936,1,8
256,192,155150,12,0,156650
256,192,156865,5,0
256,208,157079,1,0
256,224,157293,1,0
256,240,157507,1,0
256,256,157722,1,0
168,304,157936,5,0
168,304,158043,1,0
168,304,158150,1,0
344,304,158365,1,0
344,304,158472,1,0
344,304,158579,6,0,B|424:304|472:216,1,150,4|8
448,144,159222,1,0
360,144,159436,2,0,B|320:136|280:144,1,75
160,216,159865,2,0,B|200:232|256:216,1,75,8|0
256,56,160507,5,2
256,56,160936,1,2
184,88,161150,1,8
184,88,161579,1,8
112,120,161793,1,0
80,200,162007,6,0,B|-8:152|48:48,1,150,4|8
112,120,162650,1,0
184,168,162865,2,0,B|224:184|224:224,1,75
352,320,163293,2,0,B|312:304|312:264,1,75,8|0
400,88,163936,6,0,B|488:32,2,75,0|8|0
400,88,164472,1,0
400,88,164579,1,0
328,136,164793,1,0
408,176,165007,2,0,B|448:192|464:232,1,75,8|0
464,240,165329,1,0
464,256,165436,6,0,B|440:304|392:288,1,75,4|0
312,248,165865,1,8
256,328,166079,1,0
160,288,166293,2,0,B|104:288|80:336,2,75,0|0|8
216,208,166936,2,0,B|144:176|64:216,1,150
70,212,167579,5,8
112,128,167793,1,0
200,80,168007,1,0
304,80,168222,1,0
400,120,168436,1,8
448,200,168650,1,0
368,256,168865,6,0,B|352:296|384:344,1,75
448,200,169293,2,0,B|464:160|432:112,1,75,8|0
200,80,169722,2,0,B|232:160|320:176,1,150,0|8
240,240,170365,1,0
144,256,170579,5,0
64,312,170793,1,0
64,312,170900,1,0
64,312,171007,1,8
48,216,171222,1,0
48,216,171329,1,0
48,216,171436,1,4
48,216,171865,1,8
144,256,172079,1,0
144,256,172186,1,0
144,256,172293,6,0,B|232:248|296:304,1,150,4|8
336,360,172936,1,2
416,328,173150,2,0,B|408:280|448:256,1,75,0|8
456,96,173579,2,0,B|496:128|464:184,1,75,8|2
88,272,174222,5,2
112,192,174436,1,8
144,112,174650,1,2
336,192,175079,5,8
312,272,175293,1,8
280,352,175507,1,2
208,296,175722,6,0,B|200:216|248:152,1,150,0|8
472,48,176579,2,0,B|480:128|432:192,1,150,2|8
400,272,177222,1,8
456,344,177436,6,0,B|376:360,1,75,0|8
400,272,177865,2,0,B|320:288,1,75,8|8
337,199,178293,2,0,B|257:215,1,75,8|8
247,219,178615,1,0
230,223,178722,1,8
147,246,178936,1,8
144,344,179150,6,0,B|104:312|48:352,1,75,4|2
144,344,179579,2,0,B|208:384|272:320,1,112.5,8|0
249,339,180007,1,2
328,288,180222,1,0
328,288,180329,1,2
328,288,180436,1,8
420,296,180650,1,8
486,355,181079,5,2
420,296,181293,1,8
328,288,181507,1,2
26,29,181936,5,2
92,88,182150,1,8
184,96,182364,1,8
267,45,182579,2,0,B|307:53|323:101,1,75,2|8
328,113,182900,1,8
319,134,183007,2,0,B|303:176|335:215,1,75,8|2
408,160,183436,1,8
408,160,183543,1,8
408,160,183650,1,8
408,160,183757,1,8
408,160,183865,1,8
376,240,184079,1,8
376,320,184293,6,0,B|384:360|448:368|488:352|488:288,1,150,0|2
419,248,184936,1,0
337,188,185150,2,0,B|264:160|186:204,1,150,0|2
117,248,185793,1,0
67,337,186007,6,0,B|40:368|-13:377,1,75,4|0
13,254,186436,1,8
13,254,186543,1,8
117,248,186757,1,8
117,248,186865,1,8
117,248,186972,1,8
117,248,187079,1,8
176,336,187293,1,8
176,336,187400,1,8
176,336,187507,1,8
176,336,187615,1,8
176,336,187722,6,0,B|256:299|240:192,1,150,4|8
159,150,188365,1,0
53,139,188579,2,0,B|49:88|109:75,1,75
47,258,189007,2,0,B|98:262|111:202,1,75,8|0
240,224,189436,6,0,B|304:160|408:192,1,150,8|8
472,352,190293,1,0
384,336,190507,1,0
444,269,190722,1,8
472,352,190936,1,8
384,336,191150,6,0,B|296:312|216:360,1,150,0|8
248,256,191793,1,0
200,112,192007,2,0,B|208:152|256:176,1,75,0|8
393,158,192436,2,0,B|365:123|313:118,1,75,8|0
274,48,192865,5,8
280,128,193079,1,0
310,202,193293,1,8
200,184,193507,5,8
240,262,193722,1,8
320,296,193936,1,0
176,328,194150,5,8
256,360,194365,1,8
352,376,194579,2,0,B|424:336|392:240,1,150,4|8
310,202,195222,1,0
320,296,195436,1,0
240,262,195650,1,0
310,202,195865,1,8
395,246,196079,1,0
320,296,196293,6,0,B|387:361|470:296,1,150,0|8
310,202,197150,2,0,B|243:140|152:192,1,150,0|8
256,40,198007,5,2
80,105,198436,1,8
155,277,198865,1,2
330,210,199293,1,8
254,38,199722,6,0,B|164:38,1,75,4|0
80,105,200150,2,0,B|80:192,1,75,0|4
155,277,200579,2,0,B|236:277,1,75,0|0
330,210,201007,2,0,B|330:120,1,75,4|0
206,155,201436,5,4
206,155,201865,1,8
206,155,202293,1,0
248,224,202507,1,8
318,267,202722,1,8
401,281,202936,1,0
468,220,203150,6,0,B|496:184|496:144,1,75,0|2
397,151,203579,1,10
469,219,203793,1,0
401,281,204007,2,0,B|352:300|360:368,1,75,2|0
469,219,204436,1,10
400,280,204650,1,2
330,216,204865,5,0
330,216,205293,1,10
330,216,205722,1,0
255,196,205936,1,2
188,156,206150,1,8
142,92,206365,1,2
64,112,206579,6,0,B|24:136,2,37.5,2|0|8
142,92,207007,1,8
220,73,207222,1,0
188,156,207436,6,0,B|224:160,2,37.5,2|0|0
142,92,207865,1,8
96,32,208079,1,8
15,57,208293,6,0,B|23:153|95:193,1,150,4|8
256,352,209150,1,0
256,272,209365,1,0
256,192,209579,1,8
256,112,209793,1,0
256,32,210007,6,0,B|208:40,2,37.5,0|0|2
333,38,210436,1,10
393,90,210650,2,0,B|433:82,1,37.5,0|2
408,168,210972,2,0,B|448:184,1,37.5,0|2
381,246,211293,2,0,B|424:282|425:327,1,75,8|0
288,256,211722,5,0
288,256,211829,2,0,B|240:240|192:264,1,75,0|8
214,255,212150,2,0,B|168:272|120:248,1,75,8|8
40,136,212579,1,0
40,136,212686,2,0,B|84:115|136:144,1,75,0|8
112,133,213007,2,0,B|160:144|208:128,1,75,8|0
264,32,213436,6,0,B|360:56|344:168,1,150,0|8
272,240,214293,2,8,B|224:208|232:192,2,37.5
400,256,214722,1,12
