osu file format v9

[General]
AudioFilename: Melancholic.mp3
AudioLeadIn: 2000
PreviewTime: 71043
Countdown: 0
SampleSet: Soft
StackLeniency: 0.4
Mode: 0
LetterboxInBreaks: 1

[Editor]
Bookmarks: 94293
DistanceSpacing: 0.8
BeatDivisor: 4
GridSize: 8

[Metadata]
Title:Melancholic
Artist:Tianshi
Creator:NatsumeRin
Version:Dis
Source:Junky
Tags:Kagamine Rin vocaloid vocaloid2 eveless Colin Hou Disoy SamiPale

[Difficulty]
HPDrainRate:2
CircleSize:3
OverallDifficulty:3
ApproachRate:5
SliderMultiplier:1.2
SliderTickRate:1

[Events]
//Background and Video events
0,0,"BG.jpg"
//Break Periods
2,14779,26450
2,112493,124807
//Storyboard Layer 0 (Background)
//Storyboard Layer 1 (Fail)
//Storyboard Layer 2 (Pass)
//Storyboard Layer 3 (Foreground)
//Storyboard Sound Samples
//Background Colour Transformations
3,100,163,162,255

[TimingPoints]
865,428.571428571429,4,2,1,80,1,0
11150,-100,4,1,1,40,0,0
12864,-100,4,1,2,55,0,0
27650,-100,4,2,2,50,0,0
27865,-100,4,2,2,60,0,0
28507,-100,4,2,1,40,0,0
28722,-100,4,2,1,50,0,0
42007,-100,4,1,1,40,0,0
54007,-100,4,1,2,55,0,0
55722,-100,4,2,1,55,0,0
56793,-100,4,2,2,60,0,0
60865,-100,4,2,2,45,0,0
63436,-100,4,1,2,40,0,0
64293,-100,4,2,2,60,0,0
67722,-100,4,1,2,50,0,0
68150,-100,4,1,2,50,0,0
68579,-100,4,1,2,50,0,0
69007,-100,4,1,2,50,0,0
71150,-100,4,1,2,65,0,1
73936,-100,4,1,1,65,0,1
74579,-100,4,1,2,65,0,1
80793,-100,4,1,1,65,0,1
81436,-100,4,1,2,65,0,1
87650,-100,4,1,1,65,0,1
88293,-100,4,1,2,65,0,1
94507,-100,4,1,1,65,0,1
95150,-100,4,1,2,65,0,1
98579,-100,4,1,2,50,0,0
101365,-100,4,1,1,50,0,0
102007,-100,4,1,2,50,0,0
104793,-100,4,1,1,50,0,0
105436,-100,4,1,2,50,0,0
126007,-100,4,1,2,60,0,0
126650,-100,4,1,2,0,0,0
126865,-100,4,2,2,65,0,0
127293,-100,4,1,2,55,0,0
127722,-100,4,1,2,60,0,0
128365,-100,4,1,2,0,0,0
128579,-100,4,2,2,65,0,0
129007,-100,4,1,2,60,0,0
129436,-100,4,1,2,65,0,0
130079,-100,4,1,2,10,0,0
130293,-100,4,1,2,65,0,0
133507,-100,4,1,2,0,0,0
133722,-100,4,2,2,60,0,0
134150,-100,4,1,2,65,0,0
137150,-100,4,1,2,55,0,0
139722,-100,4,2,1,60,0,0
140150,-100,4,2,1,50,0,0
147007,-100,4,2,1,0,0,0
147222,-100,4,2,1,50,0,0
150007,-100,4,2,1,30,0,0
151722,-100,4,1,2,35,0,0
152150,-100,4,1,2,40,0,0
153007,-100,4,1,2,50,0,0
153865,-100,4,1,2,60,0,0
154722,-100,4,1,2,70,0,0
156865,-100,4,2,1,60,0,0
157079,-100,4,1,2,50,0,0
157293,-100,4,2,1,60,0,0
157507,-100,4,1,2,50,0,0
157722,-100,4,2,1,60,0,0
158150,-100,4,1,2,70,0,0
158579,-100,4,1,2,70,0,1
161365,-100,4,1,1,70,0,1
162007,-100,4,1,2,70,0,1
168222,-100,4,1,1,70,0,1
168865,-100,4,1,2,70,0,1
175079,-100,4,1,1,70,0,1
175722,-100,4,1,2,70,0,1
178507,-100,4,1,1,70,0,1
179150,-100,4,1,2,70,0,1
184293,-100,4,2,1,30,0,1
185150,-100,4,2,1,30,0,0
187722,-100,4,1,2,70,0,1
193936,-100,4,1,1,70,0,1
194579,-100,4,1,2,70,0,1
201007,-100,4,1,2,85,0,1
201436,-100,4,1,2,70,0,1
204222,-100,4,1,1,70,0,1
204865,-100,4,1,2,70,0,1
207650,-100,4,1,1,70,0,1
208293,-100,4,1,2,70,0,1
214722,-100,4,1,2,70,0,0

[Colours]
Combo1 : 0,227,114
Combo2 : 255,128,128
Combo3 : 222,222,62
Combo4 : 26,140,255

[HitObjects]
56,104,865,1,2
144,64,1293,1,8
136,160,1722,2,0,B|208:160|232:96,1,120,2|8
320,64,2579,2,0,B|392:96,2,60,2|0|8
328,160,3436,2,0,B|256:168,2,60,2|8|8
416,208,4293,5,2
416,112,4722,1,8
328,160,5150,2,0,B|296:232|352:296,2,120,2|8|2
232,176,6436,6,0,B|264:104|208:40,1,120,8|2
224,61,7079,1,0
224,61,7293,1,8
152,120,7722,5,2
64,152,8150,1,8
136,208,8579,2,0,B|200:240|208:320,1,120,2|8
208,352,9222,1,0
248,320,9436,2,0,B|288:272|360:272,1,120,2|8
416,200,10293,2,0,B|496:200,2,60,2|8|8
344,136,11150,5,0
256,88,11579,1,0
168,136,12007,1,0
96,200,12436,1,0
256,192,12865,12,4,14579
176,160,27650,5,8
176,160,27864,1,8
176,160,28079,2,0,B|248:160|264:72,1,120,2|0
260,88,28722,1,2
168,72,29150,1,0
88,120,29579,2,0,B|64:184|128:248,1,120,2|0
208,248,30436,1,2
208,248,30650,2,0,B|264:280|288:336,1,120,0|0
328,248,31507,5,2
328,248,31722,2,0,B|392:256|464:224,2,120,0|2|0
256,184,33007,2,0,B|184:184,1,60,2|0
152,160,33436,2,0,B|112:104|48:96,1,120,0|2
64,192,34293,2,0,B|80:232|112:248,1,60
144,264,34722,6,0,B|216:304|232:352,1,120,2|0
320,312,35579,1,2
240,256,36007,1,0
144,264,36436,2,0,B|144:192|224:160,2,120,2|0|2
144,264,37507,1,0
240,256,37936,2,0,B|312:256,1,60,0|2
352,176,38579,5,0
440,136,39007,1,2
360,80,39436,2,0,B|288:80|256:144,1,120,0|2
256,192,40293,12,4,42007
128,136,42436,6,0,B|160:192|152:264,1,120,0|2
240,208,43293,2,0,B|208:152|216:80,1,120,0|2
296,144,44150,1,0
296,144,44365,2,0,B|352:184|320:256,2,120,2|0|2
296,144,45436,1,2
240,216,45865,5,0
152,176,46293,1,2
96,96,46722,2,0,B|32:96,2,60,0|0|2
192,88,47579,5,0
200,184,48007,1,2
176,280,48436,2,0,B|152:344|72:352,1,120,0|2
32,272,49293,2,0,B|56:208|136:200,3,120,0|2|0|2
128,296,51007,5,0
128,296,51222,2,0,B|192:328|256:256|328:296,1,180,2|0
392,328,52293,1,2
472,272,52722,1,0
416,192,53150,2,0,B|456:144,2,60,2|0|0
256,192,54007,12,4,55722
256,192,56365,5,2
400,168,56793,2,0,B|472:152,2,60,8|2|8
352,152,57436,2,0,B|256:184|160:144,2,180,2|0|8
336,248,59150,2,0,B|416:213|512:245,2,180,2|0|8
256,304,60865,5,2
160,280,61293,1,8
64,272,61722,1,2
120,192,62150,2,0,B|176:168,2,60,8|0|2
104,96,63007,1,8
120,192,63436,2,0,B|192:224|264:208,1,120,2|8
304,280,64293,6,0,B|376:312,2,60,4|0|8
208,304,65150,1,2
112,328,65579,1,8
144,240,66007,2,0,B|192:192|264:224,1,120,2|8
296,240,66650,1,0
296,240,66865,1,2
344,320,67293,6,0,B|392:280|384:208,1,120,2|0
312,152,68150,1,0
264,72,68579,2,0,B|216:112|224:184,1,120,2|8
256,192,69436,12,4,71150
424,296,71579,6,0,B|384:240|296:256,1,120,8|2
264,328,72436,2,0,B|208:280|248:200,1,120,8|2
320,160,73293,1,8
232,128,73722,2,0,B|168:120,2,60,2|8|8
304,64,74579,6,0,B|368:56|416:112,1,120,2|8
408,200,75436,2,0,B|480:176,3,60,2|0|8|0
448,280,76507,1,0
448,280,76722,2,0,B|384:312|336:248,1,120,8|2
256,304,77579,5,8
170,254,78007,2,0,B|128:312|64:280,1,120,4|8
96,192,78865,1,2
184,160,79293,2,0,B|256:176|272:248,1,120,8|2
336,304,80150,2,0,B|344:240|416:200,1,120,8|2
401,208,80793,1,8
401,208,81007,1,8
480,152,81436,6,0,B|440:104|360:120,1,120,2|8
288,72,82293,2,0,B|218:57|178:105,1,120,2|8
256,160,83150,1,0
168,200,83579,2,0,B|96:200,2,60,8|0|2
248,256,84436,1,2
256,160,84865,6,0,B|328:160|344:72,1,120,4|8
248,72,85722,1,2
248,72,85936,1,0
248,72,86150,2,0,B|176:80|168:152,2,120,8|2|8
344,48,87436,2,0,B|416:32,2,60,2|8|8
320,144,88293,6,0,B|360:192|432:200,1,120,2|8
336,240,89150,2,0,B|296:288|224:296,1,120,2|8
232,294,89793,1,0
144,256,90222,2,0,B|128:288|136:320,2,60,2|8|0
224,208,91079,2,0,B|280:168,1,60,2|8
368,184,91722,6,0,B|368:112|288:80,1,120,4|12
224,48,92579,1,2
224,48,92793,1,0
224,48,93007,2,0,B|288:64|352:16,2,120,8|2|8
152,112,94293,2,0,B|88:128,2,60,2|8|8
160,208,95150,6,0,B|192:264|280:272,1,120,2|8
352,176,96007,2,0,B|320:120|232:112,1,120,2|8
256,192,96865,12,4,98579
416,120,99007,5,8
328,72,99436,1,2
336,168,99865,2,0,B|360:224|440:240,2,120,8|2|8
248,128,101150,2,0,B|232:64,2,60,2|8|8
176,184,102007,5,2
88,216,102436,1,8
184,224,102865,2,0,B|256:240|272:304,1,120,2|8
176,320,103722,2,0,B|104:304|96:240,1,120,2|8
120,160,104579,5,2
120,160,104793,1,8
120,160,105007,2,0,B|200:160|232:104,1,120,8|4
320,112,105865,2,0,B|304:184|384:224,1,120,8|2
280,264,106722,1,8
184,280,107150,5,2
96,312,107579,1,8
160,240,108007,2,0,B|200:192|168:120,2,120,2|8|2
96,176,109293,1,8
170,126,109722,1,2
256,192,110150,12,4,112293
64,136,126007,5,0
64,136,126222,2,0,B|128:184|240:168,1,180,0|2
328,144,127293,1,8
400,80,127722,5,0
400,80,127936,2,0,B|432:144|432:144|416:136|416:136|464:224,1,180,0|2
384,272,129007,1,8
296,240,129436,5,0
296,240,129650,2,0,B|232:240|200:296|104:304,1,180,0|8
64,232,130722,1,0
64,136,131150,6,0,B|136:144|168:224,1,120,4|8
176,248,131793,1,0
208,208,132007,2,0,B|224:144|304:120,1,120,0|8
328,40,132865,5,0
328,40,133079,2,0,B|376:48|376:48|416:104|376:176,1,180,0|2
304,232,134150,1,8
216,264,134579,6,0,B|144:304,1,60
104,216,135222,1,2
104,216,135436,2,0,B|144:160|128:80,1,120,0|8
64,32,136293,5,0
131,101,136722,1,0
216,152,137150,1,0
304,184,137579,2,0,B|320:112|256:64,2,120,0|0|0
232,248,138865,1,8
416,296,139722,6,0,B|376:240|296:224,1,120,4|2
264,152,140579,2,0,B|206:141|166:85,1,120,0|2
256,192,141436,12,2,143150
256,192,144007,5,2
424,104,144865,2,0,B|416:184,1,60
376,192,145293,2,0,B|368:272,1,60,2|0
288,304,145936,1,0
288,304,146150,1,2
200,336,146579,6,0,B|176:224|304:192,1,180,0|2
282,198,147436,1,0
368,152,147865,2,0,B|432:128,2,60,2|0|0
288,104,148722,21,2
200,144,149150,1,0
104,152,149579,1,2
256,192,150007,12,0,151722
256,288,152150,37,0
320,224,152579,1,0
368,144,153007,1,0
320,64,153436,1,0
256,136,153865,1,0
192,64,154293,1,0
144,144,154722,1,0
192,224,155150,1,0
192,224,155365,6,0,B|232:256|256:328|256:368|256:336|280:256|320:216,1,240,2|0
312,222,156436,1,0
256,144,156865,6,0,B|256:80,4,60,4|2|4|2|4
256,144,158150,1,0
192,72,158579,6,0,B|144:120|168:200,1,120,4|8
72,200,159436,2,0,B|88:272|168:288,1,120,2|8
240,312,160293,1,2
328,344,160722,1,8
312,248,161150,2,0,B|384:248,2,60,2|8|8
320,152,162007,6,0,B|248:152|224:224,1,120,2|8
240,312,162865,2,0,B|168:312|136:240,1,120,2|8
142,253,163507,1,0
72,184,163936,6,0,B|40:248,2,60,2|8|0
136,112,164793,1,2
136,112,165007,1,8
224,72,165436,1,4
224,72,165650,1,2
224,72,165865,2,0,B|272:104|352:80,2,120,8|2|8
136,40,167150,5,2
192,120,167579,1,8
232,208,168007,1,2
232,208,168222,2,0,B|232:288,1,60,8|8
304,328,168865,6,0,B|336:272|408:248,1,120,2|8
344,168,169722,2,0,B|416:144|464:192,2,120,2|8|2
256,200,171007,2,0,B|256:120,2,60,2|2|8
256,296,171865,1,8
176,248,172293,5,4
256,200,172722,1,8
328,136,173150,2,0,B|352:56,2,60,2|0|8
304,224,174007,2,0,B|304:280|344:352,1,120,2|8
256,288,174865,1,2
256,288,175079,1,8
256,288,175293,1,8
256,192,175722,5,2
176,240,176151,1,8
104,304,176579,2,0,B|80:384,2,60,2|0|8
128,216,177436,2,0,B|128:160|88:88,1,120,2|8
192,96,178293,1,2
192,96,178508,1,8
192,96,178722,2,0,B|248:160|320:152,1,120,8|4
384,176,179579,5,8
328,96,180007,1,2
344,192,180436,2,0,B|368:272|344:328,1,120,8|2
272,256,181293,1,8
344,192,181722,1,2
256,168,182150,2,0,B|184:168,2,60,8|0|2
224,256,183007,6,0,B|208:256|208:256|200:248|200:248|200:264|200:264|200:256|200:256|104:256,1,120,8|2
131,256,183865,1,8
56,192,184293,2,0,B|104:136|176:168,2,120,2|0|2
256,192,185579,12,4,187722
72,192,188150,6,0,B|128:248|192:240,3,120,8|2|8|2
248,176,189865,1,8
328,120,190293,1,2
416,88,190722,1,8
400,184,191150,1,2
480,232,191579,6,0,B|424:288|360:280,3,120,8|2|8|2
304,216,193294,1,8
224,160,193722,1,2
224,160,193936,2,0,B|152:160,1,60,8|8
120,248,194579,6,0,B|192:248|224:320,1,120,4|8
312,336,195436,2,0,B|384:336|416:264,1,120,2|8
320,240,196293,1,2
312,336,196722,1,8
232,280,197150,2,0,B|152:280,2,60,2|0|8
136,256,198007,5,2
40,272,198436,1,8
72,184,198865,2,0,B|136:128,2,60,2|0|8
168,168,199722,2,0,B|232:136|304:152,2,120
284,148,201007,1,0
376,136,201436,6,0,B|408:120|408:120|456:136|472:192,1,120,4|8
392,240,202293,2,0,B|360:224|360:224|312:240|296:296,1,120,2|8
384,328,203150,2,0,B|416:344|416:344|464:328|480:272,1,120,2|8
480,192,204007,1,2
480,192,204222,1,8
480,192,204436,1,8
400,248,204865,6,0,B|368:264|368:264|320:248|304:192,1,120,2|8
384,144,205722,2,0,B|416:160|416:160|464:144|480:88,1,120,2|8
392,56,206579,2,0,B|360:40|360:40|312:56|296:112,1,120,2|8
296,192,207436,1,2
296,192,207651,1,8
296,192,207865,2,0,B|296:208|296:208|304:216|304:216|288:216|288:216|296:216|296:216|296:296,1,120,8|4
296,285,208722,5,8
384,237,209150,1,2
288,221,209579,2,0,B|256:205|224:165|224:101,1,120,8|2
320,125,210436,1,8
384,189,210865,2,0,B|400:269|336:317,1,120,2|8
296,224,211722,6,0,B|240:272,2,60,2|0|10
200,224,212579,2,0,B|112:232,2,90,2|0|10
200,224,213436,5,2
288,192,213865,1,8
240,112,214293,2,0,B|240:96|240:96|248:88|248:88|232:88|232:88|240:88|240:88|240:16,1,120,2|4
