osu file format v7

[General]
AudioFilename: Tian Shi - Kimi Ijou Boku Miman.mp3
AudioLeadIn: 0
PreviewTime: 57457
Countdown: 0
SampleSet: Soft
StackLeniency: 0.7
Mode: 0
LetterboxInBreaks: 1

[Editor]
Bookmarks: 59165,86165,172308
DistanceSpacing: 0.800000011920929
BeatDivisor: 4
GridSize: 8

[Metadata]
Title:Kimi Ijou, Boku Miman
Artist:Tianshi
Creator:Colin Hou
Version:Normal
Source:
Tags:Hatsune Miku Deco*27 AngelHoney

[Difficulty]
HPDrainRate:3
CircleSize:4
OverallDifficulty:4
SliderMultiplier:1.2
SliderTickRate:0.5

[Events]
//Background and Video events
0,0,"Background_2.jpg"
//Break Periods
2,73079,84845
2,145080,156845
//Storyboard Layer 0 (Background)
//Storyboard Layer 1 (Fail)
//Storyboard Layer 2 (Pass)
//Storyboard Layer 3 (Foreground)
Sprite,Foreground,Centre,"SB\ColinHou.png",320,240 F,2,12022,12451,0,1 M,0,12451,,413,204 S,0,12451,,0.8668799 F,0,12451,12880,1 F,0,12880,14594,1,0
//Storyboard Sound Samples
//Background Colour Transformations
3,100,163,162,255

[TimingPoints]
880,428.571428571429,4,2,1,80,1,0
39772,-100,4,2,1,40,0,0
39987,-100,4,2,1,80,0,0
50487,-100,4,1,1,80,0,0
50701,-100,4,2,1,80,0,0
51344,-100,4,1,1,80,0,0
51558,-100,4,2,1,80,0,0
59165,-100,4,2,1,80,0,1
59272,-100,4,2,1,80,0,0
66022,-100,4,2,1,80,0,1
66130,-100,4,2,1,80,0,0
72880,-100,4,2,1,80,0,1
72987,-100,4,2,1,80,0,0
117451,-100,4,2,1,80,0,1
117558,-100,4,2,1,80,0,0
124308,-100,4,2,1,80,0,1
124415,-100,4,2,1,80,0,0
130630,-200,4,2,1,80,0,0
131380,-100,4,2,1,80,0,0
144772,-100,4,2,1,0,0,0
144987,-100,4,2,1,80,0,0
172308,-100,4,2,1,80,0,1
172415,-100,4,2,1,80,0,0
179165,-100,4,2,1,80,0,1
179272,-100,4,2,1,80,0,0
186022,-100,4,2,1,80,0,1
186130,-100,4,2,1,80,0,0
192880,-100,4,2,1,80,0,1
192987,-100,4,2,1,80,0,0
213344,-100,4,2,0,80,0,0
216558,-100,4,2,1,0,0,0

[HitObjects]
248,88,14594,1,4
344,88,15022,6,0,B|472:88,2,120,8|0|8
280,160,16308,1,0
208,224,16737,2,0,B|128:128,2,120,8|0|8
136,288,18022,1,0
232,336,18451,6,0,B|368:320,2,120,8|0|8
248,240,19737,1,0
192,160,20165,2,0,B|112:256,2,120,8|0|8
248,80,21451,1,0
344,88,21880,5,8
440,72,22308,1,0
480,160,22737,2,0,B|392:256,1,120,8|0
320,192,23594,1,8
232,224,24022,1,0
200,312,24451,2,0,B|96:240,1,120,8|0
184,192,25308,5,8
160,288,25737,1,0
256,288,26165,2,0,B|384:304,1,120,8|0
400,208,27022,2,0,B|272:224,2,120,8|0|8
400,160,28094,1,0
400,112,28308,1,4
304,128,28737,6,0,B|176:96,2,120,8|0|8
240,200,30022,1,0
304,280,30451,2,0,B|424:312,2,120,8|0|8
360,200,31737,1,0
360,104,32165,5,8
360,104,32594,1,0
360,104,33022,1,8
280,56,33451,1,0
184,56,33880,1,8
208,152,34308,1,0
112,152,34737,1,8
136,248,35165,6,0,B|264:248,1,120,4|8
352,248,36022,1,0
256,248,36451,1,8
352,248,36880,1,0
408,168,37308,2,0,B|272:128,1,120,8|0
224,72,38165,1,8
160,144,38594,6,0,B|288:160,1,120,0|8
280,208,39237,2,0,B|152:232,1,120,4|0
128,192,39880,1,4
256,192,40094,12,0,41165
432,88,42022,5,4
360,152,42451,1,0
288,88,42880,2,0,B|160:88,2,120,0|8|0
360,152,44165,2,0,B|504:152,2,120,8|0|8
288,216,45451,1,0
288,216,45880,6,0,B|160:216,2,120,8|0|8
344,296,47165,2,0,B|401:312|401:312|464:312,1,120,0|8
462,312,47808,2,0,B|448:248|448:248|408:208,1,120
368,184,48451,2,0,B|312:128,1,60,8|0
304,184,48880,1,4
264,216,49094,6,0,B|320:272,2,60,0|8|0
216,216,49737,2,0,B|160:256|160:256|88:256,1,120,0|8
104,160,50594,1,0
104,64,51022,1,0
104,160,51451,1,0
104,256,51880,1,0
104,160,52308,6,0,B|240:160,1,120,4|2
272,80,53165,2,0,B|216:24,2,60,0|0|2
328,160,54022,2,0,B|328:288,1,120,0|2
232,280,54880,6,0,B|160:280,2,60,0|0|2
328,280,55737,1,0
328,280,56165,1,2
424,280,56594,1,0
424,280,57022,1,2
328,280,57451,1,0
328,184,57880,6,0,B|400:184,1,60,8|8
328,184,58522,2,0,B|256:184,1,60,0|8
256,88,59165,5,4
160,112,59594,1,2
72,80,60022,1,0
120,160,60451,1,2
120,256,60880,1,0
72,336,61308,1,2
160,304,61737,2,0,B|224:304|224:304|288:336,2,120,0|2|0
232,240,63022,1,2
184,160,63451,6,0,B|184:32,1,120,0|2
280,40,64308,2,0,B|280:176,2,120,0|2|0
328,40,65380,6,0,B|392:40,2,60,0|2|2
328,88,66022,5,4
400,152,66451,1,2
376,248,66880,1,0
280,248,67308,1,2
256,152,67737,1,0
352,128,68165,1,2
392,216,68594,1,0
328,288,69022,1,2
240,248,69451,1,0
160,200,69880,5,2
160,200,70094,2,0,B|96:200|96:200|96:128,1,120
96,96,70737,2,0,B|96:32,2,60,2|0|0
184,64,71594,1,2
184,160,72022,2,0,B|184:288,2,120,0|2|4
256,192,86165,5,0
352,192,86594,2,0,B|352:64,1,120,4|2
256,72,87451,2,0,B|112:72,1,120,0|2
88,160,88308,2,0,B|88:288,1,120,0|2
184,280,89165,2,0,B|184:152,1,120,0|2
232,160,89808,5,0
232,112,90022,2,0,B|360:112,1,120,0|2
448,112,90880,2,0,B|448:232,1,120,0|2
352,256,91737,2,0,B|224:256,1,120,0|2
232,160,92594,2,0,B|360:160,1,120,0|2
352,112,93237,5,0
400,112,93451,2,0,B|400:240,2,120,0|2|0
304,112,94737,2,0,B|176:112,1,120,2|0
96,152,95594,1,2
184,192,96022,2,0,B|320:192,1,120,0|2
400,192,96880,1,0
304,192,97308,2,0,B|240:192,2,60,2|0|0
352,272,98165,1,2
352,176,98594,6,0,B|352:112,4,60,0|0|2|0|0
352,272,99880,1,2
352,272,100094,1,2
352,272,100308,6,0,B|216:304,1,120,4|2
192,272,100951,1,0
208,224,101165,2,0,B|324:196,1,120,0|2
400,144,102022,2,0,B|440:24,2,120,0|2|0
312,104,103308,6,0,B|240:104,2,60,2|0|0
288,200,104165,1,2
256,288,104594,2,0,B|120:288,1,120,0|2
88,200,105451,2,0,B|224:200,1,120,0|2
248,168,106094,1,0
288,144,106308,2,0,B|352:144|352:144|416:168,2,120,0|2|0
360,80,107594,1,2
272,40,108022,6,0,B|200:40,2,60,0|0|2
240,128,108880,2,0,B|176:128|176:128|112:88,1,120,0|2
88,72,109522,2,0,B|24:72,2,60
128,98,110165,6,0,B|158:146|158:146|158:210,1,120,2|4
216,136,111022,1,2
264,56,111451,6,0,B|336:56,2,60,0|0|2
296,144,112308,2,0,B|296:224,2,60,4|0|2
384,176,113165,2,0,B|448:176,2,60,0|0|2
392,272,114022,1,4
320,208,114451,1,2
240,264,114880,1,0
264,360,115308,1,2
360,360,115737,1,0
320,272,116165,6,0,B|385:226,1,60,8|8
392,144,116808,2,0,B|339:180,1,60,0|8
256,144,117451,5,4
256,48,117880,1,2
352,48,118308,1,0
352,144,118737,1,2
352,240,119165,1,0
256,240,119594,1,2
160,240,120022,2,0,B|128:192|128:192|68:168,2,120,0|2|0
160,144,121308,1,2
232,80,121737,6,0,B|368:80,1,120,0|2
424,144,122594,2,0,B|288:144,1,120,0|2
376,208,123451,2,0,B|304:208,4,60,0|0|2|2|4
349,300,124737,5,2
253,300,125165,1,0
185,232,125594,2,0,B|113:232,2,60,2|0|0
252,164,126451,1,2
320,96,126880,2,0,B|384:96|384:96|440:48,2,120,0|2|0
400,152,128165,5,2
424,192,128380,2,0,B|424:320,1,120
376,312,129022,2,0,B|376:184,1,120,2|0
320,120,129880,1,2
256,192,130308,1,0
192,120,130737,6,0,B|128:120,1,60,2|4
72,192,131594,5,2
152,248,132022,2,0,B|152:312,2,60,0|0|2
240,280,132880,2,0,B|360:256,1,120,0|2
448,296,133737,2,0,B|448:360,2,60,0|0|2
408,208,134594,6,0,B|448:88,1,120,0|2
352,80,135451,2,0,B|320:16,2,60,0|0|2
288,160,136308,2,0,B|168:184,1,120,0|2
96,128,137165,2,0,B|24:128,2,60,0|0|2
120,224,138022,5,0
120,224,138451,1,2
176,304,138880,2,0,B|304:304,1,120,0|2
392,304,139737,1,0
392,304,140165,1,2
344,224,140594,2,0,B|208:224,1,120,0|2
144,168,141451,6,0,B|176:32,1,120,0|2
267,51,142308,2,0,B|239:167,1,120,0|2
335,167,143165,2,0,B|307:283,1,120,0|2
403,283,144022,2,0,B|435:147,1,120,0|2
416,120,144665,1,2
376,88,144880,1,0
416,96,158165,5,0
456,184,158594,2,0,B|384:184|384:184|336:144,1,120,4|0
304,72,159451,2,0,B|256:96|256:96|256:168,1,120,0|2
346,153,160308,2,0,B|346:281,2,120,0|0|0
248,152,161594,5,2
256,248,162022,2,0,B|192:248|192:248|144:192,1,120,0|0
176,112,162880,2,0,B|112:112|112:112|48:168,1,120,0|2
155,205,163737,2,0,B|251:205|251:205|267:229,2,120,0|0|0
152,112,165022,5,2
224,48,165451,2,0,B|360:32,1,120,0|2
343,82,166094,2,0,B|479:98,2,120
343,129,167165,2,0,B|223:143,1,120,0|2
223,191,167808,2,0,B|359:175,1,120
342,176,168451,1,2
342,176,168665,1,0
424,224,169094,5,0
424,224,169308,2,0,B|376:296,1,60,2|0
384,320,169737,2,0,B|320:336,1,60
304,296,170165,2,0,B|240:272,1,60,2|0
248,224,170594,2,0,B|208:152|208:152|168:136,3,120,0|2|0|2
208,104,172094,1,2
240,72,172308,6,0,B|376:112,1,120,4|2
440,64,173165,1,0
354,107,173594,2,0,B|238:140,2,120,2|0|2
432,168,174880,2,0,B|422:287,2,120,0|2|0
440,64,176165,1,2
440,64,176380,1,0
440,64,176594,2,0,B|392:104|392:104|312:104,1,120,0|2
288,104,177237,1,0
240,104,177451,2,0,B|181:104|181:104|133:64,2,120,0|2|0
288,104,178522,5,0
288,152,178737,1,2
288,200,178951,1,2
288,248,179165,6,0,B|288:376,2,120,4|2|0
288,152,180451,1,2
344,72,180880,2,0,B|288:48|288:48|208:80,1,120,0|2
232,168,181737,2,0,B|287:190|287:190|343:166,1,120,0|2
288,88,182594,1,0
232,168,183022,5,2
192,144,183237,2,0,B|48:144,1,120
72,192,183880,2,0,B|144:192,2,60,2|0|0
72,96,184737,1,2
72,192,185165,1,0
72,240,185380,6,0,B|72:312,2,60,0|2|2
72,192,186022,6,0,B|132:192|132:192|208:160,2,120,4|2|0
144,256,187308,2,0,B|208:256,1,60,2|0
232,312,187737,2,0,B|96:312,1,120,0|2
112,200,188594,2,0,B|248:200,2,120,0|2|0
112,104,189880,1,2
112,151,190094,5,0
159,151,190308,2,0,B|223:151,1,60
219,102,190737,2,0,B|291:102,1,60,2|0
279,149,191165,2,0,B|279:275,2,120,0|2|0
280,104,192237,5,0
320,72,192451,1,2
360,104,192665,1,2
360,152,192880,6,0,B|360:288,2,120,4|2|0
280,200,194165,1,2
312,112,194594,2,0,B|176:136,1,120,0|2
136,56,195451,2,0,B|48:168,2,120,0|2|0
232,56,196737,5,2
232,104,196951,2,0,B|352:128,1,120
349,175,197594,2,0,B|262:193,2,60,2|0|0
440,152,198451,1,2
349,127,198880,2,0,B|350:85,4,30,2|2|2|0|2
256,152,199737,6,0,B|112:152,1,120,4|2
48,192,200594,1,0
120,256,201022,1,2
136,152,201451,2,0,B|256:152,1,120,0|2
344,192,202308,2,0,B|424:192,2,60,0|0|2
288,272,203165,6,0,B|168:320,1,120,0|2
88,288,204022,1,0
155,220,204451,1,2
176,316,204880,2,0,B|288:272,1,120,0|2
248,184,205737,2,0,B|248:120,2,60,0|0|2
320,248,206594,6,0,B|432:160,1,120,4|2
440,80,207451,1,0
346,101,207880,1,2
414,173,208308,2,0,B|320:248,1,120,0|2
256,320,209165,2,0,B|200:352,2,60,0|0|2
184,256,210022,6,0,B|184:128,1,120,0|2
232,48,210880,1,0
136,48,211308,1,2
184,136,211737,2,0,B|184:256,1,120,0|2
280,232,212594,2,0,B|280:152,2,60,0|0|2
368,192,213451,5,2
464,192,213880,1,2
368,192,214308,1,2
272,192,214737,1,2
256,192,215165,12,0,216880
