osu file format v9

[General]
AudioFilename: Miki Miki Romantic Night.mp3
AudioLeadIn: 1500
PreviewTime: 49706
Countdown: 0
SampleSet: Normal
StackLeniency: 0.7
Mode: 0
LetterboxInBreaks: 0

[Editor]
DistanceSpacing: 1.5
BeatDivisor: 4
GridSize: 8

[Metadata]
Title:Miki Miki Romantic Night (Short Ver.)
Artist:Tianshi & YAMI
Creator:spboxer3
Version:Spinboxer
Source:
Tags:Samfree SF-A2 Andrea osuplayer111 Melophobia tenji

[Difficulty]
HPDrainRate:8
CircleSize:4
OverallDifficulty:8
ApproachRate:8
SliderMultiplier:1.96
SliderTickRate:2

[Events]
//Background and Video events
0,0,"BG.jpg"
//Break Periods
2,3612,14370
//Storyboard Layer 0 (Background)
//Storyboard Layer 1 (Fail)
//Storyboard Layer 2 (Pass)
//Storyboard Layer 3 (Foreground)
//Storyboard Sound Samples
//Background Colour Transformations
3,100,163,162,255

[TimingPoints]
486,365.853658536585,4,1,0,50,1,0
3412,-100,4,1,0,100,0,0
15120,-100,4,1,1,70,0,0
26827,-83.3333333333333,4,1,1,70,0,0
27193,-100,4,1,1,70,0,0
33961,-200,4,1,1,70,0,0
34327,-100,4,1,1,70,0,0
37803,-100,4,1,1,100,0,0
38077,-100,4,1,1,30,0,0
38168,-100,4,1,1,100,0,0
38443,-100,4,1,1,30,0,0
38534,-100,4,1,1,100,0,0
38626,-100,4,1,1,70,0,0
39449,-200,4,1,1,70,0,0
39998,-100,4,1,1,70,0,0
40912,-200,4,1,1,70,0,0
41278,-100,4,1,1,70,0,0
42376,-200,4,1,1,70,0,0
42742,-100,4,1,1,70,0,0
43656,-200,4,1,1,70,0,0
44388,-100,4,1,1,70,0,0
48778,-200,4,1,1,70,0,0
49693,-66.6666666666667,4,1,1,70,0,0
49876,-133.333333333333,4,1,1,70,0,0
50242,-80,4,1,1,100,0,1
50333,-80,4,1,1,70,0,1
52437,-80,4,1,0,70,0,1
53168,-80,4,1,1,70,0,1
55364,-80,4,1,0,70,0,1
56095,-80,4,1,0,100,0,1
56187,-80,4,1,1,70,0,1
58290,-80,4,1,0,70,0,1
59022,-80,4,1,1,100,0,1
59296,-80,4,2,0,30,0,1
59388,-80,4,1,1,100,0,1
59662,-80,4,2,0,30,0,1
59754,-80,4,1,1,100,0,1
60028,-80,4,2,0,30,0,1
60120,-80,4,1,1,100,0,1
60394,-80,4,2,0,30,0,1
60485,-80,4,1,1,70,0,1
61583,-80,4,1,1,100,0,1
61857,-80,4,1,0,70,0,0
61949,-80,4,1,1,70,0,1
63595,-133.333333333333,4,1,0,100,0,1
64144,-133.333333333333,4,1,0,90,0,1
64510,-133.333333333333,4,1,0,80,0,1
64876,-80,4,1,1,70,0,1
67071,-80,4,1,0,100,0,1
67620,-80,4,1,0,70,0,1
67803,-80,4,1,1,100,0,1
67894,-80,4,1,1,70,0,1
69632,-66.6666666666667,4,1,0,100,0,1
69998,-100,4,1,0,90,0,1
70364,-133.333333333333,4,1,0,80,0,1
70729,-80,4,1,1,70,0,1
72193,-80,4,1,0,70,0,1
72925,-80,4,1,1,70,0,1
73565,-80,4,1,0,100,0,0
73656,-80,4,1,0,100,0,1
73748,-80,4,1,0,100,0,0

[Colours]
Combo1 : 254,192,197
Combo2 : 0,107,159
Combo3 : 154,88,86
Combo4 : 203,184,185

[HitObjects]
424,128,486,2,0,B|392:168|341:175,1,98,4|0
472,40,851,1,4
424,128,1034,2,0,B|376:146|329:127,2,98,0|0|12
256,224,1766,6,0,B|240:218|240:218|231:198|231:198|210:207|210:207|138:172|66:206,1,196,4|0
156,264,2315,2,0,B|171:269|171:269|180:289|180:289|201:280|201:280|273:315|345:281,1,196,12|0
421,244,2864,1,0
453,212,2955,1,0
469,164,3046,1,8
328,176,3229,1,0
416,336,3412,1,4
312,80,15120,5,4
408,64,15303,1,0
456,144,15485,2,0,B|472:192|458:241,1,98,8|0
376,344,15851,2,0,B|360:296|373:246,1,98
288,328,16217,1,0
284,232,16400,2,0,B|196:216|84:232,1,196,0|0
84,327,16949,1,8
16,256,17132,1,0
85,327,17315,1,8
0,216,17498,1,0
84,328,17681,1,8
0,168,17864,5,0
24,128,17955,1,0
64,96,18046,2,0,B|136:120|224:96,1,147,4|0
200,48,18412,2,0,B|217:144,1,98,8|0
312,336,18778,2,0,B|294:239,1,98
112,248,19144,2,0,B|160:224|208:230,1,98,8|0
400,136,19510,38,0,B|352:160|303:153,2,98,0|0|8
488,88,20059,1,0
488,184,20242,1,0
424,256,20425,1,8
376,272,20516,1,0
328,288,20607,2,0,B|280:304|208:296,1,98,8|8
136,280,20973,37,4
5,227,21156,1,0
168,189,21339,1,8
116,319,21522,1,0
78,156,21705,1,0
208,208,21888,1,0
45,247,22071,1,8
97,116,22254,6,0,B|152:120|189:87|189:87|248:96|296:72,1,196,4|0
376,48,22803,2,0,B|383:98|352:144,1,98,8|0
256,304,23168,2,0,B|248:253|280:208,2,98,0|0|8
352,280,23717,2,0,B|144:336,1,196,4|0
64,360,24266,1,8
80,264,24449,1,0
88,216,24540,1,0
96,168,24632,1,8
64,360,24815,5,0
96,168,24998,1,8
264,72,25181,1,0
256,120,25272,1,0
248,168,25364,1,0
456,168,25546,37,0
434,156,25637,1,0
410,153,25728,1,8
386,158,25820,1,0
365,170,25911,1,0
348,188,26003,1,0
336,209,26094,1,8
330,233,26186,1,0
329,257,26277,1,0
335,281,26369,1,0
347,302,26460,1,8
364,319,26552,1,0
386,331,26643,1,8
410,335,26735,1,8
432,336,26827,38,0,B|363:329|363:329|304:344|304:344|184:328,1,235.199992822266,4|0
104,312,27376,1,0
40,240,27559,22,0,B|16:192|24:136,2,98,8|0|0
120,184,28107,2,0,B|192:184|192:184|248:200|248:200|313:200,1,196,12|0
338,299,28656,2,0,B|288:309|246:276,1,98,8|0
292,104,29022,2,0,B|341:93|383:126,2,98,8|0|8
208,48,29571,1,0
192,96,29662,1,0
176,144,29754,38,0,B|144:240|144:240|88:272,1,147,4|0
64,240,30120,2,0,B|112:264|137:302,1,98,8|0
48,344,30485,1,0
138,303,30668,1,0
48,344,30851,1,8
224,344,31034,2,0,B|288:368|376:328|384:264,1,196,4|0
304,208,31583,1,8
488,272,31766,2,0,B|456:232|462:178,1,98
472,80,32132,2,0,B|432:112|378:105,1,98,0|8
280,88,32498,1,0
232,72,32589,1,0
184,56,32681,6,0,B|240:152,1,98,4|0
176,40,33046,2,0,B|195:149,1,98,8|0
168,24,33412,2,0,B|149:133,2,98,0|8|8
48,296,33961,6,0,B|66:186,1,98,4|0
43,316,34510,38,0,B|92:231,1,98,8|0
40,344,34876,2,0,B|115:281,2,98,0|8|8
136,360,35425,2,0,B|232:368|232:368|272:344|327:344,1,196,4|0
424,344,35973,2,0,B|464:296|448:232,1,98,8|0
448,72,36339,2,0,B|408:120|424:184,2,98,8|0|8
352,56,36888,1,8
264,96,37071,38,0,B|219:111|166:101,2,98,4|0|0
272,120,37528,1,0
280,144,37620,1,0
288,168,37711,1,0
296,192,37803,2,0,B|362:214|442:199,1,147,4|0
472,168,38168,2,0,B|419:213|391:291,1,147,4|0
384,336,38534,5,4
288,352,38717,1,0
192,336,38900,1,8
280,368,39083,1,0
192,336,39266,1,0
120,280,39449,6,0,B|80:248|72:192,1,98,2|0
160,152,39998,37,0
239,214,40181,1,0
88,120,40364,1,8
237,140,40547,1,0
16,144,40729,1,0
216,72,40912,6,0,B|264:80|320:56,1,98,2|0
360,40,41370,1,0
408,16,41461,5,0
488,72,41644,1,0
392,72,41827,1,8
437,169,42010,1,0
352,112,42193,1,0
340,239,42376,38,0,B|280:264|240:256,1,98,2|0
112,184,42925,5,0
56,104,43107,1,0
197,235,43290,1,8
155,323,43472,1,0
208,144,43656,38,0,B|248:136|320:136,2,98,12|4|12
128,88,44571,37,0
224,56,44754,1,0
224,232,44937,1,0
128,200,45120,1,0
224,56,45303,2,0,B|319:79|418:58,1,196,2|0
488,160,45851,22,0,B|440:144|392:160,1,98,8|0
208,200,46217,2,0,B|256:216|304:200,2,98,8|0|0
124,151,46766,2,0,B|219:181|264:280,1,196,2|0
288,376,47315,1,0
360,312,47498,1,0
376,215,47681,1,8
473,118,47864,6,0,B|456:176|472:216|472:216|432:200|376:216,1,196
288,256,48412,2,0,B|240:272|192:256,1,98,8|0
96,224,48778,37,0
76,209,48869,1,0
62,189,48960,1,8
52,167,49052,1,0
48,143,49143,1,8
48,118,49235,1,0
52,94,49326,1,0
62,72,49418,1,0
77,52,49509,1,8
48,143,49693,38,0,B|16:168|-24:176,2,73.5000028038026,0|0|8
184,96,50059,1,0
328,136,50242,6,0,B|360:192|328:272,1,122.5,4|0
240,360,50607,2,0,B|208:304|240:224,2,122.5,8|8|0
321,296,51156,2,0,B|360:296|360:296|376:280|376:280|392:296|392:296|456:312|520:264|480:192,1,245,10|2
419,17,51705,6,0,B|392:80|424:136,1,122.5,0|0
344,192,52071,2,0,B|336:184|336:184|336:200|336:200|328:184|328:184|328:200|328:200|320:184|320:184|320:200|320:200|312:184|312:184|312:200|312:200|304:184|304:184|296:192|296:192|192:192,1,245,10|6
112,192,52620,1,0
208,192,52803,1,6
72,224,52985,1,0
64,320,53168,6,0,B|120:344|185:321,2,122.5,4|0|8
0,232,53717,1,0
26,190,53809,1,0
40,144,53900,2,0,B|64:88|40:24,2,122.5,8|0|0
128,96,54449,38,0,B|200:96|248:64|248:64|224:128|256:184,1,245,8|0
349,251,54998,2,0,B|384:188|344:136,1,122.5,8|0
344,136,55272,1,0
344,136,55364,2,0,B|364:204|429:213,2,122.5,4|2|6
256,56,55912,1,0
200,72,56004,1,0
144,96,56095,38,0,B|88:120|24:120,1,122.5,4|0
112,200,56461,2,0,B|84:254|35:295,2,122.5,8|8|0
208,272,57010,2,0,B|256:288|312:272|312:272|296:296|296:296|352:280|408:296,1,245,8|0
447,65,57559,6,0,B|477:125|456:184,1,122.5
344,128,57925,2,0,B|339:117|339:117|333:132|333:132|331:115|331:115|326:130|326:130|324:112|324:112|318:127|318:127|313:117|313:117|288:96|208:104|186:166,1,245,8|2
88,216,58473,1,0
192,152,58656,1,2
104,280,58839,1,0
208,320,59022,6,0,B|304:320|379:262,1,183.75,0|0
304,64,59388,2,0,B|208:64|132:121,1,183.75,12|0
293,336,59754,2,0,B|376:288|412:200,1,183.75
218,47,60120,2,0,B|135:95|99:183,1,183.75,12|0
256,192,60485,1,4
256,192,60577,12,4,61583
304,304,61949,38,0,B|368:312|425:287,2,122.5,0|0|10
208,248,62498,2,0,B|144:256|87:231,1,122.5,0|8
8,176,62864,1,8
152,248,63046,2,0,B|190:300|196:362,1,122.5,0|2
104,80,63595,37,0
104,80,63778,2,2,B|192:120,1,73.5000028038026,0|0
392,128,64144,2,2,B|304:168,1,73.5000028038026,2|0
164,242,64510,2,2,B|252:282,1,73.5000028038026,2|0
416,328,64876,5,0
432,280,64967,1,0
424,232,65059,2,0,B|360:232|307:196,2,122.5,8|8|0
384,144,65607,2,0,B|352:96|356:25,1,122.5,8|0
440,72,65973,1,0
192,112,66156,6,0,B|184:104|184:104|184:120|184:120|176:104|176:104|176:120|176:120|168:104|168:104|168:120|168:120|160:112|160:112|72:128|24:80,1,245,2|0
304,192,66705,2,0,B|380:201|424:157,1,122.5,2|0
232,280,67071,2,0,B|155:289|111:245,1,122.5,0|2
272,368,67437,1,2
248,24,67620,1,0
248,72,67711,1,0
248,120,67803,38,0,B|200:152|130:151,2,122.5,4|0|2
336,160,68351,2,0,B|392:192|398:261,1,122.5,0|8
400,360,68717,1,8
381,201,68900,2,0,B|380:136|437:96,1,122.5,0|2
96,56,69449,37,0
96,56,69632,2,2,B|230:115,1,147.000005607605,2|0
128,152,69998,6,2,B|192:241,1,98,2|0
112,256,70364,6,2,B|120:338,1,73.5000028038026,2|0
312,296,70729,21,0
475,304,70912,1,0
338,364,71095,1,8
435,238,71278,1,0
402,328,71461,5,0
410,165,71644,1,8
272,230,71827,1,8
402,328,72010,1,0
411,166,72193,38,0,B|384:104|416:48,1,122.5,2|0
328,104,72559,2,2,B|280:104|280:104|256:112|256:112|200:112,1,122.5,2|0
112,80,72925,1,0
104,112,73016,1,0
96,144,73107,1,0
88,176,73199,1,0
40,232,73290,5,0
67,249,73381,1,0
95,266,73473,2,0,B|208:328,1,122.5
