osu file format v14

[General]
AudioFilename: supercell feat Tia - The Glory Days.mp3
AudioLeadIn: 0
PreviewTime: 65624
Countdown: 0
SampleSet: Normal
StackLeniency: 0.4
Mode: 0
LetterboxInBreaks: 1
WidescreenStoryboard: 1

[Editor]
Bookmarks: 1059,3015,13776,23396,24211,45081,54211,55515,65624,76385
DistanceSpacing: 1.18
BeatDivisor: 4
GridSize: 8
TimelineZoom: 2.1

[Metadata]
Title:The Glory Days
TitleUnicode:The Glory Days
Artist:Tia
ArtistUnicode:Tia
Creator:[ - Zekks - ]
Version:Normal
Source:
Tags:tv size
BeatmapID:1176947
BeatmapSetID:555873

[Difficulty]
HPDrainRate:3
CircleSize:3.5
OverallDifficulty:5.5
ApproachRate:5.5
SliderMultiplier:1.26
SliderTickRate:1

[Events]
//Background and Video events
0,0,"maxresdefault (4).jpg",0,0
//Break Periods
2,45249,53299
//Storyboard Layer 0 (Background)
//Storyboard Layer 1 (Fail)
//Storyboard Layer 2 (Pass)
//Storyboard Layer 3 (Foreground)
//Storyboard Sound Samples

[TimingPoints]
1059,326.086956521739,4,1,0,100,1,0
3015,-100,4,1,0,5,0,0
3310,326.086956521739,4,1,0,100,1,0
3310,-142.857142857143,4,1,0,40,0,0
9505,-142.857142857143,4,1,0,20,0,0
9587,-142.857142857143,4,1,0,25,0,0
9668,-142.857142857143,4,1,0,30,0,0
9750,-142.857142857143,4,1,0,35,0,0
9831,-142.857142857143,4,1,0,40,0,0
13744,-100,4,1,0,40,0,0
45049,-133.333333333333,4,1,0,40,0,0
46679,-200,4,1,0,40,0,0
47657,-133.333333333333,4,1,0,40,0,0
49288,-200,4,1,0,40,0,0
50266,-133.333333333333,4,1,0,40,0,0
51896,-200,4,1,0,40,0,0
52875,-133.333333333333,4,1,0,40,0,0
54505,-133.333333333333,4,1,0,40,0,0
54831,-100,4,1,0,40,0,0
55157,-80,4,1,0,40,0,0
55483,-100,4,1,0,40,0,0
63309,-133.333333333333,4,1,0,40,0,0
63391,-133.333333333333,4,1,0,5,0,0
64451,-200,4,1,0,15,0,0
65918,-80,4,1,0,80,0,1
75049,-133.333333333333,4,1,0,80,0,0
76353,-80,4,1,0,80,0,1
85483,-100,4,1,0,80,0,0
86788,-400,4,1,0,80,0,0
86869,-400,4,1,0,5,0,0

[Colours]
Combo1 : 193,196,222
Combo2 : 228,179,149
Combo3 : 242,221,219
Combo4 : 179,162,172
Combo5 : 196,103,114
Combo6 : 102,93,154
Combo7 : 40,98,156
Combo8 : 221,156,190

[HitObjects]
67,153,3310,6,0,P|109:168|196:131,1,126
206,54,3962,1,0,0:0:0:0:
115,70,4288,1,0,0:0:0:0:
64,191,4614,6,0,P|102:204|162:189,1,88.1999973083497
184,174,5103,2,0,L|291:183,1,88.1999973083497
363,236,5919,5,0,0:0:0:0:
411,145,6245,1,0,0:0:0:0:
327,93,6571,2,0,B|267:79|267:79|230:89,1,88.1999973083497
212,218,7223,6,0,P|260:196|274:153,1,88.1999973083497
198,50,7875,2,0,P|188:99|205:152,1,88.1999973083497
226,189,8527,70,0,P|166:172|72:243,1,176.399994616699
157,310,9506,2,0,P|168:284|164:251,1,44.0999986541748
165,227,9832,2,0,L|135:173,3,44.0999986541748
131,146,10484,2,0,P|169:114|256:135,1,132.299995962525
273,150,11136,6,0,L|375:130,1,88.1999973083497
402,62,11788,2,0,P|372:86|361:143,1,88.1999973083497
452,182,12440,6,0,P|449:149|438:122,2,44.0999986541748
366,223,13093,2,0,P|340:201|312:189,2,44.0999986541748
308,304,13745,6,0,P|368:324|448:175,1,252
356,153,14723,1,0,0:0:0:0:
314,251,15049,2,0,L|379:272,3,63
410,279,15701,2,0,P|396:227|435:151,1,126
487,244,16353,70,0,B|431:221|431:221|382:148,1,126
411,82,17006,2,0,P|463:95|493:166,1,126
394,166,17658,6,0,L|266:146,1,126
190,64,18310,2,0,P|252:96|268:159,2,126
180,160,19288,6,0,P|215:221|279:235,1,126
388,156,19940,6,0,B|328:140|328:140|250:153,1,126
245,176,20430,70,0,L|172:188,3,63
107,136,21245,6,0,P|95:180|129:257,1,126
245,264,21897,2,0,B|153:241|153:241|112:256,1,126
256,192,22305,12,0,24017,0:0:0:0:
467,267,24180,6,0,P|418:252|339:295,1,126
335,319,24669,1,0,0:0:0:0:
335,319,24832,2,0,L|204:329,1,126
139,257,25484,6,0,B|166:234|166:234|271:240,1,126
291,257,25973,1,0,0:0:0:0:
291,257,26136,2,0,L|361:260,2,63
195,201,26788,70,0,P|262:210|291:279,1,126
214,341,27440,2,0,P|206:305|217:268,2,63
133,253,28093,6,0,P|146:214|175:189,2,63
95,141,28745,6,0,P|125:117|164:111,2,63
98,43,29397,6,0,P|142:57|128:231,1,252
60,188,30375,2,0,L|125:172,1,63
146,143,30701,70,0,L|296:167,1,126
291,190,31190,1,0,0:0:0:0:
291,190,31353,2,0,L|375:204,3,63
260,168,32006,6,0,P|232:200|355:315,1,252
390,205,33147,1,0,0:0:0:0:
256,192,33228,12,0,34451,0:0:0:0:
73,167,34614,6,0,L|219:159,1,126
234,141,35103,1,0,0:0:0:0:
234,141,35267,2,0,P|300:136|353:186,1,126
359,208,35756,1,0,0:0:0:0:
359,208,35919,6,0,L|333:279,1,63
346,316,36245,2,0,P|313:289|218:303,2,126
257,345,37223,70,0,P|237:302|364:173,1,252
333,274,38201,2,0,L|264:230,1,63
247,225,38527,1,0,0:0:0:0:
247,225,38690,6,0,P|202:228|166:256,2,63
309,152,39343,2,0,P|280:124|245:118,2,63
331,186,39832,6,0,P|278:205|209:171,1,126
192,156,40321,2,0,L|47:190,1,126
49,209,40810,2,0,L|82:278,1,63
109,292,41136,6,0,P|164:292|219:230,1,126
130,149,41788,2,0,P|127:185|145:216,2,63
256,192,42440,12,0,45049,0:0:0:0:
151,203,54424,70,0,P|195:171|253:176,2,94.500003604889
70,335,55484,6,0,P|132:313|147:196,2,189
59,239,57114,5,0,0:0:0:0:
155,280,57440,1,0,0:0:0:0:
240,225,57767,1,0,0:0:0:0:
214,131,58093,6,0,P|150:178|170:298,2,189
334,246,59723,70,0,P|262:254|219:207,2,126
457,145,60701,6,0,P|399:145|336:258,1,189
333,245,61680,1,0,0:0:0:0:
256,192,62332,12,0,65593,0:0:0:0:
169,61,65919,38,0,P|133:42|89:39,2,78.75
92,132,66571,2,0,P|51:136|17:168,2,78.75
126,148,67060,1,0,0:0:0:0:
126,148,67223,6,0,P|193:154|278:74,1,157.5
278,72,67712,2,0,L|445:55,1,157.5
379,185,68527,6,0,P|374:123|447:51,1,157.5
468,142,69180,2,0,B|430:155|430:155|308:130,1,157.5
225,34,69832,6,0,P|300:62|310:144,2,157.5
140,85,70810,1,0,0:0:0:0:
186,177,71136,2,0,P|217:152|234:103,2,78.75
117,243,71788,70,0,L|210:248,1,78.75
226,261,72114,1,0,0:0:0:0:
226,261,72277,6,0,P|268:272|307:254,2,78.75
202,235,72767,2,0,P|138:194|109:195,1,78.75
20,260,73419,6,0,P|69:267|133:160,1,157.5
133,154,73908,1,0,0:0:0:0:
133,154,74071,2,0,L|291:137,1,157.5
274,225,74723,2,0,P|226:193|221:143,1,78.75
222,134,75049,6,0,B|269:120|269:120|329:136,2,94.500003604889
162,218,76353,70,0,P|212:232|251:215,2,78.75
218,141,77006,6,0,P|260:129|287:83,2,78.75
190,122,77495,1,0,0:0:0:0:
190,122,77658,6,0,P|123:123|73:201,2,157.5
199,262,78636,2,0,P|165:233|161:189,1,78.75
181,169,78962,6,0,L|269:193,2,78.75
255,96,79614,2,0,L|347:121,2,78.75
145,159,80267,70,0,P|180:171|253:84,2,157.5
81,74,81245,1,0,0:0:0:0:
191,55,81571,6,0,P|217:92|215:139,2,78.75
130,131,82223,6,0,P|137:176|121:225,2,78.75
104,96,82712,1,0,0:0:0:0:
104,96,82875,6,0,P|178:80|256:152,2,157.5
126,235,83853,2,0,P|152:202|159:153,1,78.75
151,136,84180,6,0,L|149:44,2,78.75
247,177,84832,6,0,L|314:126,2,78.75
225,277,85484,6,0,P|284:258|352:308,2,126
256,192,86788,12,0,89396,0:0:0:0:
