osu file format v14

[General]
AudioFilename: supercell feat Tia - The Glory Days.mp3
AudioLeadIn: 0
PreviewTime: 65624
Countdown: 0
SampleSet: Normal
StackLeniency: 0.7
Mode: 0
LetterboxInBreaks: 0
WidescreenStoryboard: 0

[Editor]
Bookmarks: 1059,13776,23396,24211,45081,54211,55515,65624
DistanceSpacing: 1.18
BeatDivisor: 4
GridSize: 8
TimelineZoom: 2.1

[Metadata]
Title:The Glory Days
TitleUnicode:The Glory Days
Artist:Tia
ArtistUnicode:Tia
Creator:[ - Zekks - ]
Version:Hi-Speed Insane
Source:
Tags:tv size
BeatmapID:1177287
BeatmapSetID:555873

[Difficulty]
HPDrainRate:6.5
CircleSize:3
OverallDifficulty:7
ApproachRate:9.6
SliderMultiplier:2
SliderTickRate:1

[Events]
//Background and Video events
0,0,"maxresdefault (4).jpg",0,0
//Break Periods
//Storyboard Layer 0 (Background)
//Storyboard Layer 1 (Fail)
//Storyboard Layer 2 (Pass)
//Storyboard Layer 3 (Foreground)
//Storyboard Sound Samples

[TimingPoints]
1059,326.086956521739,4,1,0,100,1,0
3015,-100,4,1,0,100,0,0
3310,326.086956521739,4,1,0,100,1,0
3310,-142.857142857143,4,1,0,100,0,0
9505,-142.857142857143,4,1,0,100,0,0
9587,-142.857142857143,4,1,0,100,0,0
9668,-142.857142857143,4,1,0,100,0,0
9750,-142.857142857143,4,1,0,100,0,0
9831,-142.857142857143,4,1,0,100,0,0
13744,-100,4,1,0,100,0,0
45049,-133.333333333333,4,1,0,100,0,0
46679,-200,4,1,0,100,0,0
47657,-133.333333333333,4,1,0,100,0,0
49288,-200,4,1,0,100,0,0
50266,-133.333333333333,4,1,0,100,0,0
51896,-200,4,1,0,100,0,0
52875,-133.333333333333,4,1,0,100,0,0
54505,-133.333333333333,4,1,0,100,0,0
54831,-100,4,1,0,100,0,0
55157,-80,4,1,0,100,0,0
55483,-100,4,1,0,100,0,0
63309,-133.333333333333,4,1,0,100,0,0
63391,-133.333333333333,4,1,0,100,0,0
64451,-200,4,1,0,100,0,0
65918,-100,4,1,0,100,0,1
75049,-133.333333333333,4,1,0,100,0,0
76353,-100,4,1,0,100,0,1
85483,-100,4,1,0,100,0,0
86788,-400,4,1,0,100,0,0
86869,-400,4,1,0,100,0,0

[Colours]
Combo1 : 167,153,190
Combo2 : 228,179,149
Combo3 : 240,212,195
Combo4 : 190,165,141
Combo5 : 218,113,113
Combo6 : 110,90,142
Combo7 : 40,98,156
Combo8 : 221,156,190

[HitObjects]
256,192,1059,12,0,3015,0:0:0:0:
169,99,3310,6,0,P|129:161|162:244,1,139.999995727539
286,181,3962,2,0,L|195:173,1,69.9999978637696
346,91,4288,2,0,L|253:86,1,69.9999978637696
352,281,4614,5,0,0:0:0:0:
425,184,4777,1,0,0:0:0:0:
181,201,4940,2,0,P|169:237|187:281,1,69.9999978637696
292,305,5267,2,0,P|265:269|174:268,1,139.999995727539
176,266,5674,1,0,0:0:0:0:
176,266,5756,1,0,0:0:0:0:
217,361,5918,5,0,0:0:0:0:
356,173,6081,1,0,0:0:0:0:
219,208,6244,2,0,L|253:265,2,34.9999989318848
195,83,6570,5,0,0:0:0:0:
312,181,6733,1,0,0:0:0:0:
219,208,6896,2,0,L|186:237,2,34.9999989318848
99,88,7223,69,0,0:0:0:0:
113,313,7386,1,0,0:0:0:0:
175,186,7549,2,0,P|136:174|91:190,1,69.9999978637696
230,257,7875,2,0,P|264:219|228:123,1,139.999995727539
113,214,8364,1,0,0:0:0:0:
180,325,8527,6,0,B|212:310|212:310|325:333,1,139.999995727539
96,366,9016,6,0,P|78:330|93:273,1,69.9999978637696
418,285,9342,1,0,0:0:0:0:
291,352,9505,1,0,0:0:0:0:
275,313,9587,1,0,0:0:0:0:
275,271,9668,1,0,0:0:0:0:
286,231,9750,1,0,0:0:0:0:
312,199,9831,6,0,L|340:295,1,69.9999978637696
218,129,10157,2,0,L|203:221,1,69.9999978637696
124,72,10483,2,0,B|105:176|106:176|106:176|75:214,1,139.999995727539
84,202,10891,1,0,0:0:0:0:
84,202,10973,1,0,0:0:0:0:
68,20,11136,70,0,B|137:12|137:12|214:51,1,139.999995727539
197,270,11625,1,0,0:0:0:0:
122,163,11788,2,0,P|119:120|139:82,2,69.9999978637696
197,270,12277,1,0,0:0:0:0:
42,97,12440,5,0,0:0:0:0:
238,112,12603,1,0,0:0:0:0:
145,299,12766,2,0,L|155:256,2,34.9999989318848
344,236,13092,5,0,0:0:0:0:
52,283,13255,1,0,0:0:0:0:
220,205,13418,6,0,L|218:261,2,34.9999989318848
172,130,13745,70,0,P|218:114|301:235,1,200
201,297,14233,2,0,P|197:247|246:185,1,100
293,275,14559,1,0,0:0:0:0:
293,275,14641,1,0,0:0:0:0:
293,275,14723,2,0,P|334:248|405:275,1,100
300,365,15049,5,0,0:0:0:0:
154,230,15212,1,0,0:0:0:0:
378,178,15375,1,0,0:0:0:0:
113,236,15538,2,0,B|160:213|160:213|312:247,1,200
47,298,16027,2,0,P|21:254|37:184,1,100
305,238,16353,5,0,0:0:0:0:
115,233,16516,1,0,0:0:0:0:
208,97,16679,1,0,0:0:0:0:
208,97,16761,1,0,0:0:0:0:
208,97,16842,2,0,P|255:124|275:174,1,100
207,310,17168,1,0,0:0:0:0:
126,53,17331,2,0,P|165:15|223:13,1,100
264,168,17657,6,0,P|221:142|209:83,1,100
373,224,17983,2,0,B|321:201|321:201|172:233,1,200
181,231,18391,1,0,0:0:0:0:
181,231,18473,1,0,0:0:0:0:
324,327,18636,1,0,0:0:0:0:
324,327,18717,1,0,0:0:0:0:
324,327,18799,1,0,0:0:0:0:
276,98,18962,70,0,P|200:123|197:254,1,200
338,256,19451,1,0,0:0:0:0:
338,256,19532,1,0,0:0:0:0:
338,256,19614,2,0,P|303:210|251:194,1,100
140,323,19940,1,0,0:0:0:0:
430,210,20103,5,0,0:0:0:0:
420,191,20184,1,0,0:0:0:0:
410,170,20266,1,0,0:0:0:0:
332,69,20429,2,0,L|307:178,1,100
318,259,20755,1,0,0:0:0:0:
405,78,20918,2,0,P|387:21|332:-2,1,100
256,121,21244,6,0,P|311:120|355:1,1,200
355,1,21652,1,0,0:0:0:0:
355,1,21733,1,0,0:0:0:0:
171,70,21896,2,0,B|155:119|155:119|203:279,1,200
296,167,22386,1,0,0:0:0:0:
68,141,22549,2,0,P|63:198|109:253,2,100
302,166,23038,5,0,0:0:0:0:
67,141,23201,1,0,0:0:0:0:
218,67,23364,1,0,0:0:0:0:
220,83,23445,1,0,0:0:0:0:
224,102,23527,1,0,0:0:0:0:
229,121,23608,1,0,0:0:0:0:
233,138,23690,1,0,0:0:0:0:
240,181,23771,1,0,0:0:0:0:
200,164,23853,1,0,0:0:0:0:
155,161,23934,1,0,0:0:0:0:
113,178,24016,1,0,0:0:0:0:
82,210,24098,1,0,0:0:0:0:
62,249,24179,70,0,P|78:296|221:291,1,200
147,147,24668,1,0,0:0:0:0:
147,147,24831,2,0,B|132:198|132:198|156:273,1,100
251,105,25157,2,0,P|234:54|168:26,1,100
165,125,25483,6,0,L|365:111,1,200
391,82,25973,2,0,L|495:70,1,100
452,192,26299,1,0,0:0:0:0:
452,192,26380,1,0,0:0:0:0:
452,192,26462,2,0,L|347:201,1,100
215,106,26788,6,0,P|295:105|345:226,1,200
114,304,27277,2,0,P|136:256|193:218,1,100
257,188,27603,1,0,0:0:0:0:
27,336,27766,2,0,P|24:285|80:220,1,100
202,267,28092,6,0,P|153:300|95:300,1,100
260,97,28418,1,0,0:0:0:0:
339,210,28581,1,0,0:0:0:0:
153,163,28744,2,0,L|46:141,1,100
329,74,29070,2,0,L|213:93,1,100
434,172,29396,70,0,B|440:20|440:20|410:78,1,200
339,210,29886,1,0,0:0:0:0:
444,304,30049,2,0,P|400:270|286:348,1,200
288,331,30456,1,0,0:0:0:0:
288,331,30538,1,0,0:0:0:0:
442,304,30701,6,0,B|461:257|461:257|408:102,1,200
209,185,31190,1,0,0:0:0:0:
344,245,31353,2,0,P|377:205|373:132,1,100
222,89,31679,2,0,P|233:143|284:174,1,100
320,27,32005,6,0,B|224:-5|224:-5|116:33,1,200
160,247,32494,1,0,0:0:0:0:
247,180,32657,2,0,P|247:130|207:77,2,100
160,247,33146,1,0,0:0:0:0:
331,101,33309,6,0,P|288:61|150:137,1,200
244,154,33799,1,0,0:0:0:0:
431,145,33962,2,0,B|438:95|438:95|420:33,2,100
352,216,34451,69,0,0:0:0:0:
352,216,34532,1,0,0:0:0:0:
352,216,34614,2,0,P|423:172|496:273,1,200
244,286,35103,1,0,0:0:0:0:
299,31,35266,2,0,B|335:67|335:67|353:227,1,200
224,136,35755,1,0,0:0:0:0:
442,74,35918,6,0,L|424:281,1,200
255,77,36407,1,0,0:0:0:0:
354,3,36570,2,0,P|373:53|358:116,1,100
315,188,36896,2,0,P|293:236|309:290,1,100
447,125,37223,6,0,B|323:74|323:74|247:96,1,200
251,327,37712,1,0,0:0:0:0:
339,257,37875,2,0,P|345:202|316:158,1,100
181,171,38201,2,0,P|215:214|283:215,1,100
144,22,38527,5,0,0:0:0:0:
62,141,38690,1,0,0:0:0:0:
251,141,38853,2,0,B|212:114|212:114|48:143,1,200
177,370,39342,1,0,0:0:0:0:
230,291,39505,2,0,B|219:241|219:241|173:181,1,100
140,288,39831,70,0,P|181:257|310:325,1,200
44,345,40320,1,0,0:0:0:0:
46,123,40483,2,0,B|90:146|90:146|141:291,1,200
17,223,40973,1,0,0:0:0:0:
201,125,41136,6,0,P|217:182|123:291,1,200
118,63,41625,1,0,0:0:0:0:
377,155,41788,2,0,P|391:207|355:272,1,100
233,239,42114,2,0,P|225:189|259:130,1,100
374,325,42440,6,0,B|233:273|233:273|177:292,1,200
101,334,42929,1,0,0:0:0:0:
461,357,43092,2,0,P|464:305|435:254,1,100
361,194,43418,2,0,P|336:149|367:76,1,100
443,262,43744,6,0,B|359:289|359:289|234:244,1,200
419,171,44233,2,0,P|446:217|435:279,1,100
358,57,44559,2,0,P|346:100|378:165,1,100
458,90,44886,1,0,0:0:0:0:
196,70,45049,70,0,P|225:103|235:165,1,75.0000028610231
84,184,45375,2,0,P|113:152|170:143,1,75.0000028610231
212,283,45701,2,0,P|177:261|167:213,1,75.0000028610231
295,347,46027,2,0,B|256:332|256:332|137:354,1,150.000005722046
301,75,46679,6,0,B|319:104|319:104|318:188,2,100
163,191,47657,5,0,0:0:0:0:
343,248,47820,1,0,0:0:0:0:
388,76,47983,1,0,0:0:0:0:
309,184,48146,2,0,P|319:223|371:257,1,75.0000028610231
345,89,48473,1,0,0:0:0:0:
240,246,48636,2,0,P|273:280|389:272,1,150.000005722046
185,160,49288,6,0,P|149:187|144:252,2,100
285,288,50266,70,0,P|243:267|230:215,1,75.0000028610231
326,134,50592,2,0,P|331:169|310:217,1,75.0000028610231
166,151,50918,2,0,P|204:145|247:171,1,75.0000028610231
107,217,51244,2,0,P|74:142|126:71,1,150.000005722046
263,148,51896,6,0,B|213:160|213:160|150:148,2,100
377,72,52875,5,0,0:0:0:0:
167,79,53038,1,0,0:0:0:0:
273,254,53201,2,0,P|310:241|335:205,1,75.0000028610231
357,44,53527,1,0,0:0:0:0:
130,96,53690,2,0,P|174:140|262:106,1,150.000005722046
191,21,54342,5,0,0:0:0:0:
147,219,54505,70,0,L|245:210,1,75.0000028610231
282,301,54831,6,0,L|159:305,1,100
206,136,55157,6,0,L|349:145,1,125
120,261,55483,6,0,P|90:216|102:158,1,100
283,192,55809,2,0,P|235:208|174:180,1,100
304,32,56136,1,0,0:0:0:0:
391,123,56299,1,0,0:0:0:0:
209,141,56462,2,0,P|196:83|315:39,1,200
303,31,56869,1,0,0:0:0:0:
303,31,56951,1,0,0:0:0:0:
147,223,57114,70,0,L|121:117,1,100
236,283,57440,2,0,L|259:168,1,100
331,272,57766,2,0,B|364:270|364:270|438:312,1,100
253,326,58092,6,0,B|233:279|233:279|251:193,1,100
459,263,58418,1,0,0:0:0:0:
161,334,58581,2,0,P|204:239|309:247,1,200
321,321,59070,2,0,P|287:275|302:212,1,100
452,181,59396,6,0,B|439:230|439:230|314:325,1,200
274,96,59886,1,0,0:0:0:0:
452,181,60049,2,0,L|418:309,1,100
346,96,60375,2,0,L|361:205,1,100
213,56,60701,5,0,0:0:0:0:
338,5,60864,1,0,0:0:0:0:
303,232,61027,2,0,P|282:183|333:130,1,100
470,159,61353,2,0,P|421:192|347:161,1,100
365,14,61679,2,0,B|386:36|386:36|405:124,1,100
333,180,62005,70,0,P|389:159|431:286,1,200
450,260,62413,1,0,0:0:0:0:
450,260,62495,1,0,0:0:0:0:
264,251,62657,1,0,0:0:0:0:
264,251,62739,1,0,0:0:0:0:
264,251,62820,1,0,0:0:0:0:
302,63,62983,1,0,0:0:0:0:
302,63,63065,1,0,0:0:0:0:
302,63,63146,1,0,0:0:0:0:
256,192,63309,12,0,64532,0:0:0:0:
256,192,64614,12,0,65592,0:0:0:0:
93,299,65918,54,0,P|148:298|179:240,1,100
239,129,66244,2,0,L|278:233,1,100
347,35,66570,2,0,L|349:148,1,100
344,348,66896,1,0,0:0:0:0:
241,257,67059,1,0,0:0:0:0:
455,227,67223,6,0,L|322:201,1,100
347,35,67549,2,0,P|391:69|405:139,1,100
187,226,67875,2,0,P|195:163|314:120,1,200
339,132,68282,1,0,0:0:0:0:
339,132,68364,1,0,0:0:0:0:
406,313,68527,5,0,0:0:0:0:
290,221,68690,1,0,0:0:0:0:
215,336,68853,2,0,L|94:321,1,100
209,145,69179,2,8,L|185:260,1,100
103,64,69505,2,0,L|117:173,1,100,8|0,0:0|0:0,0:0:0:0:
208,254,69831,5,0,0:0:0:0:
275,133,69994,1,0,0:0:0:0:
349,242,70157,1,0,0:0:0:0:
257,105,70320,1,0,0:0:0:0:
172,286,70483,69,0,0:0:0:0:
172,286,70565,1,0,0:0:0:0:
172,286,70646,1,0,0:0:0:0:
280,75,70809,1,0,0:0:0:0:
389,277,70972,1,0,0:0:0:0:
170,133,71136,6,0,P|213:100|272:115,1,100
241,199,71462,2,0,P|280:234|287:297,1,100
49,274,71788,1,0,0:0:0:0:
141,161,71951,1,0,0:0:0:0:
228,326,72114,2,0,P|271:359|330:342,1,100
201,96,72440,5,0,0:0:0:0:
124,350,72603,1,0,0:0:0:0:
301,214,72766,5,0,0:0:0:0:
62,178,72929,2,0,P|117:177|148:40,1,200
52,81,73418,2,0,B|43:113|43:113|66:193,1,100
212,244,73744,69,0,0:0:0:0:
275,181,73907,2,0,P|223:151|117:225,1,200
390,279,74396,2,0,L|499:265,1,100
275,181,74723,2,0,L|389:195,1,100
164,94,75049,5,0,0:0:0:0:
158,112,75130,1,0,0:0:0:0:
161,132,75212,1,0,0:0:0:0:
172,150,75293,1,0,0:0:0:0:
179,170,75375,1,0,0:0:0:0:
153,201,75456,1,0,0:0:0:0:
110,184,75538,1,0,0:0:0:0:
104,142,75619,1,0,0:0:0:0:
133,110,75701,1,0,0:0:0:0:
176,108,75782,1,0,0:0:0:0:
209,136,75864,1,0,0:0:0:0:
215,179,75945,1,0,0:0:0:0:
180,207,76027,1,0,0:0:0:0:
229,206,76108,1,0,0:0:0:0:
278,206,76190,1,0,0:0:0:0:
327,205,76271,1,0,0:0:0:0:
376,204,76353,6,0,P|431:199|464:152,1,100
498,63,76679,5,0,0:0:0:0:
295,128,76842,2,0,P|280:181|320:253,1,100
455,326,77168,2,0,P|414:277|354:271,1,100
173,285,77494,1,0,0:0:0:0:
292,357,77657,69,0,0:0:0:0:
247,148,77820,2,0,P|193:150|151:208,1,100
399,294,78146,1,0,0:0:0:0:
200,59,78309,6,0,L|253:161,1,100
318,25,78636,1,0,0:0:0:0:
318,25,78717,1,0,0:0:0:0:
318,25,78799,1,0,0:0:0:0:
348,234,78962,6,0,L|471:245,1,100
246,147,79288,2,0,L|374:125,1,100
64,90,79614,1,0,0:0:0:0:
182,216,79777,1,0,0:0:0:0:
288,58,79940,2,0,P|242:49|181:109,1,100
207,315,80266,5,0,0:0:0:0:
319,181,80429,1,0,0:0:0:0:
331,346,80592,69,0,0:0:0:0:
179,180,80755,1,0,0:0:0:0:
147,316,80918,5,0,0:0:0:0:
389,223,81081,1,0,0:0:0:0:
150,164,81244,5,0,0:0:0:0:
150,164,81326,1,0,0:0:0:0:
150,164,81407,1,0,0:0:0:0:
294,290,81570,6,0,P|340:270|353:201,1,100
298,102,81896,1,0,0:0:0:0:
298,102,81978,1,0,0:0:0:0:
298,102,82059,1,0,0:0:0:0:
186,272,82223,2,0,L|235:383,1,100
102,119,82549,2,0,L|119:11,1,100
267,217,82875,70,0,L|384:236,1,100
249,70,83201,2,0,P|197:95|181:165,1,100
365,139,83527,1,0,0:0:0:0:
235,31,83690,1,0,0:0:0:0:
139,234,83853,2,0,P|187:244|242:199,1,100
160,127,84179,53,0,0:0:0:0:
49,70,84342,1,0,0:0:0:0:
70,265,84505,1,0,0:0:0:0:
70,265,84587,1,0,0:0:0:0:
70,265,84668,1,0,0:0:0:0:
165,96,84831,5,0,0:0:0:0:
13,198,84994,1,0,0:0:0:0:
228,229,85157,5,0,0:0:0:0:
20,105,85320,1,0,0:0:0:0:
197,220,85483,6,0,L|311:184,1,100
152,144,85809,2,0,P|112:184|120:264,1,100
287,357,86136,2,0,P|295:293|183:221,1,200
256,192,86788,12,0,89396,0:0:0:0:
