osu file format v14

[General]
AudioFilename: optc.mp3
AudioLeadIn: 1500
PreviewTime: 58461
Countdown: 0
SampleSet: None
StackLeniency: 0.7
Mode: 0
LetterboxInBreaks: 0
WidescreenStoryboard: 0

[Editor]
DistanceSpacing: 1.8
BeatDivisor: 3
GridSize: 16
TimelineZoom: 1

[Metadata]
Title:Nirvana
TitleUnicode:ニルバナ
Artist:Tia
ArtistUnicode:Tia
Creator:[ Rizen ]
Version:Hyper
Source:ノラガミ ARAGOTO
Tags:noragami season two ending tv size supercell ryo moph iamkwan
BeatmapID:807636
BeatmapSetID:361877

[Difficulty]
HPDrainRate:5
CircleSize:4
OverallDifficulty:6.8
ApproachRate:7.8
SliderMultiplier:1.6
SliderTickRate:1

[Events]
//Background and Video events
Video,80,"optc.flv"
0,0,"bg.jpg",0,0
//Break Periods
//Storyboard Layer 0 (Background)
//Storyboard Layer 1 (Fail)
//Storyboard Layer 2 (Pass)
//Storyboard Layer 3 (Foreground)
//Storyboard Sound Samples

[TimingPoints]
-566,416.666666666667,4,2,1,60,1,0
13184,-100,4,3,1,60,0,0
27767,-100,4,2,1,60,0,0
39434,-100,4,3,1,60,0,0
59434,-100,4,3,0,80,0,1
86100,-100,4,3,0,70,0,0

[Colours]
Combo1 : 255,177,140
Combo2 : 57,255,200
Combo3 : 236,250,116
Combo4 : 203,103,214

[HitObjects]
61,234,684,6,0,L|165:253,1,106.666666666667,0|0,0:0|0:0,0:0:0:0:
237,316,1100,6,0,P|259:268|253:216,1,106.666666666667,4|0,0:0|0:0,0:0:0:0:
175,157,1517,2,0,P|168:104|191:57,1,106.666666666667,0|0,0:0|0:0,0:0:0:0:
280,21,1934,2,0,L|386:28,1,106.666666666667,4|0,0:0|0:0,0:0:0:0:
386,28,2350,1,0,0:0:0:0:
501,181,2628,1,0,0:0:0:0:
474,272,2767,6,0,P|406:170|495:86,1,266.666666666667,4|0,0:0|0:0,0:0:0:0:
495,86,3600,1,2,0:0:0:0:
25,187,4295,1,0,0:0:0:0:
92,253,4434,6,0,P|117:207|112:155,1,106.666666666667,4|0,0:0|0:0,0:0:0:0:
39,93,4850,2,0,P|82:62|134:61,1,106.666666666667,0|0,0:0|0:0,0:0:0:0:
210,122,5267,2,0,L|339:145,1,106.666666666667,4|0,0:0|0:0,0:0:0:0:
385,207,5684,2,0,P|410:160|405:108,1,106.666666666667,0|0,0:0|0:0,0:0:0:0:
315,141,6100,6,0,P|306:263|425:297,1,266.666666666667,4|0,0:0|0:0,0:0:0:0:
478,215,6934,1,2,0:0:0:0:
210,122,7767,6,0,L|81:145,2,106.666666666667,4|0|0,0:0|0:0|0:0,0:0:0:0:
321,278,8600,2,0,L|450:301,2,106.666666666667,4|0|0,0:0|0:0|0:0,0:0:0:0:
128,293,9434,6,0,P|122:240|144:192,1,106.666666666667,4|0,0:0|0:0,0:0:0:0:
210,121,9850,2,0,P|231:73|226:21,1,106.666666666667,0|0,0:0|0:0,0:0:0:0:
138,62,10267,1,0,0:0:0:0:
313,140,10545,1,0,0:0:0:0:
369,217,10684,2,0,P|404:178|404:126,1,106.666666666667,2|0,0:0|0:0,0:0:0:0:
348,48,11100,6,0,P|405:101|483:99,1,160,4|0,0:0|0:0,0:0:0:0:
436,286,11795,1,0,0:0:0:0:
369,217,11934,2,0,P|318:208|271:231,1,106.666666666667,4|0,0:0|0:0,0:0:0:0:
233,320,12350,2,0,P|284:329|331:306,1,106.666666666667
271,231,12767,5,4,0:0:0:0:
0,126,13184,1,0,0:0:0:0:
268,22,13600,2,0,L|337:16,2,53.3333333333333,8|0|0,0:0|0:0|0:0,0:0:0:0:
177,56,14017,1,0,0:0:0:0:
177,56,14434,6,0,P|223:120|228:198,1,160,4|0,0:0|0:0,0:0:0:0:
63,295,15128,1,0,0:0:0:0:
0,221,15267,2,0,P|74:197|140:237,1,160,2|0,0:0|0:0,0:0:0:0:
271,378,15961,1,0,0:0:0:0:
364,354,16100,6,0,P|391:309|391:256,1,106.666666666667,4|0,0:0|0:0,0:0:0:0:
299,283,16517,2,0,P|299:230|326:185,1,106.666666666667,4|0,0:0|0:0,0:0:0:0:
421,166,16934,2,0,P|396:119|350:93,1,106.666666666667,2|0,0:0|0:0,0:0:0:0:
259,123,17350,1,0,0:0:0:0:
73,71,17628,1,0,0:0:0:0:
165,44,17767,6,0,P|157:121|94:166,1,160,4|0,0:0|0:0,0:0:0:0:
2,335,18461,1,0,0:0:0:0:
91,300,18600,2,0,L|197:295,1,106.666666666667,2|0,0:0|0:0,0:0:0:0:
278,347,19017,2,0,L|384:351,1,106.666666666667,0|0,0:0|0:0,0:0:0:0:
459,289,19434,6,0,L|512:283,2,53.3333333333333,4|0|0,0:0|0:0|0:0,0:0:0:0:
369,253,19850,2,0,P|344:206|341:153,1,106.666666666667,4|0,0:0|0:0,0:0:0:0:
414,90,20267,2,0,P|345:57|291:72,1,106.666666666667,2|0,0:0|0:0,0:0:0:0:
246,126,20684,2,0,L|237:168,5,26.6666666666667,0|0|0|0|0|0,0:0|0:0|0:0|0:0|0:0|0:0,0:0:0:0:
249,105,21100,6,0,P|191:59|92:71,1,160,4|0,0:0|0:0,0:0:0:0:
0,210,21795,1,0,0:0:0:0:
29,300,21934,2,0,P|86:249|85:171,1,160,2|0,0:0|0:0,0:0:0:0:
254,80,22628,1,0,0:0:0:0:
347,102,22767,6,0,P|322:149|276:174,1,106.666666666667,4|0,0:0|0:0,0:0:0:0:
182,150,23184,2,0,P|180:202|209:247,1,106.666666666667,4|0,0:0|0:0,0:0:0:0:
303,265,23600,2,0,L|406:237,1,106.666666666667,2|0,0:0|0:0,0:0:0:0:
501,249,24017,1,0,0:0:0:0:
256,192,24434,12,2,26934,0:0:0:0:
461,325,27350,6,0,L|355:310,1,106.666666666667,0|0,0:0|0:0,0:0:0:0:
265,347,27767,6,0,P|258:294|280:246,1,106.666666666667,4|0,0:2|0:0,0:0:0:0:
372,216,28184,2,0,P|393:167|387:115,1,106.666666666667,0|0,0:0|0:0,0:0:0:0:
300,155,28600,2,0,L|194:140,1,106.666666666667,0|0,0:0|0:0,0:0:0:0:
106,180,29017,1,2,0:0:0:0:
201,13,29295,1,0,0:0:0:0:
275,73,29434,6,0,L|381:88,1,106.666666666667,4|0,0:2|0:0,0:0:0:0:
443,160,29850,2,0,L|337:175,1,106.666666666667,0|0,0:0|0:0,0:0:0:0:
307,266,30267,2,0,P|262:237|240:189,1,106.666666666667,0|0,0:0|0:0,0:0:0:0:
155,143,30684,1,2,0:0:0:0:
71,315,30961,1,0,0:0:0:0:
164,335,31100,6,0,P|161:282|131:239,1,106.666666666667,4|0,0:2|0:0,0:0:0:0:
155,143,31517,1,0,0:0:0:0:
334,75,31795,2,0,L|350:181,1,106.666666666667,0|0,0:0|0:0,0:0:0:0:
420,115,32211,2,0,L|436:221,1,106.666666666667,0|0,0:0|0:0,0:0:0:0:
358,278,32628,1,0,0:0:0:0:
271,232,32767,6,0,P|219:232|170:254,1,106.666666666667,4|0,0:2|0:0,0:0:0:0:
141,346,33184,2,0,P|92:367|39:367,1,106.666666666667,0|0,0:0|0:0,0:0:0:0:
75,278,33600,1,2,0:0:0:0:
271,232,34434,6,0,L|251:336,2,106.666666666667,0|0|0,0:0|0:0|0:0,0:0:0:0:
437,136,35267,2,0,L|456:31,2,106.666666666667,0|0|0,0:0|0:0|0:0,0:0:0:0:
270,231,36100,6,0,P|244:186|243:133,1,106.666666666667,4|0,0:2|0:0,0:0:0:0:
314,67,36517,2,0,P|268:41|215:41,1,106.666666666667,0|0,0:0|0:0,0:0:0:0:
147,110,36934,1,0,0:0:0:0:
333,154,37211,1,0,0:0:0:0:
270,231,37350,2,0,P|318:251|371:244,1,106.666666666667,2|0,0:0|0:0,0:0:0:0:
432,169,37767,6,0,P|414:93|348:52,1,160,4|0,0:2|0:0,0:0:0:0:
203,178,38461,1,0,0:0:0:0:
109,200,38600,2,0,P|112:147|141:103,1,106.666666666667,0|0,0:0|0:0,0:0:0:0:
235,85,39017,2,0,P|279:114|303:161,1,106.666666666667,0|0,0:0|0:0,0:0:0:0:
267,250,39434,5,2,0:2:0:0:
449,192,39711,1,0,0:0:0:0:
405,379,39989,1,0,0:0:0:0:
333,314,40128,1,0,0:0:0:0:
267,250,40267,2,0,B|214:246|214:246|165:265|165:265|110:261,1,160,0|0,0:0|0:0,0:0:0:0:
143,72,40961,1,0,0:0:0:0:
234,51,41100,6,0,P|219:128|152:167,1,160,4|0,0:2|0:0,0:0:0:0:
79,345,41795,1,0,0:0:0:0:
169,377,41934,2,0,L|188:272,1,106.666666666667,2|0,0:2|0:0,0:0:0:0:
281,247,42350,1,2,0:0:0:0:
464,304,42628,1,0,0:0:0:0:
377,344,42767,6,0,P|370:291|390:242,1,106.666666666667,4|0,0:0|0:0,0:0:0:0:
480,208,43184,2,0,P|499:158|493:106,1,106.666666666667,0|0,0:0|0:0,0:0:0:0:
418,45,43600,1,2,0:2:0:0:
229,5,43878,1,0,0:0:0:0:
134,21,44017,2,0,P|159:67|204:94,1,106.666666666667,2|0,0:0|0:0,0:0:0:0:
297,70,44434,6,0,P|285:146|221:191,1,160,4|0,0:0|0:0,0:0:0:0:
32,157,45128,1,0,0:0:0:0:
124,131,45267,2,0,P|124:183|95:227,1,106.666666666667,2|0,0:2|0:0,0:0:0:0:
18,285,45684,2,0,L|121:311,1,106.666666666667,2|0,0:0|0:0,0:0:0:0:
193,247,46100,6,0,P|245:244|293:266,1,106.666666666667,4|0,0:0|0:0,0:0:0:0:
339,351,46517,2,0,P|387:372|439:370,1,106.666666666667,4|0,0:0|0:0,0:0:0:0:
512,306,46934,1,2,0:2:0:0:
448,125,47211,1,0,0:0:0:0:
356,146,47350,2,0,P|380:193|427:218,1,106.666666666667,2|0,0:0|0:0,0:0:0:0:
448,125,47767,6,0,P|422:79|375:56,1,106.666666666667,4|0,0:0|0:0,0:0:0:0:
285,20,48184,1,2,0:2:0:0:
129,132,48461,1,0,0:0:0:0:
45,83,48600,2,0,P|84:46|135:36,1,106.666666666667,2|0,0:2|0:0,0:0:0:0:
213,92,49017,2,0,L|245:192,1,106.666666666667,2|0,0:0|0:0,0:0:0:0:
331,234,49434,6,0,P|298:274|247:288,1,106.666666666667,4|0,0:0|0:0,0:0:0:0:
165,241,49850,2,0,P|113:255|80:295,1,106.666666666667,0|0,0:0|0:0,0:0:0:0:
5,231,50267,2,0,P|58:173|133:146,1,160,2|2,0:2|0:0,0:0:0:0:
319,195,50961,1,0,0:0:0:0:
387,260,51100,6,0,P|410:186|372:119,1,160,4|0,0:0|0:0,0:0:0:0:
186,69,51795,1,0,0:0:0:0:
94,99,51934,2,0,P|125:142|174:163,1,106.666666666667,2|0,0:2|0:0,0:0:0:0:
262,123,52350,2,0,P|277:72|264:21,1,106.666666666667,2|0,0:0|0:0,0:0:0:0:
186,69,52767,5,4,0:0:0:0:
108,244,53045,1,0,0:0:0:0:
52,165,53184,2,0,L|-1:169,2,53.3333333333333,0|0|0,0:0|0:0|0:0,0:0:0:0:
147,153,53600,2,0,P|201:208|198:286,1,160,2|2,0:2|0:0,0:0:0:0:
52,165,54295,1,0,0:0:0:0:
91,77,54434,6,0,L|250:63,1,160,4|0,0:3|0:0,0:0:0:0:
414,163,55128,1,0,0:0:0:0:
448,73,55267,2,0,L|341:81,1,106.666666666667,2|0,0:2|0:0,0:0:0:0:
250,63,55684,1,2,0:0:0:0:
86,162,55961,1,0,0:0:0:0:
178,187,56100,6,0,L|284:176,1,106.666666666667,4|0,0:0|0:0,0:0:0:0:
284,176,56517,1,8,0:2:0:0:
122,346,56934,2,0,L|15:356,1,106.666666666667,4|0,0:0|0:0,0:0:0:0:
16,357,57351,1,8,0:2:0:0:
298,304,57767,2,0,L|404:293,1,106.666666666667,4|0,0:0|0:0,0:0:0:0:
404,293,58184,1,8,0:2:0:0:
81,33,59434,6,0,P|70:84|87:134,1,106.666666666667,4|0,0:0|0:0,0:0:0:0:
178,164,59850,1,4,0:0:0:0:
345,69,60128,1,0,0:0:0:0:
432,108,60267,2,0,P|397:147|346:161,1,106.666666666667,4|0,0:0|0:0,0:0:0:0:
264,111,60684,2,0,P|213:125|178:164,1,106.666666666667,6|0,0:0|0:0,0:0:0:0:
170,259,61100,6,0,L|194:306,2,53.3333333333333,6|2|2,0:0|0:0|0:0,0:0:0:0:
85,211,61517,1,6,0:0:0:0:
273,246,61795,1,0,0:0:0:0:
355,295,61934,2,0,L|380:191,1,106.666666666667,4|0,0:0|0:0,0:0:0:0:
450,126,62350,2,0,P|404:98|352:99,1,106.666666666667,4|0,0:0|0:0,0:0:0:0:
284,168,62767,6,0,P|257:122|258:69,1,106.666666666667,4|0,0:0|0:0,0:0:0:0:
333,8,63184,1,4,0:0:0:0:
379,191,63461,1,0,0:0:0:0:
284,168,63600,2,0,P|231:170|187:199,1,106.666666666667,4|0,0:0|0:0,0:0:0:0:
127,276,64017,2,0,P|97:232|94:179,1,106.666666666667,4|0,0:0|0:0,0:0:0:0:
162,111,64434,6,0,L|264:80,1,106.666666666667,6|2,0:0|0:0,0:0:0:0:
333,8,64850,1,6,0:0:0:0:
508,236,65267,2,0,L|402:245,1,106.666666666667,4|0,0:0|0:0,0:0:0:0:
318,195,65684,2,0,L|299:144,2,53.3333333333333,4|0|0,0:0|0:0|0:0,0:0:0:0:
322,290,66100,6,0,P|312:341|275:379,1,106.666666666667,4|0,0:0|0:0,0:0:0:0:
178,366,66517,1,4,0:0:0:0:
25,249,66795,1,0,0:0:0:0:
25,249,66934,1,4,0:0:0:0:
212,211,67211,1,0,0:0:0:0:
212,211,67350,1,4,0:0:0:0:
52,105,67628,1,0,0:0:0:0:
143,77,67767,6,0,L|265:90,1,106.666666666667,6|2,0:0|0:0,0:0:0:0:
344,70,68184,1,6,0:0:0:0:
429,113,68322,2,0,P|434:138|433:165,1,53.3333333333333,0|0,0:0|0:0,0:0:0:0:
370,238,68600,2,0,P|419:260|471:253,1,106.666666666667,4|0,0:0|0:0,0:0:0:0:
432,165,69017,1,4,0:0:0:0:
246,213,69295,1,0,0:0:0:0:
176,279,69434,6,0,P|153:231|157:178,1,106.666666666667,4|0,0:0|0:0,0:0:0:0:
237,124,69850,1,4,0:0:0:0:
46,102,70128,1,0,0:0:0:0:
56,199,70267,2,0,P|108:202|156:179,1,106.666666666667,4|0,0:0|0:0,0:0:0:0:
237,124,70684,1,4,0:0:0:0:
418,63,70961,1,0,0:0:0:0:
491,124,71100,6,0,P|448:155|396:157,1,106.666666666667,4|0,0:2|0:0,0:0:0:0:
322,94,71517,2,0,P|297:140|303:192,1,106.666666666667,4|0,0:2|0:0,0:0:0:0:
378,254,71934,2,0,P|383:306|359:352,1,106.666666666667,4|0,0:2|0:0,0:0:0:0:
267,381,72350,1,2,0:1:0:0:
83,323,72628,1,0,0:0:0:0:
58,230,72767,6,0,P|110:230|154:259,1,106.666666666667,4|0,0:0|0:0,0:0:0:0:
176,353,73184,1,4,0:0:0:0:
361,304,73461,1,0,0:0:0:0:
453,325,73600,2,0,P|452:272|421:229,1,106.666666666667,4|0,0:0|0:0,0:0:0:0:
326,213,74017,2,0,P|347:164|392:137,1,106.666666666667,4|0,0:0|0:0,0:0:0:0:
485,162,74434,6,0,L|506:112,2,53.3333333333333,6|2|2,0:0|0:0|0:0,0:0:0:0:
392,137,74850,1,6,0:0:0:0:
204,176,75128,1,0,0:0:0:0:
110,151,75267,2,0,P|137:107|184:82,1,106.666666666667,4|0,0:0|0:0,0:0:0:0:
276,111,75684,1,4,0:0:0:0:
137,243,75961,1,0,0:0:0:0:
42,219,76100,6,0,P|56:295|121:339,1,160,4|4,0:0|0:0,0:0:0:0:
312,318,76795,2,0,L|259:311,1,53.3333333333333,0|2,0:0|0:0,0:0:0:0:
448,278,77211,2,0,L|429:383,1,106.666666666667,2|2,0:0|0:0,0:0:0:0:
405,191,77767,6,0,L|415:138,2,53.3333333333333,4|0|0,0:0|0:0|0:0,0:0:0:0:
314,227,78184,2,0,P|308:175|331:128,1,106.666666666667,4|0,0:0|0:0,0:0:0:0:
377,44,78600,2,0,L|270:52,1,106.666666666667,4|0,0:0|0:0,0:0:0:0:
235,142,79017,2,0,L|128:133,1,106.666666666667,4|0,0:0|0:0,0:0:0:0:
44,85,79434,6,0,P|32:137|49:187,1,106.666666666667,4|0,0:0|0:0,0:0:0:0:
137,222,79850,1,4,0:0:0:0:
328,201,80128,1,0,0:0:0:0:
328,201,80267,1,4,0:0:0:0:
148,132,80545,1,0,0:0:0:0:
148,132,80684,1,4,0:0:0:0:
338,109,80961,1,0,0:0:0:0:
418,161,81100,6,0,P|426:212|405:261,1,106.666666666667,6|2,0:0|0:0,0:0:0:0:
314,294,81517,1,6,0:0:0:0:
237,235,81656,2,0,L|183:238,1,53.3333333333333,0|0,0:0|0:0,0:0:0:0:
109,300,81934,2,0,P|88:251|96:199,1,106.666666666667,4|0,0:0|0:0,0:0:0:0:
173,143,82350,1,4,0:0:0:0:
363,120,82628,1,0,0:0:0:0:
448,163,82767,6,0,L|462:57,1,106.666666666667,4|4,0:2|0:0,0:0:0:0:
462,57,83184,1,2,0:0:0:0:
368,224,83461,1,0,0:0:0:0:
288,277,83600,2,0,L|182:262,1,106.666666666667,4|4,0:2|0:0,0:0:0:0:
182,262,84017,1,2,0:0:0:0:
67,107,84295,1,0,0:0:0:0:
136,40,84434,6,0,P|160:86|157:138,1,106.666666666667,4|0,0:2|0:0,0:0:0:0:
84,202,84850,2,0,P|80:254|105:300,1,106.666666666667,4|0,0:0|0:0,0:0:0:0:
198,329,85267,2,0,L|250:319,2,53.3333333333333,4|0|0,0:0|0:0|0:0,0:0:0:0:
176,235,85684,1,2,0:0:0:0:
256,192,86100,12,0,89295,0:0:0:0:
