osu file format v12

[General]
AudioFilename: Heart Realize.mp3
AudioLeadIn: 1500
PreviewTime: 70478
Countdown: 0
SampleSet: Soft
StackLeniency: 0.7
Mode: 0
LetterboxInBreaks: 0
WidescreenStoryboard: 0

[Editor]
Bookmarks: 33,21606,32309,43264,69640,80595
DistanceSpacing: 1
BeatDivisor: 2
GridSize: 4

[Metadata]
Title:Heart Realize (TV Size)
TitleUnicode:ハートリアライズ (TV Size)
Artist:Tia
ArtistUnicode:Tia
Creator:Unsfamiliar
Version:Easy
Source:Noragami
Tags:ノラガミ supercell ryo ending iyasine qoot8123 flower no_gu reyshel
BeatmapID:358753
BeatmapSetID:143717

[Difficulty]
HPDrainRate:2
CircleSize:3
OverallDifficulty:2
ApproachRate:3
SliderMultiplier:0.899999999999999
SliderTickRate:1

[Events]
//Background and Video events
0,0,"bg.jpg",0,0
Video,0,"ed.avi"
//Break Periods
//Storyboard Layer 0 (Background)
//Storyboard Layer 1 (Fail)
//Storyboard Layer 2 (Pass)
//Storyboard Layer 3 (Foreground)
//Storyboard Sound Samples
//Background Colour Transformations
3,100,163,162,255

[TimingPoints]
710,337.078651685393,4,2,2,30,1,0
1047,-100,4,2,2,20,0,0
1721,-100,4,2,2,25,0,0
3406,-100,4,2,2,30,0,0
10822,-100,4,2,1,50,0,0
11490,337.078651685393,4,2,1,60,1,0
17220,-100,4,2,9,60,0,0
17557,-100,4,2,1,60,0,0
18568,-100,4,2,9,60,0,0
18905,-100,4,2,1,60,0,0
19242,-100,4,2,9,60,0,0
19579,-100,4,2,1,60,0,0
22276,-100,4,2,6,40,0,0
22613,-100,4,2,1,50,0,0
33063,-100,4,2,6,40,0,0
33400,-100,4,2,1,60,0,0
43849,-100,4,2,4,50,0,0
44523,-100,4,2,1,50,0,0
45197,-100,4,2,4,30,0,0
45872,-100,4,2,1,50,0,0
46546,-100,4,2,4,50,0,0
47220,-100,4,2,1,50,0,0
47894,-100,4,2,4,40,0,0
48568,-100,4,2,1,50,0,0
49242,-100,4,2,4,40,0,0
51265,-100,4,2,1,50,0,0
51939,-100,4,2,4,50,0,0
54636,-100,4,2,6,30,0,0
55310,-100,4,2,1,60,0,0
64074,-100,4,2,1,30,0,0
64411,-100,4,2,1,40,0,0
64748,-100,4,2,1,50,0,0
65085,-100,4,2,1,60,0,0
68119,-100,4,2,1,30,0,0
70815,-100,4,2,1,70,0,1
71152,-100,4,2,9,60,0,1
71489,-100,4,2,1,70,0,1
73849,-100,4,2,9,60,0,1
74186,-100,4,2,1,70,0,1
75197,-100,4,2,9,60,0,1
75534,-100,4,2,1,70,0,1
77894,-100,4,2,9,60,0,1
78063,-100,4,2,1,70,0,1
78905,-100,4,2,1,50,0,1
79242,-100,4,2,9,50,0,1
79411,-100,4,2,1,55,0,1
79916,-100,4,2,1,60,0,1
81265,-100,4,2,1,60,0,0
81602,-100,4,2,1,70,0,1
83287,-100,4,2,9,60,0,1
83624,-100,4,2,1,70,0,1
84636,-100,4,2,9,60,0,1
84973,-100,4,2,1,70,0,1
88681,-100,4,2,9,60,0,1
89018,-100,4,2,1,70,0,1
92051,-100,4,2,1,40,0,1
92220,-100,4,2,1,70,0,0

[Colours]
Combo1 : 185,185,185
Combo2 : 106,181,255
Combo3 : 255,177,140
Combo4 : 122,188,188
Combo5 : 255,164,209
Combo6 : 183,111,255

[HitObjects]
370,337,710,2,0,P|294:289|306:193,1,180,2|0,0:0|0:0,0:0:0:0:
376,248,1721,2,0,P|405:215|410:171,1,89.9999999999999,2|2,0:0|0:0,0:0:0:0:
52,124,3406,5,2,0:0:0:0:
64,304,4080,1,2,0:0:0:0:
216,204,4754,2,0,B|260:176|312:200|312:200|360:192|384:144,1,180,2|2,0:0|0:0,0:0:0:0:
204,104,6103,2,0,P|156:116|116:176,2,89.9999999999999,2|0|0,0:0|0:0|0:0,0:0:0:0:
264,272,7451,6,0,B|216:300|176:284|148:252|148:252|100:280,2,180,2|2|2,0:0|0:0|0:0,0:0:0:0:
256,192,8968,12,2,10822,0:0:0:0:
304,36,11490,6,0,P|232:104|252:184,1,180,6|2,0:0|0:0,0:0:0:0:
411,244,12838,2,0,P|398:158|319:124,1,180,2|2,0:0|0:0,0:0:0:0:
256,192,14186,12,8,16209,0:0:0:0:
148,308,16883,6,0,P|96:232|112:128,1,180,8|2,0:0|0:0,0:0:0:0:
172,88,17894,1,8,0:0:0:0:
240,148,18231,2,0,B|308:176|336:112|420:140,2,180,2|2|2,0:0|0:0|0:0,0:0:0:0:
172,88,19916,21,8,0:0:0:0:
144,172,20254,2,0,P|180:228|216:244,1,89.9999999999999,2|8,0:0|0:0,0:0:0:0:
280,276,20928,2,0,B|252:328|192:328|192:328|164:368|116:364,2,180,2|2|4,0:0|0:0|0:0,0:0:0:0:
332,200,22613,5,2,0:0:0:0:
416,236,22950,1,2,0:0:0:0:
472,164,23287,1,2,0:0:0:0:
428,84,23624,2,0,L|300:112,1,89.9999999999999,2|2,0:0|0:0,0:0:0:0:
264,152,24298,2,0,P|248:108|264:56,1,89.9999999999999,2|2,0:0|0:0,0:0:0:0:
176,24,24973,6,0,P|156:120|200:216,1,180,2|2,0:0|0:0,0:0:0:0:
356,144,26321,2,0,P|420:200|436:324,1,180,2|2,0:0|0:0,0:0:0:0:
264,304,27669,5,2,0:0:0:0:
272,216,28006,2,0,B|220:212|192:252|192:252|148:232|100:264,1,180,2|2,0:0|0:0,0:0:0:0:
32,208,29018,2,0,P|68:176|136:176,1,89.9999999999999,2|2,0:0|0:0,0:0:0:0:
180,116,29692,2,0,P|144:84|94:82,1,89.9999999999999,2|2,0:0|0:0,0:0:0:0:
108,169,30366,6,0,B|156:228|228:196|228:196|256:248,1,180,2|2,0:0|0:0,0:0:0:0:
416,308,31714,2,0,P|432:252|416:200,1,89.9999999999999,2|2,0:0|0:0,0:0:0:0:
404,136,32388,2,0,L|308:108,2,89.9999999999999,2|2|4,0:0|0:0|0:0,0:0:0:0:
492,160,33400,21,2,0:0:0:0:
472,72,33737,2,0,L|368:40,1,89.9999999999999,2|2,0:0|0:0,0:0:0:0:
300,16,34411,2,0,P|228:68|232:160,1,180,2|2,0:0|0:0,0:0:0:0:
284,224,35422,1,2,0:0:0:0:
248,308,35759,6,0,B|296:328|348:308|368:260|368:260|408:272|440:252,2,180,2|2|2,0:0|0:0|0:0,0:0:0:0:
84,236,37782,2,0,P|112:188|160:168,1,89.9999999999999,2|2,0:0|0:0,0:0:0:0:
232,184,38456,6,0,P|284:128|256:32,1,180,2|2,0:0|0:0,0:0:0:0:
196,100,39467,1,2,0:0:0:0:
140,172,39804,2,0,P|160:248|284:252,1,180,2|2,0:0|0:0,0:0:0:0:
368,136,41152,6,0,P|408:176|416:216,1,89.9999999999999,2|2,0:0|0:0,0:0:0:0:
328,228,41827,2,0,P|356:276|396:296,2,89.9999999999999,2|2|2,0:0|0:0|0:0,0:0:0:0:
264,60,43175,2,0,L|168:132,1,89.9999999999999,2|0,0:3|0:0,0:0:0:0:
104,124,43849,6,0,P|152:196|244:184,1,180,4|2,0:0|0:3,0:0:0:0:
364,320,45197,2,0,P|408:272|396:148,2,180,8|2|8,0:0|0:3|0:0,0:0:0:0:
184,328,47220,1,2,0:3:0:0:
232,156,47894,22,0,P|160:200|48:184,2,180,8|2|8,0:0|0:3|0:0,0:0:0:0:
192,76,49579,2,0,P|124:80|52:112,2,135,0|0|8,0:0|0:0|0:0,0:0:0:0:
356,148,51265,1,2,0:3:0:0:
208,252,51939,5,8,0:0:0:0:
288,292,52276,2,0,L|424:328,2,135,0|0|8,0:0|0:0|0:0,0:0:0:0:
212,344,53624,2,0,P|140:316|128:208,1,180
40,180,54636,6,0,P|104:132|196:172,1,180,4|2,0:0|0:0,0:0:0:0:
244,236,55647,1,2,0:0:0:0:
332,252,55984,2,0,L|480:132,1,180,2|2,0:0|0:0,0:0:0:0:
316,44,57332,6,0,P|220:36|144:92,1,180,2|2,0:0|0:0,0:0:0:0:
164,168,58343,1,2,0:0:0:0:
252,152,58681,2,0,B|316:140|356:216|440:188,1,180,2|2,0:0|0:0,0:0:0:0:
492,360,60029,5,2,0:0:0:0:
416,312,60366,1,2,0:0:0:0:
328,312,60703,2,0,B|264:328|264:328|208:304|152:332,2,180,2|2|2,0:0|0:0|0:0,0:0:0:0:
276,140,62725,2,0,P|188:128|88:168,1,180,2|2,0:0|0:0,0:0:0:0:
76,244,63737,1,2,0:0:0:0:
156,284,64074,22,0,L|256:264,1,89.9999999999999,2|2,0:0|0:0,0:0:0:0:
328,236,64748,1,2,0:0:0:0:
404,188,65085,1,2,0:0:0:0:
420,100,65422,1,2,0:0:0:0:
256,192,65591,12,0,68119,0:0:0:0:
128,216,69130,70,0,L|112:76,1,135
244,108,70141,2,0,L|252:176,1,45
192,276,70815,6,0,B|232:304|276:292|276:292|304:320|360:320,1,180,6|0,0:0|0:0,0:0:0:0:
428,260,71827,1,8,0:0:0:0:
344,224,72164,2,0,P|384:176|440:172,1,89.9999999999999,2|8,0:0|0:0,0:0:0:0:
496,184,72838,1,2,0:0:0:0:
476,96,73175,1,8,0:0:0:0:
388,88,73512,6,0,L|204:124,1,180,2|2,0:0|0:0,0:0:0:0:
144,180,74523,1,8,0:0:0:0:
176,264,74860,2,0,B|228:244|264:280|264:280|336:232,1,180,2|2,0:0|0:0,0:0:0:0:
396,168,75872,1,8,0:0:0:0:
480,200,76209,6,0,P|484:144|440:92,2,89.9999999999999,2|8|2,0:0|0:0|0:0,0:0:0:0:
404,252,77220,1,8,0:0:0:0:
360,332,77557,2,0,P|296:364|216:312,2,135,2|0|8,0:0|0:0|0:0,0:0:0:0:
292,272,78905,6,0,L|168:152,2,135,6|4|0,0:0|0:0|0:0,0:0:0:0:
332,192,80254,2,0,L|200:64,1,180,6|0,0:0|0:0,0:0:0:0:
104,216,81602,6,0,P|56:176|48:120,1,89.9999999999999,6|8,0:0|0:0,0:0:0:0:
64,64,82276,1,2,0:0:0:0:
152,48,82613,1,8,0:0:0:0:
220,108,82950,2,0,P|292:160|396:128,1,180,2|2,0:0|0:0,0:0:0:0:
340,320,84298,22,0,P|248:320|160:260,1,180,2|2,0:0|0:0,0:0:0:0:
116,208,85310,1,8,0:0:0:0:
152,124,85647,2,0,P|196:164|204:216,1,89.9999999999999,2|8,0:0|0:0,0:0:0:0:
174,276,86321,1,2,0:0:0:0:
84,292,86658,1,8,0:0:0:0:
32,220,86995,6,0,L|36:96,1,89.9999999999999,2|8,0:0|0:0,0:0:0:0:
92,60,87669,2,0,P|136:36|204:52,1,89.9999999999999,2|8,0:0|0:0,0:0:0:0:
236,104,88343,2,0,B|300:164|360:136|360:136|392:68,1,180,2|2,0:0|0:0,0:0:0:0:
480,248,89692,6,0,L|496:344,2,89.9999999999999,8|8|8,0:0|0:0|0:0,0:0:0:0:
456,160,90703,1,8,0:0:0:0:
380,208,91040,2,0,P|316:232|224:220,2,135,8|4|0,0:0|0:0|0:0,0:0:0:0:
