osu file format v9

[General]
AudioFilename: Thymeka - Yowamushi Montblanc (Italian Version).mp3
AudioLeadIn: 0
PreviewTime: 172375
Countdown: 0
SampleSet: Soft
StackLeniency: 0.4
Mode: 0
LetterboxInBreaks: 0

[Editor]
Bookmarks: 66500,169750
DistanceSpacing: 0.8
BeatDivisor: 4
GridSize: 8

[Metadata]
Title:Coward Montblanc ~Italian Version~
Artist:Thymeka
Creator:Gio96b
Version:Normal
Source:DECO*27
Tags:megpoid gumi cover hakunokaemi NeoRainier

[Difficulty]
HPDrainRate:4
CircleSize:4
OverallDifficulty:4
ApproachRate:5
SliderMultiplier:1.4
SliderTickRate:2

[Events]
//Background and Video events
0,0,"128918179483.png"
Video,0,"Yowamushi Montblanc ~italian version~.avi"
//Break Periods
2,20584,25184
2,42584,49184
2,66584,72934
2,106584,113184
2,154584,172184
//Storyboard Layer 0 (Background)
//Storyboard Layer 1 (Fail)
//Storyboard Layer 2 (Pass)
//Storyboard Layer 3 (Foreground)
//Storyboard Sound Samples
//Background Colour Transformations
3,100,0,255,0

[TimingPoints]
2384,500,4,2,0,65,1,0
50384,-100,4,2,0,65,0,1
66384,-100,4,2,0,65,0,0
114384,-100,4,2,0,65,0,1
130384,-100,4,2,0,65,0,0
173384,-100,4,2,0,65,0,1
213384,-100,4,2,0,65,0,0

[Colours]
Combo1 : 143,177,203
Combo2 : 108,244,142
Combo3 : 255,128,128
Combo4 : 135,218,162
Combo5 : 248,136,251
Combo6 : 181,249,106
Combo7 : 154,134,251
Combo8 : 235,170,112

[HitObjects]
256,64,2134,1,8
256,64,2384,1,4
256,120,2634,2,0,B|256:208,1,70
256,248,3134,1,0
256,248,3384,1,4
360,344,4134,6,0,B|456:344|456:232,1,140,8|0
456,192,4884,1,0
456,80,5384,1,4
288,80,6134,5,8
232,80,6384,2,0,B|160:80|96:136,1,140,8|0
104,240,7384,1,4
272,240,8134,5,0
328,240,8384,1,0
232,176,8884,2,0,B|152:176,2,70
256,96,10134,5,8
312,96,10384,2,4,B|400:96|432:152,1,140,8|0
432,264,11384,1,4
264,264,12134,5,8
264,264,12384,1,8
208,264,12634,2,0,B|120:264,3,70,0|0|0|4
208,112,14134,5,8
264,112,14384,1,8
320,112,14634,1,0
376,112,14884,1,8
488,112,15384,1,4
488,336,16384,6,0,B|424:272|352:344,3,140,0|0|0|4
256,192,18384,12,4,20384
48,48,26384,5,4
48,48,26634,1,8
104,48,26884,2,0,B|184:48|224:120,1,140,0|4
464,48,28134,5,8
408,48,28384,2,0,B|328:48|288:120,1,140
288,224,29384,1,4
480,344,30384,6,8,B|384:344|312:344,1,140
288,344,31134,1,0
224,344,31384,1,4
224,176,32134,5,8
224,176,32384,1,8
336,176,32884,1,0
336,288,33384,1,4
264,80,34384,6,8,B|264:160,1,70,8|8
264,150,34884,1,4
352,80,35384,2,0,B|352:160,1,70,8|8
352,150,35884,1,4
464,152,36384,1,2
464,152,36884,1,2
464,152,37384,1,2
264,56,38384,5,8
264,56,38634,1,8
264,56,38884,1,4
264,168,39384,1,8
264,168,39634,1,8
264,168,39884,1,4
152,168,40384,2,2,B|152:312,3,140,2|0|0|4
40,312,42384,1,4
256,56,50384,5,4
256,56,50634,1,8
256,56,50884,1,8
256,112,51134,2,0,B|256:184,1,70
256,240,51634,1,0
256,240,51884,1,8
368,240,52384,1,4
472,40,53134,6,2,B|416:40|392:80,2,70
480,96,53884,2,2,B|424:96|400:136,1,70
368,152,54384,1,0
304,96,55134,5,8
304,96,55384,1,8
304,96,55634,1,8
304,152,55884,2,2,B|304:296,1,140
416,296,56884,1,8
416,296,57134,1,8
416,240,57384,2,2,B|416:96,1,140,0|4
304,96,58384,5,4
304,96,58634,1,8
304,96,58884,1,8
248,96,59134,2,0,B|176:96,3,70,0|0|0|8
64,96,60384,1,4
64,264,61134,5,8
64,264,61384,1,8
64,264,61634,1,8
120,264,61884,2,0,B|192:264,1,70
248,264,62384,1,4
408,208,63134,5,8
408,208,63384,1,8
352,208,63634,2,2,B|184:208,1,140
152,208,64384,1,4
152,96,64884,1,0
152,96,65134,1,0
152,96,65384,1,0
208,96,65634,2,0,B|376:96,1,140
400,96,66384,1,4
440,328,74134,5,8
440,328,74384,1,4
392,296,74634,2,0,B|328:248,3,70,0|0|0|4
200,152,76134,5,8
200,152,76384,1,8
152,120,76634,2,0,B|112:84|48:120|60:180,1,140
56,224,77384,1,4
224,232,78134,5,8
224,232,78384,1,8
224,232,78634,1,0
224,120,79134,1,4
224,120,79384,1,0
392,120,80134,6,2,B|296:120,2,70
392,176,80884,2,0,B|488:176,1,70
464,120,81384,1,0
256,56,82134,5,8
256,56,82384,1,8
256,112,82634,2,0,B|256:184,1,70
256,296,83384,1,4
88,296,84134,2,2,B|168:296,2,70
88,240,84884,2,0,B|160:240,1,70
160,184,85384,1,0
256,160,86134,5,8
256,216,86384,1,8
256,272,86634,1,8
312,272,86884,1,8
368,272,87134,1,4
424,272,87384,1,0
448,176,88384,6,2,B|448:128|384:24,3,140,2|2|2|4
344,48,90134,5,8
288,48,90384,2,8,B|192:48,4,70,8|8|8|8|4
96,64,92134,5,8
96,64,92384,1,8
96,64,92634,1,0
96,120,92884,2,0,B|96:200,1,70
96,248,93384,1,4
248,320,94134,5,8
248,264,94384,2,8,B|248:192,4,70,8|8|8|8|4
440,312,96134,1,8
440,312,96384,1,8
440,312,96634,1,0
440,256,96884,2,0,B|440:176,1,70
440,128,97384,1,4
216,128,98384,6,2,B|184:96|152:128,2,70,2|2|4
216,240,99384,2,2,B|184:208|152:240,2,70,0|2|4
216,344,100384,1,8
328,344,100884,1,8
440,344,101384,1,8
232,264,102384,6,2,B|264:296|296:264,2,70,2|2|6
232,152,103384,2,2,B|264:184|296:152,2,70,0|0|4
232,48,104384,1,8
120,48,104884,1,8
8,48,105384,1,8
64,144,105884,1,4
176,144,106384,1,4
64,192,114384,5,4
64,192,114634,1,8
64,192,114884,1,0
120,192,115134,2,0,B|120:264,1,70
64,264,115634,1,8
64,264,115884,1,0
120,360,116384,1,4
280,296,117134,6,2,B|368:296,2,70
280,240,117884,2,0,B|368:240,1,70
350,240,118384,1,0
256,72,119134,5,8
256,72,119384,1,8
256,72,119634,1,0
312,72,119884,2,0,B|384:40|448:72,1,140
448,184,120884,1,8
448,184,121134,1,8
392,184,121384,2,0,B|320:216|256:184,1,140,0|4
144,192,122384,5,4
144,192,122634,1,0
144,192,122884,1,0
144,136,123134,2,2,B|144:64,3,70
232,136,124384,1,4
312,24,125134,5,8
312,24,125384,1,8
312,24,125634,1,0
312,80,125884,2,0,B|312:152,1,70
312,208,126384,1,4
448,304,127134,5,8
448,304,127384,1,8
392,304,127634,2,0,B|224:304,1,140
252,304,128384,1,4
256,192,128884,1,0
256,192,129134,1,0
256,192,129384,1,8
256,136,129634,2,0,B|256:64|360:64,1,140
416,64,130384,1,4
104,328,131884,6,2,B|104:40|352:40,1,420
344,264,134384,1,4
408,328,135884,6,2,B|408:40|160:40,1,420
176,264,138384,1,6
40,40,139884,5,8
152,40,140384,1,8
264,40,140884,1,8
376,40,141384,1,8
376,152,141884,1,8
376,264,142384,2,8,B|280:264,4,70,8|8|8|8|4
456,336,143884,5,8
344,336,144384,1,8
232,336,144884,1,8
120,336,145384,1,8
120,224,145884,1,8
120,112,146384,1,4
344,112,147384,5,2
344,112,147634,1,8
344,112,147884,1,2
344,224,148384,5,2
344,224,148634,1,2
344,224,148884,1,2
232,224,149384,5,2
232,224,149634,1,10
232,224,149884,1,2
232,112,150384,5,2
232,112,150634,1,2
232,112,150884,1,2
344,112,151384,5,2
344,112,151634,1,8
344,112,151884,1,2
344,224,152384,5,2
344,224,152634,1,2
344,224,152884,1,2
232,224,153384,5,2
232,168,153634,1,8
232,112,153884,1,2
120,112,154384,5,4
256,56,173384,5,4
256,56,173634,1,8
256,56,173884,1,8
256,112,174134,2,0,B|256:184,1,70
256,240,174634,1,0
256,240,174884,1,8
368,240,175384,1,4
472,40,176134,6,2,B|416:40|392:80,2,70
480,96,176884,2,2,B|424:96|400:136,1,70
368,152,177384,1,0
304,96,178134,5,8
304,96,178384,1,8
304,96,178634,1,8
304,152,178884,2,2,B|304:296,1,140
416,296,179884,1,8
416,296,180134,1,8
416,240,180384,2,2,B|416:96,1,140,0|4
304,96,181384,5,4
304,96,181634,1,8
304,96,181884,1,8
248,96,182134,2,0,B|176:96,3,70,0|0|0|8
64,96,183384,1,4
64,264,184134,5,8
64,264,184384,1,8
64,264,184634,1,8
120,264,184884,2,0,B|192:264,1,70
248,264,185384,1,4
408,208,186134,5,8
408,208,186384,1,8
352,208,186634,2,2,B|184:208,1,140
152,208,187384,1,4
152,96,187884,1,0
152,96,188134,1,0
152,96,188384,1,0
208,96,188634,2,0,B|376:96,1,140
408,96,189384,5,4
408,96,189634,1,8
408,96,189884,1,0
464,96,190134,2,0,B|464:168,1,70
408,168,190634,1,8
352,168,190884,1,0
408,264,191384,1,4
280,296,192134,6,2,B|368:296,2,70
280,240,192884,2,0,B|368:240,1,70
350,240,193384,1,0
256,72,194134,5,8
256,72,194384,1,8
256,72,194634,1,0
312,72,194884,2,0,B|384:40|448:72,1,140
448,184,195884,1,8
448,184,196134,1,8
392,184,196384,2,0,B|320:216|256:184,1,140,0|4
144,192,197384,5,4
144,192,197634,1,0
144,192,197884,1,0
144,136,198134,2,2,B|144:64,3,70
232,136,199384,1,4
312,24,200134,5,8
312,24,200384,1,8
312,24,200634,1,0
312,80,200884,2,0,B|312:152,1,70
312,208,201384,1,4
448,304,202134,5,8
448,304,202384,1,8
392,304,202634,2,0,B|224:304,1,140
252,304,203384,5,4
256,192,203884,1,0
256,192,204134,1,0
256,192,204384,1,8
256,136,204634,2,0,B|256:64|152:64,1,140
96,64,205384,2,0,B|96:208|96:352|512:352,1,560
256,192,208384,12,0,213384
