osu file format v12

[General]
AudioFilename: Thymeka - Yowamushi Montblanc (Italian Version).mp3
AudioLeadIn: 0
PreviewTime: 172375
Countdown: 0
SampleSet: Soft
StackLeniency: 0.4
Mode: 0
LetterboxInBreaks: 0
WidescreenStoryboard: 0

[Editor]
Bookmarks: 17875,66500,74125,141875,169750,209375,213375
DistanceSpacing: 0.8
BeatDivisor: 4
GridSize: 8
TimelineZoom: 1

[Metadata]
Title:Coward Montblanc ~Italian Version~
TitleUnicode:
Artist:Thymeka
ArtistUnicode:
Creator:Gio96b
Version:Hard
Source:DECO*27
Tags:megpoid gumi cover hakunokaemi NeoRainier
BeatmapID:138664
BeatmapSetID:38845

[Difficulty]
HPDrainRate:5
CircleSize:4
OverallDifficulty:6
ApproachRate:7
SliderMultiplier:2.5
SliderTickRate:1

[Events]
//Background and Video events
0,0,"128918179483.png",0,0
Video,0,"Yowamushi Montblanc ~italian version~.avi"
//Break Periods
2,66575,73475
2,146575,153475
2,169575,172475
//Storyboard Layer 0 (Background)
//Storyboard Layer 1 (Fail)
//Storyboard Layer 2 (Pass)
//Storyboard Layer 3 (Foreground)
//Storyboard Sound Samples
//Background Colour Transformations
3,100,0,255,0

[TimingPoints]
2384,500,4,2,0,75,1,0
42884,-100,4,2,1,50,0,0
50384,-100,4,2,2,85,0,1
66384,-100,4,2,0,75,0,0
106884,-100,4,2,1,50,0,0
114384,-100,4,2,2,85,0,1
131884,-200,4,2,0,75,0,0
173384,-100,4,2,2,85,0,1
213384,-100,4,2,0,75,0,0

[Colours]
Combo1 : 143,177,203
Combo2 : 108,244,142
Combo3 : 255,128,128
Combo4 : 135,218,162
Combo5 : 248,136,251
Combo6 : 181,249,106
Combo7 : 154,134,251
Combo8 : 235,170,112

[HitObjects]
264,40,2375,5,4,0:0:0:0:
160,40,2625,2,0,B|120:104|168:168,1,125
264,160,3125,1,8,0:0:0:0:
264,256,3375,5,4,0:0:0:0:
360,256,3625,2,0,B|408:200|360:136,1,125
264,160,4125,1,8,0:0:0:0:
264,64,4375,6,0,B|120:64,1,125,4|0,0:0|0:0,0:0:0:0:
136,160,4875,1,0,0:0:0:0:
136,160,5125,1,8,0:0:0:0:
224,160,5375,6,0,B|368:160,1,125,4|0,0:0|0:0,0:0:0:0:
352,256,5875,1,0,0:0:0:0:
352,256,6125,1,8,0:0:0:0:
256,256,6375,5,4,0:0:0:0:
160,256,6625,2,0,B|160:120,2,125,0|0|8,0:0|0:0|0:0,0:0:0:0:
232,192,7375,5,4,0:0:0:0:
328,192,7625,2,0,B|368:136|320:72,2,125,0|0|8,0:0|0:0|0:0,0:0:0:0:
280,272,8375,5,4,0:0:0:0:
280,176,8625,1,0,0:0:0:0:
184,176,8875,1,0,0:0:0:0:
184,272,9125,1,8,0:0:0:0:
96,224,9375,5,4,0:0:0:0:
96,128,9625,1,0,0:0:0:0:
96,32,9875,1,0,0:0:0:0:
184,80,10125,1,8,0:0:0:0:
288,80,10375,6,0,B|336:80|352:56|352:104|368:80|416:80,1,125,4|0,0:0|0:0,0:0:0:0:
408,176,10875,2,0,B|360:176|344:152|344:200|328:176|280:176,1,125,0|8,0:0|0:0,0:0:0:0:
240,264,11375,6,0,B|240:200|136:200,1,125,4|0,0:0|0:0,0:0:0:0:
72,216,11875,2,0,B|72:280|176:280,1,125,0|8,0:0|0:0,0:0:0:0:
240,344,12375,5,4,0:0:0:0:
240,344,12625,1,0,0:0:0:0:
320,280,12875,2,0,B|256:280|256:184,1,125,0|8,0:0|0:0,0:0:0:0:
288,96,13375,5,4,0:0:0:0:
288,96,13625,1,0,0:0:0:0:
384,136,13875,2,0,B|320:136|320:232,1,125,0|8,0:0|0:0,0:0:0:0:
224,192,14375,5,4,0:0:0:0:
224,192,14625,1,0,0:0:0:0:
128,192,14875,2,0,B|128:64,1,125,0|8,0:0|0:0,0:0:0:0:
224,64,15375,2,0,B|224:192,1,125,4|0,0:0|0:0,0:0:0:0:
376,192,16375,6,0,B|376:56,1,125,4|0,0:0|0:0,0:0:0:0:
472,64,16875,2,0,B|472:232,1,125,0|8,0:0|0:0,0:0:0:0:
376,192,17375,6,0,B|248:192,1,125,4|0,0:0|0:0,0:0:0:0:
152,184,17875,2,0,B|152:56,1,125,0|8,0:0|0:0,0:0:0:0:
248,56,18375,5,4,0:0:0:0:
248,152,18625,2,0,B|392:152,1,125
472,152,19125,1,8,0:0:0:0:
472,56,19375,2,0,B|328:56,1,125
248,56,19875,2,0,B|248:200,1,125,0|8,0:0|0:0,0:0:0:0:
248,280,20375,6,0,B|88:280,1,125,4|0,0:0|0:0,0:0:0:0:
120,184,20875,1,0,0:0:0:0:
120,184,21125,1,8,0:0:0:0:
224,184,21375,2,0,B|360:184,1,125
344,280,21875,1,0,0:0:0:0:
344,280,22125,1,8,0:0:0:0:
400,200,22375,5,4,0:0:0:0:
400,96,22625,2,0,B|336:96|272:128,1,125
176,128,23125,1,8,0:0:0:0:
176,224,23375,2,0,B|240:224|304:192,1,125
312,296,23875,2,0,B|232:296|176:328,1,125,0|8,0:0|0:0,0:0:0:0:
88,312,24375,5,4,0:0:0:0:
88,312,24625,1,0,0:0:0:0:
88,216,24875,2,0,B|240:216,1,125,0|8,0:0|0:0,0:0:0:0:
216,312,25375,1,0,0:0:0:0:
216,312,25625,1,0,0:0:0:0:
312,312,25875,2,0,B|344:312|344:312|368:280|368:280|368:336,1,125,0|8,0:0|0:0,0:0:0:0:
464,328,26375,5,4,0:0:0:0:
464,232,26625,2,0,B|464:72,1,125
368,104,27125,1,8,0:0:0:0:
320,192,27375,5,4,0:0:0:0:
224,192,27625,2,0,B|224:32,1,125
128,72,28125,1,8,0:0:0:0:
128,168,28375,6,0,B|128:192|152:224|104:224|128:256|128:296,1,125,4|0,0:0|0:0,0:0:0:0:
224,296,28875,1,0,0:0:0:0:
224,296,29125,1,8,0:0:0:0:
224,192,29375,6,0,B|200:192|168:216|168:168|136:192|96:192,1,125,4|0,0:0|0:0,0:0:0:0:
112,96,29875,1,0,0:0:0:0:
112,96,30125,1,8,0:0:0:0:
208,96,30375,6,0,B|208:224,1,125,4|0,0:0|0:0,0:0:0:0:
208,320,30875,2,0,B|80:320,1,125,0|8,0:0|0:0,0:0:0:0:
80,208,31375,5,4,0:0:0:0:
144,128,31625,1,0,0:0:0:0:
208,208,31875,1,0,0:0:0:0:
144,288,32125,1,8,0:0:0:0:
240,296,32375,6,0,B|280:296|312:256|312:344|344:296|392:296,1,125,4|0,0:0|0:0,0:0:0:0:
360,200,32875,2,0,B|320:200|288:160|288:248|256:200|208:200,1,125,0|8,0:0|0:0,0:0:0:0:
144,128,33375,5,4,0:0:0:0:
144,128,33625,1,0,0:0:0:0:
144,224,33875,1,0,0:0:0:0:
144,224,34125,1,8,0:0:0:0:
240,192,34375,5,4,0:0:0:0:
240,192,34625,1,0,0:0:0:0:
240,96,34875,2,0,B|392:96,1,125,0|8,0:0|0:0,0:0:0:0:
368,192,35375,5,4,0:0:0:0:
368,192,35625,1,0,0:0:0:0:
368,288,35875,2,0,B|240:288,1,125,0|8,0:0|0:0,0:0:0:0:
224,192,36375,5,4,0:0:0:0:
128,192,36625,1,0,0:0:0:0:
128,288,36875,1,0,0:0:0:0:
32,288,37125,1,8,0:0:0:0:
32,192,37375,5,4,0:0:0:0:
32,96,37625,1,0,0:0:0:0:
128,96,37875,1,0,0:0:0:0:
224,96,38125,1,8,0:0:0:0:
320,96,38375,6,0,B|320:232,1,125,4|0,0:0|0:0,0:0:0:0:
416,216,38875,1,0,0:0:0:0:
416,216,39125,1,8,0:0:0:0:
416,312,39375,6,0,B|272:312,1,125,4|0,0:0|0:0,0:0:0:0:
192,312,39875,1,0,0:0:0:0:
192,312,40125,1,8,0:0:0:0:
192,216,40375,6,0,B|192:88,1,125,4|0,0:0|0:0,0:0:0:0:
288,88,40875,2,0,B|288:240,1,125,0|8,0:0|0:0,0:0:0:0:
384,216,41375,6,0,B|384:72,1,125,4|0,0:0|0:0,0:0:0:0:
480,88,41875,2,0,B|480:232,1,125,0|8,0:0|0:0,0:0:0:0:
440,304,42375,1,4,0:0:0:0:
256,224,42875,6,0,B|256:152|64:48|64:136,1,250,0|0,0:0|0:0,0:0:0:0:
64,216,43625,1,0,0:0:0:0:
64,216,43875,1,8,0:0:0:0:
240,312,44375,5,4,0:0:0:0:
416,72,45125,1,8,0:0:0:0:
416,72,45375,1,0,0:0:0:0:
416,72,45625,1,0,0:0:0:0:
416,72,45875,1,0,0:0:0:0:
320,72,46125,2,0,B|184:72,1,125,8|4,0:0|0:0,0:0:0:0:
128,152,46625,6,0,B|272:160|264:160,1,125,0|0,0:0|0:0,0:0:0:0:
456,152,47125,2,0,B|312:160|320:160,1,125,0|8,0:0|0:0,0:0:0:0:
248,216,47625,1,0,0:0:0:0:
176,112,47875,1,0,0:0:0:0:
256,48,48125,1,0,0:0:0:0:
344,112,48375,5,4,0:0:0:0:
344,112,48625,1,8,0:0:0:0:
272,184,48875,1,0,0:0:0:0:
272,184,49125,1,0,0:0:0:0:
168,184,49375,5,4,0:0:0:0:
168,184,49625,1,0,0:0:0:0:
72,184,49875,1,0,0:0:0:0:
72,184,50125,1,8,0:0:0:0:
48,40,50375,6,0,B|168:168,1,125,4|0,0:0|0:0,0:0:0:0:
232,136,50875,2,0,B|360:136,1,125,0|8,0:0|0:0,0:0:0:0:
432,200,51375,1,0,0:0:0:0:
344,256,51625,2,0,B|208:256,1,125
96,256,52125,1,8,0:0:0:0:
96,160,52375,2,0,B|96:16,1,125
280,72,52875,6,0,B|432:72,1,125
376,168,53375,2,0,B|288:264,1,125,0|8,0:0|0:0,0:0:0:0:
376,312,53875,2,0,B|472:312|472:200,1,125
472,144,54375,2,0,B|472:80|360:80,1,125,0|8,0:0|0:0,0:0:0:0:
280,80,54875,5,4,0:0:0:0:
184,80,55125,2,0,B|48:80,1,125
56,176,55625,2,0,B|208:176,2,125
181,176,56384,1,0,0:0:0:0:
184,272,56625,2,0,B|320:272,1,125
408,272,57125,1,0,0:0:0:0:
368,176,57375,1,0,0:0:0:0:
272,176,57625,2,0,B|128:176,1,125,8|0,0:0|0:0,0:0:0:0:
40,344,58375,6,0,B|40:328|16:264|80:264|40:224|40:184,1,125,4|0,0:0|0:0,0:0:0:0:
144,224,58875,1,0,0:0:0:0:
144,224,59125,1,8,0:0:0:0:
144,224,59375,1,0,0:0:0:0:
240,224,59625,2,0,B|280:224|320:264|320:184|360:224|400:224,1,125,0|0,0:0|0:0,0:0:0:0:
464,216,60125,1,8,0:0:0:0:
464,120,60375,2,0,B|424:120|384:160|384:80|344:120|304:120,1,125,0|0,0:0|0:0,0:0:0:0:
240,112,60875,5,4,0:0:0:0:
144,112,61125,1,0,0:0:0:0:
144,208,61375,2,0,B|280:208,1,125,0|8,0:0|0:0,0:0:0:0:
368,192,61875,2,0,B|400:192|400:192|424:160|424:160|424:216,1,125
368,304,62375,2,0,B|400:304|400:304|424:336|424:336|424:280,1,125,0|8,0:0|0:0,0:0:0:0:
328,248,62875,5,4,0:0:0:0:
232,248,63125,2,0,B|96:248,1,125
112,152,63625,2,0,B|264:152,2,125
237,152,64384,1,0,0:0:0:0:
336,152,64625,1,8,0:0:0:0:
416,208,64875,5,0,0:0:0:0:
352,280,65125,1,0,0:0:0:0:
256,280,65375,1,0,0:0:0:0:
160,280,65625,2,0,B|16:280,1,125,8|0,0:0|0:0,0:0:0:0:
32,192,66125,6,2,B|32:64,1,125,2|4,0:0|0:0,0:0:0:0:
464,48,74375,5,4,0:0:0:0:
368,48,74625,2,0,B|232:48,1,125
240,144,75125,1,8,0:0:0:0:
240,240,75375,5,4,0:0:0:0:
144,240,75625,2,0,B|16:240,1,125
16,336,76125,1,8,0:0:0:0:
112,336,76375,6,0,B|176:312|240:336,1,125,4|0,0:0|0:0,0:0:0:0:
336,336,76875,1,0,0:0:0:0:
336,336,77125,1,8,0:0:0:0:
336,240,77375,6,0,B|272:264|208:240,1,125,4|0,0:0|0:0,0:0:0:0:
112,240,77875,1,0,0:0:0:0:
112,240,78125,1,8,0:0:0:0:
96,144,78375,5,4,0:0:0:0:
192,144,78625,2,0,B|328:144,2,125,0|0|8,0:0|0:0|0:0,0:0:0:0:
200,240,79375,5,4,0:0:0:0:
296,272,79625,2,0,B|328:272|328:272|352:240|352:240|352:296,2,125,0|0|8,0:0|0:0|0:0,0:0:0:0:
296,168,80375,5,4,0:0:0:0:
248,88,80625,1,0,0:0:0:0:
192,168,80875,1,0,0:0:0:0:
96,168,81125,1,8,0:0:0:0:
88,264,81375,5,4,0:0:0:0:
144,344,81625,1,0,0:0:0:0:
200,264,81875,1,0,0:0:0:0:
296,264,82125,1,8,0:0:0:0:
296,168,82375,6,0,B|360:208|432:168,1,125,4|0,0:0|0:0,0:0:0:0:
360,88,82875,2,0,B|424:56|496:96,1,125,0|8,0:0|0:0,0:0:0:0:
248,96,83375,6,0,B|184:96|184:96|184:176,1,125,2|0,0:0|0:0,0:0:0:0:
184,256,83875,2,0,B|120:256|120:256|120:168,1,125,0|8,0:0|0:0,0:0:0:0:
120,96,84375,5,2,0:0:0:0:
24,96,84625,1,0,0:0:0:0:
24,192,84875,2,0,B|24:320,1,125,0|8,0:0|0:0,0:0:0:0:
120,320,85375,5,4,0:0:0:0:
216,320,85625,1,0,0:0:0:0:
216,224,85875,2,0,B|216:88,1,125,0|8,0:0|0:0,0:0:0:0:
312,104,86375,5,4,0:0:0:0:
408,104,86625,1,0,0:0:0:0:
408,200,86875,2,0,B|344:240|280:200,1,125,0|8,0:0|0:0,0:0:0:0:
288,304,87375,2,0,B|352:272|424:312,1,125
216,80,88375,6,0,B|120:80|120:160,1,125,4|0,0:0|0:0,0:0:0:0:
136,240,88875,2,0,B|40:240|40:160,1,125,0|8,0:0|0:0,0:0:0:0:
16,272,89375,6,0,B|16:344|128:344,1,125,4|0,0:0|0:0,0:0:0:0:
200,344,89875,2,0,B|320:344|320:272,1,125,4|8,0:0|0:0,0:0:0:0:
312,200,90375,5,4,0:0:0:0:
312,104,90625,2,0,B|312:40|312:40|232:40,1,125
152,40,91125,1,8,0:0:0:0:
144,136,91375,5,4,0:0:0:0:
216,200,91625,2,0,B|256:200|280:224|304:200|352:200,1,125
440,192,92125,1,8,0:0:0:0:
440,96,92375,6,0,B|416:96|384:120|384:72|352:96|312:96,1,125,4|0,0:0|0:0,0:0:0:0:
216,96,92875,1,0,0:0:0:0:
216,96,93125,1,8,0:0:0:0:
216,192,93375,6,0,B|176:192|152:216|128:192|80:192,1,125,4|0,0:0|0:0,0:0:0:0:
96,296,93875,1,0,0:0:0:0:
96,296,94125,1,8,0:0:0:0:
192,296,94375,6,0,B|320:296,1,125,4|0,0:0|0:0,0:0:0:0:
320,200,94875,2,0,B|192:200,1,125,0|8,0:0|0:0,0:0:0:0:
128,128,95375,5,4,0:0:0:0:
32,128,95625,1,0,0:0:0:0:
32,224,95875,1,0,0:0:0:0:
128,224,96125,1,8,0:0:0:0:
224,224,96375,6,0,B|224:304|312:304,1,125,4|0,0:0|0:0,0:0:0:0:
400,304,96875,2,0,B|488:304|488:216,1,125,0|8,0:0|0:0,0:0:0:0:
448,144,97375,5,4,0:0:0:0:
448,144,97625,1,0,0:0:0:0:
352,144,97875,1,0,0:0:0:0:
352,144,98125,1,8,0:0:0:0:
256,144,98375,5,4,0:0:0:0:
256,144,98625,1,0,0:0:0:0:
240,240,98875,2,0,B|272:240|272:240|296:208|296:208|296:264,1,125,0|8,0:0|0:0,0:0:0:0:
400,256,99375,5,4,0:0:0:0:
400,256,99625,1,0,0:0:0:0:
400,160,99875,2,0,B|432:160|432:160|456:192|456:192|456:136,1,125,0|8,0:0|0:0,0:0:0:0:
440,40,100375,5,4,0:0:0:0:
344,40,100625,1,0,0:0:0:0:
248,40,100875,1,0,0:0:0:0:
152,40,101125,1,8,0:0:0:0:
152,136,101375,5,4,0:0:0:0:
248,136,101625,1,0,0:0:0:0:
344,136,101875,1,0,0:0:0:0:
440,136,102125,1,8,0:0:0:0:
432,232,102375,6,0,B|296:232,1,125,4|0,0:0|0:0,0:0:0:0:
208,232,102875,1,0,0:0:0:0:
112,232,103125,1,8,0:0:0:0:
112,136,103375,6,0,B|256:136,1,125,4|0,0:0|0:0,0:0:0:0:
336,136,103875,1,0,0:0:0:0:
432,136,104125,1,8,0:0:0:0:
424,232,104375,6,0,B|400:232|360:192|360:280|320:232|296:232,1,125,4|0,0:0|0:0,0:0:0:0:
88,232,104875,2,0,B|112:232|152:192|152:280|192:232|216:232,1,125,0|8,0:0|0:0,0:0:0:0:
432,136,105375,6,0,B|408:136|368:96|368:184|328:136|304:136,1,125,4|0,0:0|0:0,0:0:0:0:
80,136,105875,2,0,B|104:136|144:96|144:184|184:136|208:136,1,125,0|8,0:0|0:0,0:0:0:0:
256,56,106375,1,0,0:0:0:0:
392,200,106875,6,0,B|304:296|304:296|200:176,1,250,4|0,0:0|0:0,0:0:0:0:
128,176,107625,1,0,0:0:0:0:
128,272,107875,1,8,0:0:0:0:
328,280,108375,5,4,0:0:0:0:
128,56,109125,1,8,0:0:0:0:
128,56,109375,1,0,0:0:0:0:
128,56,109625,1,0,0:0:0:0:
128,56,109875,1,0,0:0:0:0:
224,56,110125,2,0,B|280:80|280:80|352:56,1,125,8|0,0:0|0:0,0:0:0:0:
128,152,110625,6,0,B|272:152,1,125,4|0,0:0|0:0,0:0:0:0:
328,224,111125,2,0,B|184:224,1,125,0|8,0:0|0:0,0:0:0:0:
136,296,111625,1,0,0:0:0:0:
216,232,111875,1,0,0:0:0:0:
288,296,112125,1,0,0:0:0:0:
384,272,112375,5,4,0:0:0:0:
384,176,112625,1,8,0:0:0:0:
304,112,112875,1,0,0:0:0:0:
208,112,113125,1,0,0:0:0:0:
112,88,113375,5,4,0:0:0:0:
208,88,113625,1,0,0:0:0:0:
264,168,113875,1,0,0:0:0:0:
248,264,114125,1,8,0:0:0:0:
48,192,114375,6,0,B|88:192|120:152|120:240|152:192|200:192,1,125,4|0,0:0|0:0,0:0:0:0:
272,192,114875,2,0,B|312:192|344:152|344:240|376:192|424:192,1,125,4|0,0:0|0:0,0:0:0:0:
464,192,115375,1,0,0:0:0:0:
464,96,115625,2,0,B|424:96|392:56|392:144|360:96|312:96,1,125
240,96,116125,1,8,0:0:0:0:
144,96,116375,6,0,B|144:136|104:168|192:168|144:200|144:248,1,125,0|0,0:0|0:0,0:0:0:0:
248,192,116875,1,4,0:0:0:0:
149,217,117125,1,4,0:0:0:0:
56,184,117375,2,0,B|56:272|56:272|96:272,1,125,0|8,0:0|0:0,0:0:0:0:
192,272,117875,2,0,B|280:272|280:376,1,125
376,344,118375,6,0,B|376:280|376:280|288:224,1,125,0|8,0:0|0:0,0:0:0:0:
320,144,118875,1,4,0:0:0:0:
224,144,119125,2,0,B|184:144|152:104|152:192|120:144|72:144,1,125
104,248,119625,2,0,B|144:248|176:208|176:296|208:248|256:248,3,125,8|0|0|0,0:0|0:0|0:0|0:0,0:0:0:0:
328,256,120625,1,8,0:0:0:0:
328,160,120875,1,0,0:0:0:0:
232,160,121125,1,0,0:0:0:0:
232,64,121375,1,0,0:0:0:0:
136,64,121625,2,0,B|136:104|176:136|88:136|136:168|136:216,1,125,8|0,0:0|0:0,0:0:0:0:
328,184,122134,6,0,B|328:144|288:104|368:104|328:64|328:24,2,125
432,64,122875,1,0,0:0:0:0:
432,64,123125,1,8,0:0:0:0:
432,64,123375,1,0,0:0:0:0:
408,160,123625,2,0,B|408:200|368:240|448:240|408:280|408:320,1,125,0|0,0:0|0:0,0:0:0:0:
312,280,124125,1,8,0:0:0:0:
216,280,124375,2,0,B|176:280|136:320|136:240|96:280|56:280,1,125,0|0,0:0|0:0,0:0:0:0:
96,176,124875,5,4,0:0:0:0:
96,80,125125,1,0,0:0:0:0:
192,80,125375,2,0,B|264:80|264:80|320:136,1,125,0|8,0:0|0:0,0:0:0:0:
384,168,125875,2,0,B|456:168|456:112|496:184|496:184,1,125
416,248,126375,2,0,B|344:248|344:304|304:232|304:232,1,125,0|8,0:0|0:0,0:0:0:0:
208,248,126875,5,4,0:0:0:0:
232,152,127125,2,0,B|96:152,1,125
104,56,127625,2,0,B|256:56,2,125
229,56,128384,1,0,0:0:0:0:
328,56,128625,2,0,B|328:184,1,125
328,280,129125,1,0,0:0:0:0:
232,280,129375,1,0,0:0:0:0:
232,184,129625,2,0,B|232:40,1,125,8|0,0:0|0:0,0:0:0:0:
136,32,130125,6,0,B|80:32|80:32|80:376,1,375,2|0,0:0|0:0,0:0:0:0:
336,24,131875,6,2,B|144:24|96:56|96:312|112:336|384:336,1,625
408,256,134384,1,0,0:0:0:0:
408,256,134634,1,0,0:0:0:0:
408,256,134875,1,0,0:0:0:0:
408,256,135375,1,0,0:0:0:0:
88,336,135875,6,0,B|88:40|88:40|200:128|200:128|312:40|312:40|312:344,1,875,0|8,0:0|0:0,0:0:0:0:
384,96,139875,5,0,0:0:0:0:
384,192,140375,1,0,0:0:0:0:
384,288,140875,1,0,0:0:0:0:
288,288,141375,1,0,0:0:0:0:
192,288,141875,6,0,B|192:152,1,125
112,168,142625,1,0,0:0:0:0:
112,216,142875,1,0,0:0:0:0:
112,264,143125,1,0,0:0:0:0:
112,312,143375,1,0,0:0:0:0:
152,152,143875,5,8,0:0:0:0:
200,240,144375,1,8,0:0:0:0:
304,240,144875,1,8,0:0:0:0:
352,152,145375,1,8,0:0:0:0:
312,64,145875,1,8,0:0:0:0:
200,64,146375,1,4,0:0:0:0:
256,192,154375,12,0,159875,0:0:0:0:
56,40,162375,5,8,0:0:0:0:
56,136,162875,1,8,0:0:0:0:
56,232,163375,1,8,0:0:0:0:
56,328,163875,1,8,0:0:0:0:
152,328,164375,5,8,0:0:0:0:
248,328,164875,1,8,0:0:0:0:
344,328,165375,1,8,0:0:0:0:
440,328,165875,1,8,0:0:0:0:
440,232,166375,5,8,0:0:0:0:
440,136,166875,1,0,0:0:0:0:
440,40,167375,1,8,0:0:0:0:
344,40,167875,1,8,0:0:0:0:
240,40,168375,5,8,0:0:0:0:
240,136,168875,1,8,0:0:0:0:
240,232,169375,1,4,0:0:0:0:
48,40,173375,6,0,B|168:168,1,125,4|0,0:0|0:0,0:0:0:0:
208,200,173875,2,0,B|336:200,1,125
432,200,174375,1,0,0:0:0:0:
408,296,174625,2,0,B|272:296,1,125
184,296,175125,1,8,0:0:0:0:
184,200,175375,2,0,B|184:56,1,125
280,72,175875,6,0,B|432:72,1,125
376,168,176375,2,0,B|288:264,1,125,0|8,0:0|0:0,0:0:0:0:
376,312,176875,2,0,B|472:312|472:200,1,125
472,144,177375,2,0,B|472:80|360:80,1,125,0|8,0:0|0:0,0:0:0:0:
280,80,177875,5,4,0:0:0:0:
184,80,178125,2,0,B|48:80,1,125
56,176,178625,2,0,B|208:176,2,125
181,176,179384,1,0,0:0:0:0:
184,272,179625,2,0,B|320:272,1,125
408,272,180125,1,0,0:0:0:0:
368,176,180375,1,0,0:0:0:0:
272,176,180625,2,0,B|128:176,1,125,8|0,0:0|0:0,0:0:0:0:
40,344,181375,6,0,B|40:304|0:264|80:264|40:224|40:184,1,125,4|0,0:0|0:0,0:0:0:0:
144,224,181875,1,0,0:0:0:0:
144,224,182125,1,8,0:0:0:0:
144,224,182375,1,0,0:0:0:0:
240,224,182625,2,0,B|280:224|320:264|320:184|360:224|400:224,1,125,0|0,0:0|0:0,0:0:0:0:
464,216,183125,1,8,0:0:0:0:
464,120,183375,2,0,B|424:120|384:160|384:80|344:120|304:120,1,125,0|0,0:0|0:0,0:0:0:0:
240,112,183875,5,4,0:0:0:0:
144,112,184125,1,0,0:0:0:0:
144,208,184375,2,0,B|280:208,1,125,0|8,0:0|0:0,0:0:0:0:
368,192,184875,2,0,B|400:192|400:192|424:160|424:160|424:216,1,125
368,304,185375,2,0,B|400:304|400:304|424:336|424:336|424:280,1,125,0|8,0:0|0:0,0:0:0:0:
328,248,185875,5,4,0:0:0:0:
232,248,186125,2,0,B|96:248,1,125
112,152,186625,2,0,B|264:152,2,125
237,152,187384,1,0,0:0:0:0:
336,152,187625,1,8,0:0:0:0:
416,208,187875,1,0,0:0:0:0:
352,280,188125,1,0,0:0:0:0:
256,280,188375,1,0,0:0:0:0:
160,280,188625,2,0,B|16:280,1,125,8|0,0:0|0:0,0:0:0:0:
48,192,189375,6,0,B|88:192|120:152|120:240|152:192|200:192,1,125,4|0,0:0|0:0,0:0:0:0:
272,192,189875,2,0,B|312:192|344:152|344:240|376:192|424:192,1,125,4|0,0:0|0:0,0:0:0:0:
488,160,190375,1,0,0:0:0:0:
456,64,190625,2,0,B|416:64|384:24|384:112|352:64|304:64,1,125
240,96,191125,1,8,0:0:0:0:
144,96,191375,2,0,B|144:136|104:168|192:168|144:200|144:248,1,125
248,192,191875,5,4,0:0:0:0:
149,217,192125,1,0,0:0:0:0:
56,184,192375,2,0,B|56:272|56:272|96:272,1,125,0|8,0:0|0:0,0:0:0:0:
192,272,192875,2,0,B|280:272|280:376,1,125
376,344,193375,2,0,B|376:280|376:280|288:224,1,125,0|8,0:0|0:0,0:0:0:0:
320,144,193875,5,4,0:0:0:0:
224,144,194125,2,0,B|184:144|152:104|152:192|120:144|72:144,1,125
104,248,194625,2,0,B|144:248|176:208|176:296|208:248|256:248,3,125,8|0|0|0,0:0|0:0|0:0|0:0,0:0:0:0:
328,256,195625,1,8,0:0:0:0:
328,160,195875,1,0,0:0:0:0:
232,160,196125,1,0,0:0:0:0:
232,64,196375,1,0,0:0:0:0:
136,64,196625,2,0,B|136:104|176:136|88:136|136:168|136:216,1,125,8|0,0:0|0:0,0:0:0:0:
232,160,197125,1,0,0:0:0:0:
320,208,197375,6,0,B|320:168|280:128|360:128|320:88|320:48,1,125,4|0,0:0|0:0,0:0:0:0:
424,88,197875,1,0,0:0:0:0:
424,88,198125,1,8,0:0:0:0:
424,88,198375,1,0,0:0:0:0:
424,184,198625,2,0,B|424:224|384:264|464:264|424:304|424:344,1,125,0|0,0:0|0:0,0:0:0:0:
312,256,199125,1,8,0:0:0:0:
216,256,199375,2,0,B|176:256|136:296|136:216|96:256|56:256,1,125,0|0,0:0|0:0,0:0:0:0:
96,176,199875,5,4,0:0:0:0:
96,80,200125,1,0,0:0:0:0:
192,80,200375,2,0,B|264:80|264:80|320:136,1,125,0|8,0:0|0:0,0:0:0:0:
384,168,200875,2,0,B|456:168|456:112|496:184|496:184,1,125
416,248,201375,2,0,B|344:248|344:304|304:232|304:232,1,125,0|8,0:0|0:0,0:0:0:0:
208,248,201875,5,4,0:0:0:0:
232,152,202125,2,0,B|96:152,1,125
104,56,202625,2,0,B|256:56,2,125
229,56,203384,1,0,0:0:0:0:
328,56,203625,2,0,B|328:184,1,125
328,280,204125,5,0,0:0:0:0:
232,280,204375,1,0,0:0:0:0:
232,184,204625,2,0,B|232:40,1,125,8|0,0:0|0:0,0:0:0:0:
136,56,205125,1,0,0:0:0:0:
256,192,205375,12,0,207125,0:0:0:0:
256,192,207375,5,0,0:0:0:0:
256,192,207875,1,0,0:0:0:0:
256,192,208375,12,4,213375,0:0:0:0:
