osu file format v12

[General]
AudioFilename: Thymeka - Yowamushi Montblanc (Italian Version).mp3
AudioLeadIn: 0
PreviewTime: 172375
Countdown: 0
SampleSet: Soft
StackLeniency: 0.4
Mode: 0
LetterboxInBreaks: 0
WidescreenStoryboard: 0

[Editor]
Bookmarks: 66500,74125,169750
DistanceSpacing: 0.8
BeatDivisor: 4
GridSize: 8
TimelineZoom: 1

[Metadata]
Title:Coward Montblanc ~Italian Version~
TitleUnicode:
Artist:Thymeka
ArtistUnicode:
Creator:Gio96b
Version:Easy
Source:DECO*27
Tags:megpoid gumi cover hakunokaemi NeoRainier
BeatmapID:124213
BeatmapSetID:38845

[Difficulty]
HPDrainRate:2
CircleSize:3
OverallDifficulty:3
ApproachRate:3
SliderMultiplier:1.2
SliderTickRate:2

[Events]
//Background and Video events
0,0,"128918179483.png",0,0
Video,0,"Yowamushi Montblanc ~italian version~.avi"
//Break Periods
2,20583,24944
2,42084,48944
2,66584,72944
2,106375,112944
2,146584,160944
2,169584,171944
//Storyboard Layer 0 (Background)
//Storyboard Layer 1 (Fail)
//Storyboard Layer 2 (Pass)
//Storyboard Layer 3 (Foreground)
//Storyboard Sound Samples
//Background Colour Transformations
3,100,0,255,0

[TimingPoints]
2384,500,3,2,0,65,1,0
17884,-133.333333333333,3,2,0,65,0,0
20384,-100,3,2,0,65,0,0
50384,-100,3,2,0,85,0,1
66384,-100,3,2,0,65,0,0
114384,-100,3,2,0,85,0,1
130384,-100,3,2,0,65,0,0
173384,-100,3,2,0,85,0,1
213384,-100,3,2,0,65,0,0

[Colours]
Combo1 : 143,177,203
Combo2 : 108,244,142
Combo3 : 255,128,128
Combo4 : 135,218,162
Combo5 : 248,136,251
Combo6 : 181,249,106
Combo7 : 154,134,251
Combo8 : 235,170,112

[HitObjects]
256,48,2384,5,8,0:0:0:0:
256,48,2634,1,4,0:0:0:0:
256,216,3384,1,8,0:0:0:0:
256,216,3634,1,4,0:0:0:0:
400,224,4384,5,8,0:0:0:0:
448,224,4634,1,4,0:0:0:0:
448,80,5384,1,8,0:0:0:0:
400,80,5634,1,4,0:0:0:0:
424,224,6384,5,8,0:0:0:0:
424,224,6634,1,4,0:0:0:0:
280,224,7384,1,8,0:0:0:0:
280,224,7634,1,4,0:0:0:0:
280,80,8384,5,8,0:0:0:0:
280,128,8634,1,4,0:0:0:0:
280,272,9384,1,8,0:0:0:0:
280,224,9634,1,4,0:0:0:0:
136,216,10384,5,8,0:0:0:0:
136,216,10634,1,4,0:0:0:0:
256,136,11384,1,8,0:0:0:0:
256,136,11634,1,4,0:0:0:0:
368,48,12384,5,8,0:0:0:0:
368,48,12634,1,4,0:0:0:0:
256,136,13384,1,8,0:0:0:0:
256,136,13634,1,4,0:0:0:0:
112,116,14384,5,8,0:0:0:0:
160,116,14634,1,4,0:0:0:0:
164,260,15384,1,8,0:0:0:0:
116,260,15634,1,4,0:0:0:0:
256,224,16384,5,8,0:0:0:0:
256,320,16884,1,8,0:0:0:0:
340,272,17384,1,8,0:0:0:0:
436,272,17884,2,0,B|436:64|436:64|184:64,1,449.999986588955,8|4,0:0|0:0,0:0:0:0:
80,72,26384,6,4,B|272:72,1,180,4|2,0:0|0:0,0:0:0:0:
312,72,27384,1,4,0:0:0:0:
416,176,28134,5,8,0:0:0:0:
368,176,28384,1,8,0:0:0:0:
272,176,28884,2,0,B|272:256|200:256,1,120,0|4,0:0|0:0,0:0:0:0:
256,72,30384,6,2,B|256:320,1,240,2|4,0:0|0:0,0:0:0:0:
336,192,32134,1,0,0:0:0:0:
336,240,32384,2,0,B|416:360,2,120,0|8|0,0:0|0:0|0:0,0:0:0:0:
256,88,34384,6,2,B|256:224,1,120
352,208,35384,2,2,B|352:80,1,120
448,80,36384,1,8,0:0:0:0:
448,176,36884,1,8,0:0:0:0:
448,272,37384,1,8,0:0:0:0:
264,208,38384,6,2,B|264:136|264:136|192:136,1,120
120,136,39384,2,2,B|120:64|120:64|192:64,1,120
264,64,40384,1,8,0:0:0:0:
360,64,40884,1,8,0:0:0:0:
360,160,41384,1,8,0:0:0:0:
360,256,41884,1,4,0:0:0:0:
256,40,50384,6,4,B|256:176,1,120
256,208,51134,1,8,0:0:0:0:
304,208,51384,2,2,B|376:208|376:208|376:144,1,120
376,64,52384,1,4,0:0:0:0:
232,64,53134,1,0,0:0:0:0:
280,64,53384,2,0,B|280:200,2,120,0|8|0,0:0|0:0|0:0,0:0:0:0:
112,192,55134,6,2,B|248:56,1,180
288,64,56134,1,8,0:0:0:0:
336,64,56384,1,8,0:0:0:0:
328,160,56884,2,2,B|224:244,2,120,2|2|4,0:0|0:0|0:0,0:0:0:0:
424,152,58384,6,4,B|424:288,1,120
376,272,59134,1,8,0:0:0:0:
328,272,59384,2,2,B|248:272|232:200,1,120
232,112,60384,1,4,0:0:0:0:
88,112,61134,6,2,B|240:112|240:24,1,180
336,40,62384,1,4,0:0:0:0:
192,240,63134,6,2,B|384:240,1,180
416,152,64384,1,8,0:0:0:0:
416,96,64884,2,2,B|288:96,2,120,2|2|2,0:0|0:0|0:0,0:0:0:0:
416,192,66384,1,4,0:0:0:0:
84,72,74384,6,4,B|192:156,1,120
256,200,75384,1,8,0:0:0:0:
408,136,76134,1,8,0:0:0:0:
408,184,76384,2,2,B|408:312|408:312|272:312,1,240,0|4,0:0|0:0,0:0:0:0:
232,132,78384,6,2,B|224:120|160:96|112:120|64:88|32:120,1,180
56,156,79384,1,8,0:0:0:0:
56,304,80134,1,0,0:0:0:0:
104,304,80384,2,0,B|176:304|176:216,2,120
64,120,82384,6,0,B|196:120,1,120,4|0,0:0|0:0,0:0:0:0:
280,120,83384,1,8,0:0:0:0:
456,120,84134,1,8,0:0:0:0:
456,168,84384,2,2,B|464:296|288:296,1,240,2|4,0:0|0:0,0:0:0:0:
256,208,86384,6,2,B|256:64,2,120
448,96,88384,5,8,0:0:0:0:
448,192,88884,1,8,0:0:0:0:
448,288,89384,1,8,0:0:0:0:
352,288,89884,1,4,0:0:0:0:
256,288,90384,6,0,B|256:152,1,120
256,56,91384,1,8,0:0:0:0:
200,192,92134,1,8,0:0:0:0:
200,144,92384,1,8,0:0:0:0:
96,192,92884,2,2,B|24:192|28:100,1,120,2|4,0:0|0:0,0:0:0:0:
200,56,94384,6,2,B|384:248,1,240
224,208,96134,1,8,0:0:0:0:
176,208,96384,2,0,B|104:320,2,120,0|8|4,0:0|0:0|0:0,0:0:0:0:
256,88,98384,6,2,B|136:160,1,120,4|2,0:0|0:0,0:0:0:0:
208,232,99384,2,2,B|320:160,1,120
392,112,100384,1,8,0:0:0:0:
456,192,100884,1,8,0:0:0:0:
392,264,101384,1,8,0:0:0:0:
216,192,102384,6,2,B|216:112|304:112,1,120
384,96,103384,2,2,B|384:16|288:32,1,120
208,32,104384,1,8,0:0:0:0:
144,104,104884,1,8,0:0:0:0:
96,184,105384,1,8,0:0:0:0:
40,264,105884,1,4,0:0:0:0:
256,40,114384,6,4,B|392:40,1,120
368,136,115384,2,2,B|312:192|432:192|368:264,1,120
392,344,116384,1,4,0:0:0:0:
248,344,117134,1,8,0:0:0:0:
248,296,117384,2,0,B|376:296,2,120,0|8|0,0:0|0:0|0:0,0:0:0:0:
136,272,119134,6,2,B|136:212|136:212|196:212|196:212|196:136,1,180
192,48,120384,1,8,0:0:0:0:
288,48,120884,2,2,B|408:48,2,120,2|2|4,0:0|0:0|0:0,0:0:0:0:
288,144,122384,6,2,B|160:144,1,120,4|2,0:0|0:0,0:0:0:0:
120,192,123384,2,2,B|120:328,1,120
216,312,124384,1,4,0:0:0:0:
216,168,125134,1,0,0:0:0:0:
264,168,125384,2,0,B|344:288,2,120
360,176,127134,6,4,B|168:176,1,180
128,176,128134,1,8,0:0:0:0:
128,128,128384,1,8,0:0:0:0:
128,32,128884,2,2,B|256:32,2,120
32,32,130384,1,4,0:0:0:0:
320,48,131884,6,0,B|128:48|80:64|80:320|128:336|352:336,1,600
72,328,135884,6,0,B|72:40|72:40|172:128|172:128|272:40|272:40|272:344,1,840,0|8,0:0|0:0,0:0:0:0:
368,328,139884,5,0,0:0:0:0:
368,232,140384,1,8,0:0:0:0:
368,136,140884,1,0,0:0:0:0:
272,136,141384,1,0,0:0:0:0:
272,232,141884,1,8,0:0:0:0:
176,232,142384,2,0,B|56:232|56:48,1,240,0|8,0:0|0:0,0:0:0:0:
152,64,143884,6,0,B|280:64,1,120,0|4,0:0|0:0,0:0:0:0:
296,160,144884,2,0,B|152:160,1,120,0|4,0:0|0:0,0:0:0:0:
152,256,145884,2,0,B|288:256,1,120,0|4,0:0|0:0,0:0:0:0:
256,48,162384,5,8,0:0:0:0:
256,144,162884,1,8,0:0:0:0:
256,240,163384,1,8,0:0:0:0:
256,336,163884,1,8,0:0:0:0:
352,336,164384,5,8,0:0:0:0:
352,240,164884,1,8,0:0:0:0:
352,144,165384,1,8,0:0:0:0:
352,48,165884,1,8,0:0:0:0:
256,48,166384,1,4,0:0:0:0:
64,40,167384,5,8,0:0:0:0:
120,120,167884,1,8,0:0:0:0:
176,200,168384,1,8,0:0:0:0:
240,272,168884,1,8,0:0:0:0:
304,344,169384,1,4,0:0:0:0:
256,40,173384,6,4,B|256:176,1,120
304,208,174384,2,2,B|376:208|376:208|376:144,1,120
376,64,175384,1,4,0:0:0:0:
232,64,176134,1,8,0:0:0:0:
280,64,176384,2,0,B|280:200,2,120,0|8|0,0:0|0:0|0:0,0:0:0:0:
112,192,178134,6,2,B|248:56,1,180
336,64,179384,1,8,0:0:0:0:
328,160,179884,2,2,B|224:244,2,120,2|2|4,0:0|0:0|0:0,0:0:0:0:
424,152,181384,6,4,B|424:288,1,120
328,272,182384,2,2,B|248:272|232:200,1,120
232,112,183384,1,4,0:0:0:0:
88,112,184134,6,0,B|88:304,1,180
176,328,185384,1,0,0:0:0:0:
192,240,186134,6,2,B|384:240,1,180
416,240,187134,1,8,0:0:0:0:
416,192,187384,1,8,0:0:0:0:
416,96,187884,2,2,B|288:96,2,120,2|2|2,0:0|0:0|0:0,0:0:0:0:
256,40,189384,6,4,B|392:40,1,120
368,136,190384,2,2,B|312:192|432:192|368:264,1,120
392,344,191384,1,4,0:0:0:0:
248,344,192134,1,8,0:0:0:0:
248,296,192384,2,0,B|376:296,2,120,0|8|0,0:0|0:0|0:0,0:0:0:0:
136,272,194134,6,2,B|136:208|136:208|192:208|192:208|192:136,1,180
192,48,195384,1,8,0:0:0:0:
288,48,195884,2,2,B|408:48,2,120,2|2|4,0:0|0:0|0:0,0:0:0:0:
288,144,197384,6,2,B|160:144,1,120,4|2,0:0|0:0,0:0:0:0:
120,192,198384,2,2,B|120:328,1,120
216,312,199384,1,4,0:0:0:0:
216,168,200134,1,8,0:0:0:0:
264,168,200384,2,0,B|344:288,2,120,0|8|0,0:0|0:0|0:0,0:0:0:0:
360,176,202134,6,4,B|168:176,1,180
128,176,203134,1,8,0:0:0:0:
128,128,203384,1,8,0:0:0:0:
128,32,203884,2,2,B|256:32,2,120
256,192,205384,12,0,213384,0:0:0:0:
